#VERSION:0.83;
#TITLE:Nocturnal Type;
#SUBTITLE:;
#ARTIST:switchworks;
#TITLETRANSLIT:;
#SUBTITLETRANSLIT:;
#ARTISTTRANSLIT:;
#GENRE:NOCTURNAL TECHNO;
#ORIGIN:;
#CREDIT:;
#BANNER:Nocturnal Type.png;
#BACKGROUND:Nocturnal Type-bg.png;
#PREVIEWVID:;
#JACKET:Nocturnal Type-jacket.png;
#CDIMAGE:;
#DISCIMAGE:;
#LYRICSPATH:;
#CDTITLE:cdtitle.png;
#MUSIC:Nocturnal Type.ogg;
#OFFSET:-0.049000;
#SAMPLESTART:84.028999;
#SAMPLELENGTH:15.000000;
#SELECTABLE:YES;
#BPMS:0.000=160.000,
94.000=80.000,
102.000=160.000;
#STOPS:28.000=0.750,
210.000=1.125;
#DELAYS:;
#WARPS:;
#TIMESIGNATURES:0.000=4=4;
#TICKCOUNTS:0.000=4;
#COMBOS:0.000=1;
#SPEEDS:0.000=1.000=0.000=0;
#SCROLLS:0.000=1.000;
#FAKES:;
#LABELS:0.000=Song Start;
#BGCHANGES:;
#KEYSOUNDS:;
#ATTACKS:
;

//---------------dance-single - Daff_4K----------------
#NOTEDATA:;
#CHARTNAME:Daff_4K;
#STEPSTYPE:dance-single;
#DESCRIPTION:Daff_4K;
#CHARTSTYLE:;
#DIFFICULTY:Beginner;
#METER:3;
#RADARVALUES:0.113541,0.220859,0.026202,0.000000,0.000000,91.000000,88.000000,3.000000,0.000000,0.000000,0.000000,0.000000,0.000000,0.000000,0.113541,0.220859,0.026202,0.000000,0.000000,91.000000,88.000000,3.000000,0.000000,0.000000,0.000000,0.000000,0.000000,0.000000;
#CREDIT:Daff_4K;
#NOTES:
0000
0000
0000
0000
,
0000
0000
0000
0000
,
0000
0000
0000
0000
,
0000
0000
0000
0000
,
1000
0000
0000
0000
,
0001
0000
0000
0000
,
0100
0000
0000
0000
,
0010
0000
0010
0000
,
0000
0000
1000
0000
,
0000
0000
0100
0100
,
0100
0000
0100
0100
,
0100
0000
0010
0000
,
0000
0000
0001
0000
,
0000
0000
0100
0100
,
0100
0000
0100
0100
,
0100
0000
0001
0000
,
0000
0000
0010
0000
,
0000
0000
0100
0100
,
0100
0000
0100
0100
,
0100
0000
1000
0000
,
0000
0000
0010
0000
,
0000
0000
0100
0000
,
0000
0000
0001
0000
,
1000
0000
1001
0000
,
0000
0000
0000
0000
,
0000
0000
0001
0000
,
0000
0000
1000
0000
,
0000
0000
0100
0000
,
0000
0000
0010
0000
,
0000
0000
0100
0000
,
0000
0000
1000
0000
,
0000
0000
0010
0000
,
0010
0000
0010
0000
,
0000
0000
0100
0000
,
0000
0000
0001
0000
,
0000
0000
0010
0000
,
0010
0000
0010
0000
,
0000
0000
0001
0000
,
0000
0000
0000
0000
,
0000
0000
1000
0000
,
0000
0000
0000
0000
,
0000
0000
0010
0000
,
0000
0000
0000
0000
,
0000
0000
0100
0000
,
0000
0000
0000
0000
,
0000
0000
0001
0000
,
0000
0000
0010
0000
,
0000
0000
1000
0000
,
0000
0000
0010
0000
,
0000
0000
0001
0000
,
0001
0000
0001
0000
,
0000
0000
1000
0000
,
1000
0000
1000
0000
,
0000
0000
0000
0001
,
0000
0000
0000
0100
,
0000
0000
0000
0001
,
0000
0001
0000
0001
,
0000
0000
0000
1000
,
0000
0000
0000
0100
,
0000
0000
0000
1000
,
0000
1000
0000
1000
,
0000
0000
0000
0001
,
0000
0000
0000
0100
,
0100
0100
0000
0010
,
0000
1000
0000
0001
,
0000
0000
0000
1000
,
0000
0000
0000
1001
,
0000
0000
0000
0001
,
0000
1000
0000
1001
,
0000
0000
0000
0000
,
0000
0000
0000
0100
,
0000
0100
0000
0100
,
0000
0100
0000
0000
;

//---------------dance-single - Daff_4K----------------
#NOTEDATA:;
#CHARTNAME:Daff_4K;
#STEPSTYPE:dance-single;
#DESCRIPTION:Daff_4K;
#CHARTSTYLE:;
#DIFFICULTY:Easy;
#METER:6;
#RADARVALUES:0.254532,0.317697,0.034936,0.122275,0.000000,204.000000,200.000000,4.000000,14.000000,0.000000,0.000000,0.000000,0.000000,0.000000,0.254532,0.317697,0.034936,0.122275,0.000000,204.000000,200.000000,4.000000,14.000000,0.000000,0.000000,0.000000,0.000000,0.000000;
#CREDIT:Daff_4K;
#NOTES:
0000
0000
0000
0000
,
0000
0000
0000
0000
,
0000
0000
0000
0000
,
0000
0000
0000
0000
,
1000
0001
1000
0001
,
0010
0100
0010
0100
,
1000
0001
1000
0001
,
1001
0000
0001
0100
,
1000
0000
1000
0100
,
0001
1000
0001
0010
,
0100
0000
0100
0010
,
0001
0000
1000
0100
,
0001
0000
0001
0100
,
1000
0001
1000
0010
,
0100
0000
0100
0010
,
1000
0000
0001
0010
,
1000
0000
1000
0010
,
0001
1000
0001
0100
,
0010
0000
1000
0100
,
0010
0001
1000
0010
,
0001
0000
0001
0010
,
1000
0001
0020
0000
,
0000
0000
0130
1000
,
0001
1000
2002
0000
,
0000
0000
0000
0000
,
0000
3003
0001
0100
,
0000
0001
0000
1000
,
0000
0001
1000
0100
,
0000
1000
0000
0001
,
0000
1000
0001
0010
,
0100
0000
0010
0001
,
1000
0001
0100
0100
,
0010
0000
1000
0001
,
1000
0000
1000
0010
,
0100
0000
0010
1000
,
0001
1000
0100
0100
,
0010
0000
0001
1000
,
0001
1000
0020
0000
,
0000
0000
0230
0000
,
0000
0000
0302
0000
,
0000
0000
2003
0000
,
0000
0000
3200
0000
,
0000
0000
0320
0000
,
0000
0000
0032
0000
,
0000
0000
2003
0000
,
0000
0000
3001
0010
,
0001
0010
0100
1000
,
0100
1000
0001
0100
,
0001
0100
0010
1000
,
0010
1000
0001
0010
,
0100
1000
0010
0100
,
0001
1000
0100
0010
,
0001
1000
1001
0001
,
0100
0010
0100
0001
,
1000
0001
0010
0100
,
1000
0001
1000
0010
,
0100
0001
0001
1000
,
0100
0010
0100
1000
,
0001
1000
0010
0100
,
0001
1000
0001
0010
,
0100
1000
1000
0001
,
0100
1000
0000
1000
,
0100
0001
1000
0001
,
0010
0100
0010
0001
,
1000
0010
0010
1000
,
0100
0001
0000
0001
,
0100
1000
0001
0200
,
0000
0000
0000
0310
,
1000
0001
1000
2002
,
0000
0000
0000
0000
,
0000
0000
0000
0000
,
0000
0000
0000
0000
,
0000
0000
0000
3003
;

//---------------dance-single - Daff_4K----------------
#NOTEDATA:;
#CHARTNAME:Daff_4K;
#STEPSTYPE:dance-single;
#DESCRIPTION:Daff_4K;
#CHARTSTYLE:;
#DIFFICULTY:Medium;
#METER:10;
#RADARVALUES:0.420476,0.506568,0.157211,0.157211,0.174679,337.000000,319.000000,18.000000,18.000000,0.000000,0.000000,0.000000,0.000000,0.000000,0.420476,0.506568,0.157211,0.157211,0.174679,337.000000,319.000000,18.000000,18.000000,0.000000,0.000000,0.000000,0.000000,0.000000;
#CREDIT:Daff_4K;
#NOTES:
0000
0000
0000
0000
,
0000
0000
0000
0000
,
0000
0000
0000
0000
,
0000
0000
0000
0000
,
0001
0010
1000
0010
,
0001
0100
1000
0100
,
0001
1000
0100
0010
,
2002
0000
0000
0000
3003
0000
0000
0000
1000
0000
0000
0100
0000
0000
1000
0000
,
0000
0000
0001
0000
1000
0000
0000
0000
0001
0000
0000
0010
0000
0000
0001
0000
,
0000
1000
0000
0000
0010
0000
0000
0000
0100
0000
0001
0000
1000
0000
0000
0000
,
1001
0000
0001
1000
0100
0000
0110
0000
,
1001
0000
0000
0000
1000
0000
0000
0000
0001
0000
0000
0100
0000
0000
0001
0000
,
0000
0000
1000
0000
0001
0000
0000
0000
1000
0000
0000
0010
0000
0000
1000
0000
,
0000
0001
0000
0000
0010
0000
0000
0000
0100
0000
1000
0000
0001
0000
0000
0000
,
1001
0000
1000
0001
0100
0000
0110
0000
,
1001
0000
0000
0000
0001
0000
0000
0000
1000
0000
0000
0010
0000
0000
0100
0000
,
0000
0000
0010
0000
1000
0000
0000
0000
0001
0000
0000
1000
0000
0000
0100
0000
,
0000
0010
0000
0000
0001
0000
1000
0000
0001
0000
0100
0000
0010
0000
0000
0000
,
1010
0000
1000
0001
0010
0000
0110
0000
,
1100
0000
0000
0000
1001
0000
0000
0000
0001
0000
0000
0010
0000
0000
0100
0000
,
0000
0000
0010
0000
0001
0000
0000
0000
1000
0000
0000
0001
0000
0000
0100
0000
,
0000
0010
0000
0000
1000
0000
0001
0000
0020
0000
0000
0000
0100
0000
0000
0000
,
0100
0000
0130
0000
1000
0001
1000
0001
,
0100
0010
0100
0010
2000
0000
0000
0000
,
3200
0000
0302
0000
,
0203
0000
1300
0010
,
1000
1000
0001
0010
,
0001
0001
1000
0100
,
0010
0001
0100
0010
,
1000
0000
0000
0000
0001
0000
0000
0000
1000
0000
0000
0100
0000
0000
1000
0000
,
0000
0000
0001
0000
1000
0000
0000
0000
0001
0000
0000
0010
0000
0000
0001
0000
,
0000
0100
0000
0000
0010
0000
0000
0000
1000
0000
0000
0000
0100
0000
0000
0000
,
2200
3300
1000
1001
,
0001
0000
0000
0000
1000
0000
0000
0000
0001
0000
0000
0100
0000
0000
0001
0000
,
0000
0000
1000
0000
0001
0000
0000
0000
1000
0000
0000
0010
0000
0000
1000
0000
,
0000
0100
0000
0000
0010
0000
0000
0000
0001
0000
0000
0000
0100
0000
0000
0000
,
0202
0303
0001
1001
,
1000
0001
0020
0100
,
0001
0100
0031
1000
,
0001
0100
0020
0100
,
1000
0100
1030
0001
,
1000
0100
2000
0010
,
0001
0010
3001
1000
,
0100
0010
0002
0010
,
1000
0010
1003
0001
,
0100
0010
1000
0100
,
0001
0100
1000
0001
,
0100
0000
0010
1000
0001
0000
0100
0000
,
1000
0100
0001
1000
,
0100
0000
0010
0001
1000
0000
0010
0000
,
0001
0010
1000
0100
,
0001
0000
0100
0000
1000
0001
1000
0001
,
0100
0010
0100
0000
1001
0000
1000
0001
,
0000
0010
0000
0000
0001
0000
0000
1000
0000
0000
0001
0000
0000
0100
0000
0000
,
0001
0000
0000
1000
0000
0000
0100
0000
0000
0000
0010
0000
0000
0000
0001
0000
,
0000
1000
0000
0000
0001
0000
0000
0100
0000
0000
0001
0000
0000
1000
0000
0000
,
0100
0000
0000
0010
0000
0000
0001
0000
1000
0000
0001
0000
0000
0000
1000
0000
,
0000
0010
0000
0000
1000
0000
0000
0001
0000
0000
1000
0000
0000
0100
0000
0000
,
1000
0000
0000
0001
0000
0000
0100
0000
0000
0000
0010
0000
0000
0000
1000
0000
,
0000
0001
0000
0000
1000
0000
0000
0100
0000
0000
1000
0000
0000
0001
0000
0000
,
0100
0000
0000
0010
0000
0000
1000
0000
0001
0000
1000
0000
0001
0000
0000
0010
,
0000
0000
0100
0000
0000
0000
0010
0000
0001
0000
0000
0000
1000
0000
0000
0001
,
0000
0000
0100
0000
0000
0001
0000
0000
1000
0000
0000
0000
0001
0000
0010
0000
,
0100
0000
1100
0000
1000
0010
0100
0000
,
0010
0000
0100
0000
0001
0000
0000
0000
1001
0000
0000
0000
1000
0000
0000
0010
,
0000
0000
0100
0000
0000
0000
0010
0000
1000
0000
0000
0000
0001
0000
0000
1000
,
0000
0000
0100
0000
0000
1000
0000
0000
0001
0000
0000
0000
0200
0000
0000
0000
,
0010
0000
0010
0000
0310
0000
1000
0001
,
1000
0001
0010
0100
0010
0100
2000
0000
,
0010
0001
0010
3002
,
0010
1000
0010
1003
,
0100
0001
0100
1000
,
0001
0100
0010
0000
;

//---------------dance-single - Daff_4K----------------
#NOTEDATA:;
#CHARTNAME:Daff_4K;
#STEPSTYPE:dance-single;
#DESCRIPTION:Daff_4K;
#CHARTSTYLE:;
#DIFFICULTY:Hard;
#METER:12;
#RADARVALUES:0.489100,0.667163,0.043670,0.288220,0.257651,392.000000,387.000000,5.000000,33.000000,0.000000,0.000000,0.000000,0.000000,0.000000,0.489100,0.667163,0.043670,0.288220,0.257651,392.000000,387.000000,5.000000,33.000000,0.000000,0.000000,0.000000,0.000000,0.000000;
#CREDIT:Daff_4K;
#NOTES:
0000
0000
0000
0000
,
0000
0000
0000
0000
,
0000
0000
0000
0000
,
0000
0000
0000
0000
,
1000
0000
0010
0000
0001
0000
0010
1000
,
0001
0000
0010
0000
1000
0000
0010
0001
,
1000
0001
0100
0010
,
1001
0000
0000
0000
1000
0000
0001
0000
1000
0000
0000
0010
0000
0000
0002
0000
,
0000
0000
0013
0000
0100
0000
0010
0000
1000
0000
0000
0100
0000
0000
0010
0000
,
0000
0001
0000
0000
0100
0000
0010
0000
1000
0000
0100
0000
0010
0000
0100
2000
,
0000
0000
3000
0000
0001
0000
1000
0000
0010
0000
1000
0001
0000
0000
0010
0000
,
0100
0010
0000
0000
0001
0000
1000
0000
0001
0000
0000
0010
0000
0000
2000
0000
,
0000
0000
3010
0000
0100
0000
0010
0000
0001
0000
0000
0100
0000
0000
0010
0000
,
0000
1000
0000
0000
0100
0000
0010
0000
0001
0000
0100
0000
0010
0000
0100
0002
,
0000
0000
0003
0000
1000
0000
0001
0000
0010
0000
0001
1000
0000
0000
0010
0000
,
0100
0010
0000
0000
1000
0000
0001
0000
0010
0000
0000
0001
0000
0000
0200
0000
,
0000
0000
0310
0000
1000
0000
0001
0000
1000
0000
0000
0100
0000
0000
0001
0000
,
0000
0100
0000
0000
1000
0000
0001
0000
1000
0000
0010
0000
0100
0000
0010
2000
,
0000
0000
3000
0000
0001
0000
1000
0000
0100
0000
0010
0100
0000
0000
0010
0000
,
0001
0010
0000
0000
0001
0000
1000
0000
0010
0000
0000
1000
0000
0000
0200
0000
,
0000
0000
0310
0000
0001
0000
1000
0000
0001
0000
0000
0100
0000
0000
1000
0000
,
0000
0100
0000
0000
0001
0000
1000
0000
0200
0000
0000
0000
0010
0000
0000
0000
,
0010
0000
0010
0000
0310
0001
1000
0001
,
0100
0000
0010
0000
1000
0001
1000
0000
0002
0000
0000
0000
0000
0000
0000
0000
,
0023
0000
0230
0000
,
2300
0000
3001
0100
,
1000
0100
0001
0010
,
1000
0000
0010
0001
1000
0000
0010
0000
,
0001
0010
1000
0100
,
0001
0000
0000
0000
0100
0000
1000
0000
0020
0000
0000
0100
0000
0000
0100
0000
,
0000
0000
0130
0000
0001
0000
1000
0000
0200
0000
0000
0010
0000
0000
0320
0000
,
0000
0001
0000
0000
0031
0000
1000
0000
0001
0000
0100
0000
0010
0000
0000
0000
,
2010
0000
3001
0010
0100
0000
2100
0000
,
3010
0000
0000
0000
0100
0000
0001
0000
0020
0000
0000
0100
0000
0000
0100
0000
,
0000
0000
0130
0000
1000
0000
0001
0000
0200
0000
0000
0010
0000
0000
0320
0000
,
0000
1000
0000
0000
1030
0000
0001
0000
1000
0000
0100
0000
0010
0000
0000
0000
,
0012
0000
1003
0010
0100
0000
0102
0000
,
0013
0100
1000
0000
0002
0000
0100
0000
,
1000
0010
1000
0100
,
1000
0010
2003
0010
,
0001
0100
0001
0010
,
0001
0100
3020
1000
,
0100
0001
0100
1000
,
0100
0001
0230
0001
,
0010
1000
0010
0001
,
0010
1000
0301
0100
,
1000
0000
0100
0001
1000
0000
0100
0000
,
0001
0000
0100
1000
0001
0000
0010
0000
,
1000
0000
0010
0001
1000
0000
0010
0000
,
0001
0000
0010
1000
0001
0010
0100
0010
,
0001
0010
0100
1000
0010
0100
0010
1000
,
0010
0100
0001
0010
0100
1000
0010
0100
,
0001
1000
0001
1000
0001
1000
0001
1000
0001
0000
0000
0000
1000
0000
0010
0000
,
0000
0100
0000
0000
0010
0000
0000
1000
0000
0000
0001
0000
0000
1000
0000
0000
,
0100
0000
0000
0001
0000
0000
0100
0000
1000
0000
0001
0000
0000
0000
1000
0000
,
0000
0010
0000
0000
0100
0000
0000
0001
0000
0000
0010
0000
0000
0100
0000
0000
,
1000
0000
0000
0001
0000
0000
0100
0000
0010
0000
1000
0000
0001
0000
0010
0000
,
0000
0100
0000
0000
0010
0000
0000
0001
0000
0000
1000
0000
0000
0001
0000
0000
,
0100
0000
0000
1000
0000
0000
0100
0000
0001
0000
1000
0000
0000
0000
0001
0000
,
0000
0010
0000
0000
0100
0000
0000
1000
0000
0000
0010
0000
0000
0100
0000
0000
,
0001
0000
0000
1000
0000
0000
0100
0000
0010
0000
0001
0000
1000
0000
0000
0010
,
0000
0000
0002
0000
0000
0000
0013
0000
1000
0000
0001
0000
1000
0000
0000
0100
,
0000
0000
0001
0000
0000
1000
0000
0000
0010
0000
0100
0000
0010
0000
0001
0000
,
1000
0000
0001
0200
0000
0000
0300
0000
0010
0000
1000
0000
0001
0000
1000
0100
,
0000
0000
0010
0000
0100
0010
0000
0000
0001
0000
1000
0000
0001
0000
0000
0010
,
0000
0000
2000
0000
0000
0000
3010
0000
0001
0000
1000
0000
0001
0000
0000
0100
,
0000
0000
1000
0000
0000
0001
0000
0000
0010
0000
0100
0000
0002
0000
0000
0000
,
1000
0000
1000
0000
1000
0000
1003
0100
,
0001
0000
0100
0000
1000
0000
0001
0000
0100
0010
0100
0010
0200
0000
0000
0000
,
0010
0010
0010
0010
,
0010
0010
0010
0320
,
1000
1000
1000
2030
,
0001
0001
0001
3000
;

//---------------dance-single - Daff_4K -夜行性-----------------
#NOTEDATA:;
#CHARTNAME:Daff_4K -夜行性-;
#STEPSTYPE:dance-single;
#DESCRIPTION:Daff_4K -夜行性-;
#CHARTSTYLE:;
#DIFFICULTY:Challenge;
#METER:15;
#RADARVALUES:0.631338,0.794242,0.000000,0.585173,0.554605,506.000000,506.000000,0.000000,67.000000,0.000000,0.000000,0.000000,0.000000,0.000000,0.631338,0.794242,0.000000,0.585173,0.554605,506.000000,506.000000,0.000000,67.000000,0.000000,0.000000,0.000000,0.000000,0.000000;
#CREDIT:Daff_4K -夜行性-;
#NOTES:
// measure 0
0000
0000
0000
0000
,  // measure 1
0000
0000
0000
0000
,  // measure 2
0000
0000
0000
0000
,  // measure 3
0000
0000
0000
0000
,  // measure 4
1000
0010
0100
0000
0010
1000
0100
0010
,  // measure 5
0001
0010
0100
0000
0010
0001
0100
0010
,  // measure 6
1000
0010
0001
0000
0010
0100
0010
1000
,  // measure 7
0002
0000
0000
0000
0013
0100
0010
0100
0020
0000
0000
0032
0000
0000
2003
0000
,  // measure 8
0000
0000
3001
0000
0100
0001
0100
0000
0020
0000
0000
2030
0000
0000
3002
0000
,  // measure 9
0000
2003
0000
0000
3100
0000
0010
0000
0001
0000
0100
0000
0010
0000
0100
0002
,  // measure 10
0000
0000
1003
0000
0001
0000
0010
0000
0100
0000
0010
0002
0000
0000
1003
0000
,  // measure 11
0001
2000
0000
0000
3010
0100
0010
0100
0020
0000
0000
2030
0000
0000
3002
0000
,  // measure 12
0000
0000
1003
0000
0100
1000
0100
0000
0020
0000
0000
0032
0000
0000
2003
0000
,  // measure 13
0000
3002
0000
0000
0103
0000
0010
0000
1000
0000
0100
0000
0010
0000
0100
2000
,  // measure 14
0000
0000
3001
0000
1000
0000
0010
0000
0100
0000
0010
2000
0000
0000
3001
0000
,  // measure 15
1000
0002
0000
0000
1003
0100
1000
0100
0020
0000
0000
0032
0000
0000
2003
0000
,  // measure 16
0000
0000
3010
0000
0100
0010
0100
0000
0002
0000
0000
0023
0000
0000
2030
0000
,  // measure 17
0000
3002
0000
0000
0103
0000
1000
0000
0010
0000
0100
0000
0010
0000
1000
0002
,  // measure 18
0000
0000
0013
0000
0001
0000
0100
0000
0010
0000
0100
0002
0000
0000
1003
0000
,  // measure 19
0100
0020
0000
0000
0031
0100
0001
0100
0020
0000
0000
2030
0000
0000
3002
0000
,  // measure 20
0000
0000
0013
0000
0100
0010
0100
0000
2000
0000
0000
3020
0000
0000
0032
0000
,  // measure 21
0000
2003
0000
0000
3100
0000
0001
0000
0020
0000
0000
0000
0100
0000
0000
0000
,  // measure 22
0100
0000
0100
0000
0031
0100
1000
0100
,  // measure 23
0001
0000
1000
0000
0100
0010
0100
0010
0002
0000
0000
0000
0000
0000
0000
0000
,  // measure 24
0203
0000
2300
0000
,  // measure 25
3020
0000
0032
0100
,  // measure 26
1000
0010
2003
0010
,  // measure 27
0001
0100
3020
0001
,  // measure 28
0100
1000
0230
1000
,  // measure 29
0010
0000
0000
0000
0301
0000
1000
0000
0200
0000
0000
0010
0000
0000
0320
0000
,  // measure 30
0000
0000
0031
0000
1000
0000
0010
0000
0200
0000
0000
0001
0000
0000
0302
0000
,  // measure 31
0000
1000
0000
0000
1003
0000
0001
0000
0010
0000
0100
0000
0010
0000
0001
2000
,  // measure 32
0000
0000
3001
0000
0100
0000
0010
0000
2000
0000
0000
3100
0000
0000
0020
0000
,  // measure 33
0000
0031
0000
0000
1000
0000
0001
0000
0200
0000
0000
0010
0000
0000
0320
0000
,  // measure 34
0000
0000
1030
0000
0001
0000
0010
0000
0200
0000
0000
1000
0000
0000
2300
0000
,  // measure 35
0000
0001
0000
0000
3001
0000
1000
0000
0010
0000
0100
0000
0010
0000
1000
0002
,  // measure 36
0000
0000
1003
0000
0100
0000
0010
0000
0002
0000
0000
0103
0000
0000
0020
0000
,  // measure 37
0000
1030
0000
0000
0001
0000
1000
0000
0001
0000
0010
0000
0100
0000
0010
0000
,  // measure 38
0000
0001
1000
0001
0000
0100
0010
0100
,  // measure 39
0000
0001
1000
0001
0000
0010
0100
1000
,  // measure 40
0000
0010
0100
0001
0000
1000
0100
0010
,  // measure 41
0000
0001
0100
0010
1000
0100
0010
0100
,  // measure 42
0000
1000
0001
1000
0000
0010
0100
0010
,  // measure 43
0000
1000
0001
1000
0000
0100
0010
0001
,  // measure 44
0000
0100
0010
1000
0000
0001
0010
0100
,  // measure 45
0000
0000
1000
0000
0010
0000
0100
0000
0001
0000
0000
0001
0010
0000
0000
0010
,  // measure 46
0001
0000
0000
0001
0100
0000
0000
0100
0010
0000
0000
0010
1000
0000
0000
1000
,  // measure 47
0100
0000
0000
0100
1000
0000
0000
1000
0010
0000
0000
0010
0100
0000
0000
0100
,  // measure 48
0001
0000
0000
0001
1000
0000
0000
1000
0001
0000
0000
0001
0010
0000
0000
0010
,  // measure 49
0100
0000
0000
0100
1000
0000
0000
1000
0001
0000
0100
0000
1000
0000
0100
0000
,  // measure 50
0001
1000
0100
0001
0100
1000
0001
0100
,  // measure 51
0010
0000
1000
0000
0100
0000
0010
0000
0001
1000
0001
1000
0001
1000
0001
1000
,  // measure 52
0001
1000
0001
1000
0001
1000
0001
1000
0002
0000
0000
0000
1003
0000
0001
0000
,  // measure 53
1000
0100
0000
0100
0010
0000
0010
0001
0000
0001
1000
0000
0010
0100
0000
0100
,  // measure 54
0001
0000
0001
1000
0000
1000
0100
0000
0010
0000
0001
0000
0000
0000
1000
0000
,  // measure 55
0001
0100
0000
0100
0010
0000
0010
1000
0000
1000
0001
0000
0010
0100
0000
0100
,  // measure 56
1000
0000
1000
0001
0000
0001
0100
0000
0010
0000
1000
0000
0000
0000
0001
0000
,  // measure 57
0010
0001
0000
1000
0001
0000
0100
0010
0000
0010
1000
0000
0001
0010
0000
0001
,  // measure 58
1000
0000
0010
0100
0000
0100
0001
0000
1000
0000
0100
0000
0000
0000
1000
0000
,  // measure 59
0010
1000
0000
0001
1000
0000
0100
0010
0000
0010
0001
0000
1000
0010
0000
1000
,  // measure 60
0001
0000
0010
0100
0000
0100
1000
0000
0001
1000
0001
1000
0001
0000
0100
0010
,  // measure 61
0000
0100
0001
0000
1000
0000
0001
0000
0010
0100
0010
0000
0001
0000
1000
0010
,  // measure 62
0000
1000
0001
0000
1000
0100
0000
1000
0001
0000
1000
0000
0010
0000
0001
0000
,  // measure 63
0010
0000
1000
0002
0000
0000
1003
0000
0100
0000
0001
0000
0100
0000
1000
0002
,  // measure 64
0000
0000
0103
0000
0010
0100
0010
0000
1000
0001
1000
0001
1000
0000
0100
0010
,  // measure 65
0000
0100
1000
0000
0001
0000
1000
0000
0010
0100
0010
0000
1000
0000
0001
0010
,  // measure 66
0000
0001
1000
0000
0001
0100
0000
0001
1000
0000
0001
0000
0010
0000
1000
0000
,  // measure 67
0010
0000
0001
2000
0000
0000
3001
0000
0100
0000
1000
0000
0100
0000
0001
0000
,  // measure 68
1000
0000
0100
0000
0010
0000
0001
0000
0100
0010
0100
0010
2000
0000
0000
0000
,  // measure 69
0100
0001
0010
0001
,  // measure 70
0100
0001
0010
3002
,  // measure 71
0100
1000
0010
1000
,  // measure 72
0100
1000
0010
0003
;
