#TITLE:日天悦扇紊舞;
#SUBTITLE:Nitten essen midaremai;
#ARTIST:Akhuta;
#TITLETRANSLIT:;
#SUBTITLETRANSLIT:;
#ARTISTTRANSLIT:;
#GENRE:;
#CREDIT:;
#MUSIC:Nitten essen midaremai.ogg;
#BANNER:Nitten essen midaremai-bn.png;
#BACKGROUND:;
#CDTITLE:;
#SAMPLESTART:80.317;
#SAMPLELENGTH:19.689;
#SELECTABLE:YES;
#OFFSET:-0.624;
#BPMS:0.000=95.994
,20.000=191.987
;
#STOPS:;
#BGCHANGES:;
#FGCHANGES:;

//--------------- dance-single - vetch ----------------
#NOTES:
     dance-single:
     vetch:
     Beginner:
     5:
     0,0,0,0,0:
0000
0000
0000
0000
,
0000
0000
0000
0000
,
0000
0000
0000
0000
,
0000
0000
0000
0000
,
0000
0000
0000
0000
,
1000
0000
0000
0000
,
0100
0000
0000
0000
,
0010
0010
0000
0000
,
0000
0001
0000
0000
,
0000
1000
1000
0000
,
0000
0010
0000
0000
,
0100
0000
0000
0001
,
0000
0000
1000
0000
,
0000
0100
0000
0000
,
0010
0000
0000
0001
,
0000
0000
0010
0000
,
0000
0200
0000
1300
,
0000
0000
0001
0000
,
0000
0200
0000
0310
,
0000
0000
1000
0000
,
0000
0002
0000
0013
,
0000
0000
0100
0100
,
0000
0000
1000
2000
,
0000
0000
0000
0000
,
0000
0000
3000
0001
,
0000
0001
0000
0100
,
0000
0010
0000
1000
,
0000
1000
0000
0100
,
0000
0010
0000
0001
,
0000
0001
0000
0100
,
0000
0010
0000
0100
,
0000
0100
0000
0001
,
0000
0001
0000
1000
,
0000
1000
0000
0100
,
0000
0100
0000
0010
,
0000
0010
0000
0001
,
0000
0001
0000
0100
,
0000
0100
0000
0001
,
0000
0001
0000
0010
,
0000
0010
0000
0100
,
0000
0100
0000
1000
,
0000
1000
0000
0001
,
0000
0001
0000
0100
,
0000
0100
0000
0010
,
0000
0010
0000
2000
,
0000
3000
0000
0001
,
0000
0000
0000
0010
,
0000
0000
0000
0001
,
0000
0000
0000
0100
,
0100
0000
0000
0001
,
0001
0000
0000
1000
,
1000
0000
0000
0100
,
0100
0000
0000
0010
,
0010
0000
0000
0001
,
0001
0000
0000
1000
,
1000
0000
0010
0200
,
0000
0300
0001
0010
,
0010
0000
0010
0010
,
0000
0100
0100
0200
,
0000
1300
0000
0001
,
0000
0100
0000
0010
,
0000
1000
0000
0100
,
0000
0010
0000
0001
,
0000
0100
0000
0010
,
0000
1000
0000
0001
,
0000
0000
0010
0000
,
0000
0100
0000
1000
,
0000
0001
0000
0100
,
0000
0010
0000
1000
,
0000
0010
0000
0100
,
0000
0001
0000
0010
,
0000
0000
0001
0001
,
0000
0100
0000
0010
,
0000
1000
0000
0100
,
0000
0010
0000
0100
,
0000
0100
0000
1000
,
0000
1000
0000
0001
,
0000
0001
0000
0100
,
0000
0100
0000
0010
,
0000
0000
0010
0000
,
0000
0000
0100
0000
,
0000
0000
0001
0000
,
0000
0000
1000
0000
,
0000
0000
0100
0000
,
0000
0000
0010
0000
,
0000
0000
0001
0001
,
0001
0001
0001
0001
,
1000
0000
0000
0001
,
0000
0010
0220
0330
;

//--------------- dance-single - vetch ----------------
#NOTES:
     dance-single:
     vetch:
     Easy:
     10:
     0,0,0,0,0:
0000
0000
0000
0000
,
0000
2000
0000
0000
,
0000
0000
3000
0002
0000
0000
0000
0000
,
0000
0000
0000
0003
0200
0000
0000
0000
,
0000
0000
0000
0000
0000
0000
0000
0300
,
0010
0000
1000
0000
,
0001
0000
0010
0000
,
0100
1000
0000
0100
,
0000
1000
0000
0001
,
0000
0000
0100
0000
0010
0000
0000
1000
,
0000
0000
0001
0000
0000
0010
0000
0000
,
0100
0000
0000
1000
0000
0000
0001
0000
,
0000
0100
0000
0000
0010
0000
0000
1000
,
0000
0000
0001
0000
0000
0010
0000
0000
,
0001
0000
0000
0100
0000
0000
0010
0000
,
0000
1000
0000
0000
0001
0000
0000
0010
,
0000
0100
1000
0100
,
0000
1000
0000
0000
0001
0000
0000
0100
,
0000
0010
1000
0010
,
0000
0100
0000
0000
0001
0000
0000
0010
,
0000
0001
0100
0010
,
0000
1000
0000
0000
0100
0000
1000
0000
,
0000
0001
0000
0000
0100
0000
0020
0000
,
0000
0000
0000
0000
,
0000
0000
0000
1030
,
0000
0010
0100
0000
0001
0000
1000
0000
,
0100
0010
0002
0000
0000
0003
0001
0000
,
1000
0020
0000
0000
0130
0001
0100
0001
,
1000
0200
0300
0010
,
0001
2000
0000
0000
3010
0000
0100
0000
,
0001
1000
0002
0000
0003
0000
0010
0000
,
0100
1000
0100
0000
1000
0001
0000
0100
,
0001
0010
0011
0010
,
0100
1000
0100
0000
1000
0000
0001
0000
,
0100
0010
0200
0000
0300
0000
0001
0000
,
1000
0200
0000
0300
1000
0001
0000
0100
,
0010
0200
0300
0002
,
0000
0023
0000
0000
0230
0000
1300
0000
,
0100
0010
0001
0000
1000
0000
0001
0000
,
0100
0001
0100
0000
0010
1000
0000
0001
,
0010
0100
1100
1000
,
0001
0100
0001
0000
0100
0000
0010
1000
,
0010
0100
0001
1000
,
0100
0000
0010
0001
0010
0000
0001
0000
,
1000
0010
2000
0000
3010
0000
0100
0001
,
0200
0010
0000
0001
,
0000
1000
0000
0010
,
0300
0010
1000
0001
,
1000
0000
0100
0010
0100
0000
1000
0000
,
0100
0000
2000
0000
0000
3020
0000
0130
,
0001
0100
0001
0000
1000
0000
0100
0000
,
0010
0000
0001
1000
0000
0010
0000
0000
,
0100
0001
0000
0100
0001
0000
2000
0000
,
3000
0200
0000
0300
0010
0000
0002
0000
,
0003
2000
0000
3000
0010
0000
0200
0000
,
0300
0002
0000
0003
0010
0000
0002
0000
,
0003
2000
0000
3000
0010
0000
0100
0000
,
0001
1000
0000
0001
0010
0000
0001
1000
,
0000
0010
1000
0000
1001
0000
0002
0000
,
0003
0010
0100
0000
1000
0000
0001
0100
,
0001
0100
0010
0000
1000
0000
0002
0003
,
0020
0030
0001
1000
0001
1000
0001
1000
,
0001
1000
0002
0000
0003
0000
0010
0200
,
0000
0300
1000
0000
0001
0000
0100
0010
,
0100
0010
0100
0000
0001
0000
1000
0000
,
0000
1100
0000
0000
0110
0000
0000
0011
,
0000
1001
0110
0020
,
0030
1000
0001
0000
0010
0000
0100
1000
,
0100
1000
0100
0000
1000
0000
0002
0003
,
0200
0300
0001
0010
0001
0010
0001
0010
,
0100
1000
0200
0000
0300
0000
2000
0000
,
3000
0200
0000
0300
0010
0000
0002
0000
,
0000
0003
1000
0000
0010
0000
0100
0001
,
0100
0001
0100
0010
1000
0010
1000
0001
,
1000
0001
1000
0000
0100
0000
0010
0000
,
0010
0001
0001
1000
,
1000
0010
0010
0100
,
0100
0001
0001
1000
,
1000
0100
0100
0010
,
0001
1000
0001
0000
0100
0000
0010
0000
,
1000
0010
1000
0000
0001
0000
1000
0000
,
0100
0010
0100
0000
0010
0000
0001
0000
,
1000
0010
1000
0000
0010
0000
0100
0000
,
0001
0010
0001
0000
0010
0000
0100
0000
,
1000
0001
1000
0000
0010
0000
0100
0000
,
0001
1000
0001
0000
0010
0000
0001
0000
,
0100
0010
1000
0000
0010
0000
0100
0000
,
0001
1000
0000
0001
0010
0000
0100
1000
,
0000
0010
0100
0000
0220
0000
0330
0000
;

//--------------- dance-single - vetch ----------------
#NOTES:
     dance-single:
     vetch:
     Medium:
     13:
     0,0,0,0,0:
0000
0000
0000
0000
,
0000
0000
0000
0000
1000
0000
0000
0000
0001
0000
0000
0100
0000
0000
0001
0000
,
1000
0000
0000
0000
0000
0000
0100
0000
0000
0000
1000
0000
0000
0001
0000
0000
,
0100
0000
0010
0000
0000
0000
0000
0000
0100
0000
0000
0000
0001
0000
0000
1000
,
0000
0100
0020
0000
0000
0000
0000
0030
,
0001
0000
0000
0010
0000
0000
0100
0000
1000
0000
0100
0000
0000
1000
0000
0000
,
0001
0000
0000
0100
0000
0000
0010
0000
0100
0000
0001
0000
0000
0000
1000
0000
,
0100
0000
0000
0000
0010
0000
0000
0001
0000
0000
1000
0000
0001
0000
0100
0000
,
0000
0010
0000
0000
0100
0000
0000
0001
0000
0000
1000
0000
0100
0000
1000
0000
,
0001
0000
0100
0000
0010
0000
0000
0000
1000
0000
0000
0001
0000
0000
0010
0000
,
0001
0000
0010
0000
0000
0100
0000
0000
1000
0000
0000
0001
0000
0000
0100
0000
,
0010
0100
0000
0001
1000
0000
0100
0000
,
0010
0000
0001
0000
1000
0000
0001
0000
0000
0100
0000
0000
0010
0000
0000
1000
,
0000
0001
0010
0001
1000
0001
0100
0010
,
1000
0001
0010
0100
1000
0001
0100
0000
,
0001
1000
0000
0100
1000
0000
0001
0100
,
0000
0010
1000
0001
0010
0100
1000
0000
,
0100
1000
0000
0001
0100
0000
0010
1000
,
0000
0010
0100
0001
0010
0100
0010
0000
,
0001
1000
0000
0001
0100
0000
0010
1000
,
0000
0010
0100
0001
0010
0001
0100
0000
,
0010
1000
0000
0001
0020
0000
0230
0000
,
1300
0100
0000
0010
0001
0000
2000
0000
,
0000
0000
0000
0010
0000
0000
0100
0000
,
0000
0010
0000
0000
0100
0000
3100
0000
,
1000
0001
0000
0100
0001
0000
1000
0100
,
0000
1000
0001
0000
0101
0000
1010
0000
,
1000
0010
0000
0100
0001
0000
1000
0100
,
0000
0010
0100
0000
1100
0000
0101
0000
,
0010
1000
0000
0001
0010
0000
0100
1000
,
0000
0001
0100
0000
1010
0000
0011
0000
,
0010
0100
0000
1000
0001
0000
0100
0010
,
0000
0000
1000
0001
1000
0000
0000
0000
1100
0000
0000
0000
1000
0000
0000
0000
,
0001
0100
0010
1000
0010
0100
0001
0010
,
0001
0010
0100
0000
1000
0000
0001
0000
,
0100
0010
1000
0010
0100
0001
1000
0100
,
0010
0100
1000
0000
0001
0000
0100
0000
,
0010
1000
0010
0100
0001
0010
0100
0010
,
0001
0100
0010
0000
1000
0000
0100
0000
,
1000
0001
0100
0010
1000
0001
0010
0100
,
1000
0001
0100
0000
0110
0000
0010
1000
,
0001
1000
0100
0000
0010
0000
0001
0010
,
0100
1000
0001
0000
0100
0000
0010
1000
,
0010
0100
0001
0000
0010
0000
0001
0100
,
0010
1000
0001
0010
0100
0000
1000
0100
,
0010
0100
1000
0001
0100
0001
1000
0100
,
0010
0100
1000
0001
0100
0010
1000
0001
,
1000
0100
0010
0100
1000
0001
0100
0010
,
1000
0001
0010
0100
0010
0001
0010
0000
,
0110
0000
1100
0000
1000
0001
0100
0000
,
0001
0010
0000
0001
1000
0000
1100
0000
,
0100
0010
0000
0001
0100
0000
1010
0000
,
0010
0100
0000
0001
1000
0000
1100
0000
,
0100
0010
0000
0001
0100
0000
1010
0000
,
0010
0100
0000
0001
1000
0100
0010
0000
,
0001
0100
0000
0010
1000
0010
0100
0001
,
1000
0100
0010
0100
1000
0001
0100
0000
,
0010
1000
0000
0001
0010
0000
0100
1000
,
0000
0001
0100
0000
0110
0000
0010
1000
,
0001
1000
0100
0000
0010
0000
0100
1000
,
0001
0100
0010
0000
1000
0001
0010
0000
,
0110
0000
1100
0000
1000
0001
0100
0001
,
1000
0100
1000
0000
0001
0000
0100
0000
,
0001
1000
0100
0000
1000
0001
0100
0000
,
0010
1000
0001
0010
0100
1000
0001
0000
,
0100
0001
0000
0100
0010
0000
1000
0001
,
0000
1000
0100
0000
0011
0000
0001
0000
,
1000
0000
0010
0100
0001
1000
0100
0000
,
0010
0000
0100
1000
0001
0000
0011
0000
,
1100
0000
1000
0001
0100
0001
1000
0000
,
0100
0010
0100
0000
1000
0000
0002
0000
,
0000
0100
0000
0000
0010
0000
2003
0000
,
0000
0000
0100
0000
3001
0000
0100
0010
,
1000
0010
0100
0001
1000
0100
0010
0100
,
1000
0001
0100
0000
0110
0000
0010
0000
,
1010
1000
0011
0010
,
1100
1000
0101
0010
,
1010
0000
0001
0000
0011
0000
0100
1000
,
0001
0100
0001
1000
0100
0010
0100
0000
,
1000
0001
0100
0000
0001
0010
0100
0010
,
0001
1000
0010
0000
0100
0001
0010
0000
,
0001
0100
0010
0000
0100
0001
1000
0100
,
0010
0000
0000
0100
0000
0000
1000
0000
0000
0000
0000
0000
0001
0000
0000
0100
0000
0000
0010
0000
0000
0000
0010
0000
,
1000
0000
1000
0001
0000
0010
0100
0000
0100
1000
0000
0001
,
0100
0000
0000
0000
0010
0000
1000
0000
0000
0000
0000
0000
0010
0000
0000
0000
0000
0000
0100
0000
0000
0001
0000
0000
,
1000
0100
0010
0100
1000
0001
0100
0010
,
1000
0000
0001
0000
0010
0000
0000
0100
0000
0000
1000
0000
1100
0000
0000
0000
,
1000
1001
0000
0100
0101
0000
0010
1010
,
0000
0010
0110
0000
2002
0000
3003
0000
;

//--------------- dance-single - vetch ----------------
#NOTES:
     dance-single:
     vetch:
     Hard:
     17:
     0,0,0,0,0:
0000
0000
0000
0000
,
0000
0000
0000
0000
2000
0000
0000
0000
3002
0000
0103
0010
0000
1000
0001
0000
,
0020
0000
0000
0030
0000
0000
0100
0000
0000
0100
1000
0000
1000
0001
0000
0100
,
0010
0000
0200
0000
0000
0000
0300
0000
0001
0000
0000
0010
0001
0000
0001
1000
,
0000
0010
0100
0000
0002
0000
0000
0000
0000
0000
0000
0000
0000
0000
0000
0003
,
1000
0000
0000
0001
0000
0000
0010
0000
0100
0000
1000
0000
0000
0001
0000
0000
,
0100
0000
0000
0010
0000
0000
1000
0001
1000
0000
0100
0000
0000
0000
0010
0100
,
1000
0000
0000
0000
0001
0000
0000
0100
0000
0000
0001
0000
1000
0000
0100
0000
,
0000
1000
0100
0000
0010
0000
0000
0001
0010
0000
0100
0000
1000
0000
0001
0000
,
0100
0010
0100
0000
0001
0000
0000
0000
0010
0000
0000
0001
0000
0000
1000
0000
,
0100
0000
0010
0000
0000
0100
0000
0000
1000
0000
0000
0001
0000
0000
0100
0010
,
0100
0000
0001
0000
0000
0000
1000
0100
1000
0000
0000
0000
0001
0000
0000
0000
,
0100
0000
0010
1000
0010
0000
0100
0000
0000
0001
1000
0000
0100
0000
0000
0010
,
0000
0000
0100
1000
0100
0000
1000
0000
0001
0100
0001
1000
0010
0100
0001
0010
,
0001
1000
0001
0100
0010
1000
0001
1000
0100
0010
0001
1000
0001
0000
0010
0001
,
0010
0000
1100
0000
1000
0100
1000
0000
0101
0000
0001
1000
0001
0000
0011
0000
,
0100
0000
1000
0000
0100
0010
0100
1000
0001
0100
0010
1000
0001
0000
0010
0100
,
1000
0000
1100
0000
1000
0001
0100
0000
0110
0000
0010
1000
0001
0000
0011
0000
,
0010
0100
1000
0000
0001
0100
0010
1000
0010
0100
0001
1000
0100
0000
0010
0001
,
1000
0000
1010
0000
0010
0100
0001
0000
0011
0000
0010
0100
1000
0000
1001
0000
,
0001
0100
0010
0000
0100
0001
0010
0001
1000
0010
1000
0001
0010
0000
0100
1000
,
0100
0000
1001
0000
0001
0100
0001
0000
1010
0000
0000
0000
1001
0000
0001
0010
,
0001
0000
0110
0000
1000
0100
1000
0000
1001
0000
0000
0000
0101
0000
0000
0000
,
1000
0100
0000
1000
0010
0000
1000
0100
,
0000
1000
0010
0000
1000
0000
0101
0000
,
0100
0000
0010
0000
1000
0000
0001
0000
1000
0000
0100
0010
0100
0000
1000
0000
,
0001
0100
0010
1000
1100
0000
0110
0000
,
0010
0000
0001
0000
1000
0000
0001
0000
0100
0000
0010
1000
0010
0000
0100
0000
,
0001
1000
0100
0010
0011
0000
1010
0000
,
0010
0000
0100
0000
1000
0000
0100
0000
0010
0000
1000
0001
1000
0000
0100
0000
,
0010
1000
0010
0100
1100
0000
1010
0000
,
0010
0000
0100
0000
1000
0000
0100
0000
0001
0000
1000
0001
1000
0000
0100
0000
,
0010
0000
0001
1000
0001
0100
0000
0010
1000
0000
0000
0000
1010
0000
0000
0000
,
0001
0000
0100
0000
1000
0000
0100
0000
0010
0000
1000
0001
1000
0000
0100
0000
,
0001
0100
0000
1000
0001
0100
0010
0001
,
0010
0000
1000
0000
0001
0000
1000
0000
0100
0000
0010
0001
0010
0000
0001
0000
,
0100
0000
1000
0000
0100
0000
0010
0000
1000
0000
0001
0010
0001
0000
0100
0000
,
0010
0000
1000
0000
0001
0000
0010
0100
0010
0000
0001
0000
1000
0000
0001
0000
,
0100
0000
0010
0000
1000
0000
0010
0100
0010
0000
0001
0000
0010
0000
0100
0000
,
0001
1000
0100
0010
0002
0010
0000
1000
,
1000
0000
0203
0300
0110
0000
0010
1000
,
1010
0000
0100
0000
0001
0000
1000
0000
1100
0000
0010
0000
0001
1000
0001
0100
,
0010
0000
0100
0001
0100
0000
0000
0000
1001
0000
0001
0000
0010
0000
0100
0000
,
1000
0000
0001
0100
0001
0000
0100
0000
0110
0000
0010
0000
1000
0000
0001
0010
,
0001
0000
1000
0000
0001
0100
0010
0100
0001
1000
0100
0010
0001
0000
0001
0000
,
0010
0000
0000
0000
0001
1000
0001
0000
0100
0000
0000
0000
0010
1000
0010
0000
,
0100
0000
0000
0000
0001
0000
1000
0000
0100
0000
0010
0000
0100
0010
0100
0000
,
1000
0000
0001
0000
0100
0000
0010
0000
1000
0000
0010
0000
0100
0001
0100
0000
,
0001
1000
0100
0110
1001
0000
0002
0000
,
0100
0100
0000
1000
1000
0000
0023
0000
,
0100
0100
0000
0001
0001
0000
0230
0000
,
0001
0001
0000
1000
1000
0000
2300
0000
,
0010
0000
0010
0000
0000
0000
0001
0000
3001
1000
0100
0010
0002
0000
0000
0000
,
0100
0000
0100
0000
0000
0000
0010
0000
0013
0001
0010
0100
2000
0000
0000
0000
,
0010
0000
0010
0000
0000
0000
0001
0000
3001
1000
0010
0100
0002
0000
0000
0000
,
0013
0000
0001
0000
1000
0100
0010
0001
1000
0010
0100
0001
0100
0010
1000
0001
,
0010
0001
1000
0010
0100
0001
1000
0001
1000
0100
0010
0001
1000
0000
0000
0000
,
1010
0101
0000
0011
0110
0000
1100
1001
,
0000
0101
1010
0000
1001
0000
0001
0100
,
1000
0100
0001
1000
0100
0010
0110
0100
,
1100
0000
1000
0000
1001
0000
0001
0000
0100
0000
0010
0000
1000
0000
0100
1000
,
0010
0000
0100
0001
0010
0000
0100
0000
1000
0000
0001
0000
0101
0000
0100
0000
,
0110
0010
1010
1000
0001
0010
1000
0010
,
0001
0100
1000
0100
0010
1000
1100
0100
,
0110
0000
0010
0000
0011
0000
0001
0000
0100
0001
0100
0010
1000
0000
0000
0001
,
0010
0000
0001
0000
0010
0100
1000
0001
0100
0000
0000
0010
1000
0000
0010
0000
,
0100
0001
1000
0001
0010
0000
0100
1000
0100
0000
0010
0001
0010
0000
0001
0000
,
0101
0010
1000
0001
0011
0010
1100
1000
,
1001
0000
0001
0000
0101
0000
0100
0000
0010
0000
1000
0000
0010
0000
0100
0001
,
0010
0001
0100
0100
0010
0010
1010
1000
,
1001
0001
0011
0010
0100
1000
0002
0000
,
0000
0000
0100
0000
0003
0000
0001
0010
0100
0000
0000
0000
1000
0000
0001
0100
,
0001
0000
1000
0000
0100
0000
0010
0000
0001
0000
1000
0010
0100
0000
0010
1000
,
0001
0000
0010
0001
1000
0000
0010
0100
0001
0000
0100
0000
0101
0000
0001
0000
,
1001
0100
0110
0000
1001
0000
0002
0100
,
0103
0010
2000
0001
3001
0010
0200
1000
,
1300
0001
0200
0001
0301
0010
0200
0010
,
0310
0000
0100
0000
2000
0000
0001
0000
3001
0000
0100
0000
0010
0000
1000
0010
,
1000
0001
1000
0001
0010
0100
1000
0001
0100
0001
1000
0100
0010
0000
0001
0000
,
1000
0010
1000
0000
0001
0000
0100
0000
0010
1000
0010
0000
0100
0000
0001
1000
,
0001
0000
0010
0000
0100
0000
1000
0000
0001
0000
0100
0000
0010
0000
1000
0010
,
1000
0000
0001
0000
0010
0000
0100
1000
0100
0000
0010
0000
0001
0000
0010
0100
,
1000
0000
0000
0000
0000
0000
0001
0000
0000
0100
0000
0000
0010
0000
0000
0000
0000
0000
0100
0000
0000
0000
0000
0000
0010
0000
0000
0000
0000
0000
1000
0000
0000
0000
0000
0000
0001
0000
0000
0000
0010
0000
0000
0000
0100
0000
0000
0000
,
1000
0001
0100
1000
0100
0001
1000
0100
0010
1000
0010
0001
,
1000
0000
0000
0000
0010
0000
0000
0000
0100
0000
0000
0000
0001
0000
0000
0000
0000
0000
0010
0000
0000
0000
0000
0000
0001
0000
0000
0000
0000
0000
1000
0000
0000
0000
0000
0000
0010
0000
0000
1000
0000
0000
0010
0000
0000
0100
0000
0000
,
0001
0000
0010
0000
0001
0010
0100
0010
0001
0000
0100
0000
0010
0000
0100
0001
,
0100
0000
0001
0000
1001
0000
0000
1100
0000
0000
1001
0000
0101
0000
0000
0000
,
0001
1000
0010
0000
0000
0000
0100
0001
0010
0000
0000
0000
0100
1000
0001
0000
,
0000
0000
0100
0010
0100
0000
0000
0000
1001
0000
0000
0000
0000
0000
0000
0000
;

//--------------- dance-double - vetch ----------------
#NOTES:
     dance-double:
     vetch:
     Easy:
     10:
     0,0,0,0,0:
00000000
00000000
00000000
00000000
,
00000000
20000000
00000000
00000000
,
30000000
00000000
00000000
00200000
00000000
00000000
00000000
00000000
,
00000000
00300000
00000000
00000000
02000000
00000000
00000000
00000000
,
00000000
00000000
00000000
03000000
,
00010000
00000000
01000000
00000000
,
00001000
00000000
00010000
00000000
,
00000100
00001000
00000000
00000100
,
00000000
00000010
00000000
00000001
,
00000000
00000000
00001000
00000000
00000200
00000000
00000000
00020300
,
00000000
00000000
00032000
00000000
00000000
02003000
00000000
00000000
,
03200000
00000000
00000000
20300000
00000000
00000000
30020000
00000000
,
00000000
00230000
00000000
00000000
02300000
00000000
00000000
03200000
,
00000000
00000000
00320000
00000000
00000000
02030000
00000000
00000000
,
03002000
00000000
00000000
00023000
00000000
00000000
00031000
00000000
,
00000010
00001000
00000000
00000100
00010000
00000000
00001000
01000000
,
00000000
00100000
20000000
00000000
00000000
00000000
31000000
00000000
,
00100000
00010000
00000000
01000000
00001000
00000000
00010000
00000100
,
00000000
00001000
00000200
00000000
00000000
00000000
00000310
00000000
,
00000100
00001000
00000000
00000001
00000100
00000000
00000010
00010000
,
00000000
00001000
00200000
00000000
00000000
00000000
01300000
00000000
,
10000000
00010000
00000000
01000000
00001000
00000000
00020000
00000000
,
00000000
00032000
00000000
00000000
02003000
00000000
03010000
00000000
,
20000000
00000000
00000000
00000000
,
00000000
00000000
00000000
31000000
,
00100000
00010000
01000000
00001000
,
00010000
00000200
00000000
00001300
,
00000010
00010000
00001000
01000000
,
00100000
20000000
00000000
31000000
,
00100000
00010000
01000000
00001000
,
00010000
00000200
00000000
00000301
,
00000100
00000010
00000001
00000100
,
00000010
00010000
00011000
00001000
,
00100000
00010000
00100000
00001000
,
01000000
00020000
00000000
10030000
,
01000000
00010000
01000000
00100000
,
00001000
00020000
00000000
00030010
,
00001000
00000001
00000010
00001000
,
00010000
00200000
00000000
01300000
,
00001000
00010000
00000100
00000010
,
00000100
00010000
00011000
00001000
,
01000000
00000000
00100000
00000000
10000000
00000000
01000000
00100000
,
01000000
00100000
00001000
00010000
,
00000100
00000000
00001000
00000100
00001000
00000000
00010000
00000000
,
00001000
00000000
00200000
00000000
00000000
00000000
01300000
00100000
,
01000000
10000000
00010000
01000000
,
00001000
00010000
00000100
00000010
,
00000100
00001000
00000001
00000100
,
00000010
00010000
00001000
00100000
,
00010000
10000000
00000000
00010000
10000000
00000000
00010000
00000000
,
01000000
00001000
00000000
01000000
00001000
00000000
00010000
00000000
,
00000100
00000010
00000000
00000100
00000010
00000000
00000001
00000000
,
00001000
00000010
00000000
00001000
00000020
00000000
00000100
00000000
,
00000000
00020030
00000000
00030000
00002000
00000000
00010000
00000000
,
00000000
00203000
00000000
00000000
01000000
00000000
00320000
00000000
,
00000000
02030000
00000000
00000000
03002000
00000000
00023000
00000000
,
00000000
00001000
00030000
00000000
00001000
00000000
00101000
00000000
,
00000000
10100000
00000000
00000000
11000000
00000000
00000000
00110000
,
00000000
00011000
00001100
00001000
,
00000100
00010000
00000100
00000000
00001000
00000000
00000001
00000000
,
00001000
00000010
00001000
00000000
00000010
00000000
00002000
00000000
,
00003200
00000000
00020300
00000000
00032000
00000000
01003000
00100000
,
01000000
00020000
00000000
10030000
,
01000000
00100000
00010000
00000000
00100000
00000000
00001000
00000000
,
00010000
00000100
00010000
00000000
00001000
00000000
01010000
00000000
,
00000000
10100000
00000000
00000000
01100000
00000000
00000000
00011000
,
00000000
00000110
00000011
00000001
,
00001000
00000100
00001000
00000000
00000010
00000000
00010000
00000000
,
00001000
01000000
00001000
00000000
00010000
00000000
00002000
00000000
,
02003000
03200000
20300000
31000000
,
00100000
00010000
00100000
00000000
00001000
00000000
00010000
00000000
,
00000100
00001000
00000000
00000001
00000010
00000000
00000200
00000000
,
00000000
00000000
00020300
00000000
00032000
00000000
00103000
00001000
,
00100000
00000000
00010000
00000000
10000000
00000000
00100000
01000000
,
00100000
01010000
00011000
00002000
,
00000000
00023000
00000000
02030000
,
00000000
23000000
00000000
30020000
,
00000000
02030000
00000000
03002000
,
00013000
00001000
00010000
00001000
00010000
00001000
00010000
00000000
,
00000100
00001000
00000100
00000000
00000010
00000000
00000001
00000000
,
00001000
00000010
00010000
00001000
,
01000000
00010000
01000000
00000000
00100000
00000000
20000000
00000000
,
30020000
00230000
01300000
10000000
,
01000000
00010000
00001000
00000100
,
00000001
00000020
00000030
00000001
,
00000100
00001000
00010000
01000000
,
10000000
00000000
00010000
00000000
00000000
01000000
00100000
00000000
,
00000000
01010000
00000000
00000000
00011000
00000000
00000000
00001100
,
00000000
00000011
00002002
00003003
;

//--------------- dance-double - vetch ----------------
#NOTES:
     dance-double:
     vetch:
     Medium:
     14:
     0,0,0,0,0:
00000000
00000000
00000000
00000000
,
00000000
00000000
00000000
00000000
10000000
00000000
00000000
00000000
01000000
00000000
00000000
00100000
00000000
00000000
00001000
00000000
,
00020000
00000000
00000000
00000000
00030000
00000000
00001000
00000000
00000000
00000000
00010000
00000000
00000000
00000100
00000000
00000000
,
00000010
00000000
00000002
00000000
00000000
00000000
00000003
00000000
00001000
00000000
00000000
00000000
00000100
00000000
00000000
00010000
,
00000000
00001000
02000000
00000000
00000000
00000000
00000000
00000000
,
03100000
00000000
00000000
10000000
00000000
00000000
00100000
00000000
01000000
00000000
00010000
00000000
00000000
00100000
00000000
00000000
,
00001000
00000000
00000000
00010000
00000000
00000000
00000100
00000000
00001000
00000000
00000010
00000000
00000000
00000000
00010000
00000000
,
00001000
00000000
00000000
00000000
01000000
00000000
00000000
00100000
00000000
00000000
00010000
00000000
00100000
00000000
10000000
00000000
,
00000000
00100000
00000000
00000000
01000000
00000000
00000000
00001000
00000000
00000000
00010000
00000000
00000100
00000000
00001000
00000000
,
00000100
00000010
00000001
00000000
00000022
00000000
00000033
00002200
,
00000000
00003300
00022000
00000000
00033000
00220000
00000000
00330000
,
22000000
00000000
33000000
02020000
00000000
03030000
00022000
00000000
,
00033000
00002200
00000000
00003300
00000022
00000000
00000033
00002002
,
00000000
00003003
00001000
00000100
00010000
00001000
01000000
00100000
,
10000000
00100000
01000000
00001000
00020000
00030000
00010000
00000000
,
00001000
01000000
00000000
00100000
10000000
00000000
00001000
00010000
,
00000000
00000100
00001000
00000100
00000010
00000001
00001000
00000000
,
00000100
00010000
00000000
00001000
01000000
00000000
00100000
10000000
,
00000000
00100000
01000000
00010000
10000000
01000000
00100000
00000000
,
10000000
00100000
00000000
00010000
00001000
00000000
00000100
00000010
,
00000000
00000001
00001000
00000100
00010000
00001000
01000000
00000000
,
00100000
10000000
00000000
00000000
01010000
00000000
00011000
00000000
,
00001000
00100000
00000000
00000100
00010000
00000000
00002000
00000000
,
01000000
01000000
00000000
00010000
00010000
00000000
00100000
00203000
,
00000000
01000000
01000000
00000000
00310000
00000000
10000000
00000000
,
00100000
01000000
00010000
00000000
01000000
00000000
00011000
00000000
,
00010000
00000100
00002000
00000000
00010000
00000000
00003100
00000000
,
00000010
00000002
00000000
00000000
00001003
00000100
00000000
00010000
,
00001000
02001000
00100000
03010000
,
10000000
20200000
00000000
30000000
00310000
00000000
00100000
00000000
,
01000000
00001000
00010000
00000000
11000000
00000000
10000000
00000000
,
00001000
00010000
00001000
00000000
00000100
00000001
00000000
00000010
,
00000100
00001000
01100000
01000000
,
10000000
00010000
01000000
00000000
01001000
00000000
00010100
00000000
,
00010000
00000010
00001000
00000000
00000011
00000000
00000010
00000000
,
00000100
00002000
00000000
00000000
00013000
00100000
00000000
00010000
,
10000000
01001000
00011000
00020000
,
00100000
00100000
00030000
01000000
00001000
00000000
00010100
00000000
,
00010000
00000010
00001000
00000000
00000101
00000000
00000001
00000000
,
00000010
00000100
00001000
00000000
00000010
00010000
00000000
00001000
,
00100000
01000000
11000000
10000000
,
00010000
01000000
10000000
00000000
01000000
00000000
00001000
00010000
,
00001000
00000000
00000100
00000000
00000001
00000100
00001000
00000000
,
00010000
00000000
01000000
10000000
00100000
00000000
00010000
00000000
,
00001000
01000000
00010000
00000000
00110000
00000000
00100000
01000000
,
10000000
00010000
01000000
00001000
00010000
00001000
00000100
00000001
,
00000010
00000100
00000001
00000100
00001000
00000010
00010000
00001000
,
00100000
01000000
00010000
01000000
10000000
00010000
01000000
00100000
,
00010000
00100000
01000000
00001000
00011000
00000000
00210000
00000000
,
01000000
01000000
00000000
00010000
00310000
00000000
10200000
00000000
,
10000000
10000000
00000000
01000000
01300000
00000000
01002000
00000000
,
00100000
00100000
00000000
00010000
00013000
00000000
00010200
00000000
,
00001000
00001000
00000300
00000100
00001000
00000100
00001100
00000000
,
00000000
00101000
00000000
00000000
00010000
01000000
01010000
00000000
,
00000000
10100000
00000000
00000000
00100000
01000000
01001000
00000000
,
00000000
00010100
00000000
00000000
00000110
00000000
00000010
00000001
,
00000010
00000100
00010000
00001000
01000000
00010000
01010000
00000000
,
00100000
00100000
00000000
01000000
01000000
00000000
00001000
00001000
,
00000000
00010000
00010000
00000000
00011000
00000000
01020000
00000000
,
00000000
00001000
00032000
00000000
00003020
00000000
00001030
00000100
,
00010000
00000000
00001000
00000000
01000000
00000000
00100000
00000000
10000000
00000000
00010000
00000000
00100000
00000000
01000000
10000000
,
01000000
00000000
00100000
00010000
00100000
00000000
00001000
00000000
00010000
00000000
00000100
00000000
00001000
00000000
00000001
00000000
,
00000010
00000100
00002100
00000000
00010000
00000000
00003100
00000000
,
00100000
00110000
00000000
00010000
20010000
00000000
30100000
00010000
,
00001000
00000000
00000010
00000000
00000100
00000000
00010000
00001000
00010000
00000000
00001000
00000000
00101000
00000000
00000000
00000000
,
01000000
11000000
00000000
00100000
01010000
00000000
00001000
00010100
,
00000000
00000100
00000110
00000000
00001001
00000000
00000021
00000000
,
00000000
00001030
00000010
00000000
00000100
00000000
00010000
01000000
,
10000000
00000000
01000000
00000000
00010000
00000000
00000000
00000000
00001100
00000000
00000000
00000000
00000100
00000000
00000010
00000001
,
00000010
00000001
00001000
00000100
00010000
01000000
10000000
01000000
,
00010000
10000000
00100000
00001000
00010000
00000100
00010100
00000000
,
00001000
00000000
00000010
00000000
00001000
00000100
00000000
00000000
00010000
00000000
00001000
00000000
01000000
00000000
00000000
00100000
,
01000000
00000000
00010000
00000000
10000000
00010000
00000000
00000000
00100000
00000000
00010000
00100000
00010000
00000000
00100000
00000000
,
00001000
00010000
00000100
00010000
00001000
01000000
10000000
01000000
,
00100000
10000000
11000000
00000000
01010000
00000000
00010000
01000000
,
00010000
01000000
00001000
00010000
00001000
00010000
00000100
00000010
,
00000100
00000010
00000001
00001000
00000001
00001000
00000010
00010000
,
00000010
00010000
00001000
01000000
00001000
01000000
00100000
10000000
,
00100000
00000000
10000000
00000000
00100000
01000000
00100000
00000000
01000000
00010000
01000000
00000000
00020000
00000000
00000000
00000000
,
00031000
00000000
00000010
00000000
00020000
00000000
00000000
00000000
00031000
00000000
00010000
00000000
00000100
00000000
00000010
00000001
,
00000010
00000001
00001000
00000100
00100000
00010000
02000000
00000000
,
13000000
00000000
01000000
00000000
00020000
00000000
00000000
00000000
00130000
00000000
00010000
00000000
10000000
00000000
00010000
01000000
,
00010000
00000000
00000000
01000000
00000000
00000000
00200000
00000000
00000000
00000000
00000000
00000000
02300000
00000000
00000000
00000000
00000000
00000000
03010000
00000000
10000000
00000000
00010000
00000000
,
01000000
00000000
00010000
00100000
00000000
00001000
00010000
00000000
00001000
00010000
00000100
00001000
,
00000100
00000000
00000010
00000000
00000001
00000000
00002000
00000000
00000000
00000000
00000000
00000000
00003010
00000000
00000000
00000000
00000000
00000000
00001000
00000000
00000000
00000001
00000000
00000000
,
00000100
00000000
00001000
00000000
00010000
00000000
00001000
00000000
01000000
00000000
00100000
00000000
10000000
00000000
00100000
01000000
,
00100000
00000000
01000000
00000000
00001000
00000000
00000000
00011000
00000000
00000000
00010000
00000000
00001000
00000000
00000000
00000000
,
01000000
01000000
00000000
00100000
00100000
00000000
00010000
00010000
,
00000000
00000010
00000010
00000000
00002002
00000000
00003003
00000000
;

//--------------- dance-double - vetch ----------------
#NOTES:
     dance-double:
     vetch:
     Hard:
     16:
     0,0,0,0,0:
00000000
00000000
00000000
00000000
,
00000000
00000000
00000000
00000000
10000000
00000000
00000000
00000000
00100000
00000000
01000000
00010000
00000000
00010000
00001000
00000000
,
00002200
00000000
00003300
00000000
00000000
00000000
00000010
00000000
00000000
00000001
00001000
00000000
00000100
00010000
00000000
00001000
,
01000000
00000000
20200000
00000000
00000000
00000000
30300000
00000000
00100000
00000000
00000000
01000000
10000000
00000000
01000000
00010000
,
00000000
00100000
00001000
00000000
00020200
00000000
00000000
00000000
00000000
00000000
00000000
00000000
00030000
00000000
00000000
00000000
,
00010300
00000000
00000000
00000100
00000000
00000000
00001000
00000000
00000100
00000000
00000010
00000000
00000000
00000001
00000000
00000000
,
00000100
00000000
00000000
00000010
00000000
00000000
00010000
00001000
00010000
00000000
00001000
00000000
00000000
00000000
01000000
00100000
,
01000000
00000000
00000000
00000000
00100000
00000000
00000000
01000000
00000000
00000000
00010000
00000000
00100000
00000000
00001000
00000000
,
00000000
00010000
00001000
00000000
00010000
00000000
00000000
00000100
00000010
00000000
00000100
00000000
00010000
00000000
00001000
00000000
,
01000000
00100000
01000000
00000000
00010000
00000000
00000000
00000000
00100000
00000000
00000000
01000000
00000000
00000000
10000000
00000000
,
00010000
00000000
01000000
00000000
00000000
00001000
00000000
00000000
00010000
00000000
00000000
00000100
00000000
00000000
00000010
00000001
,
00000010
00000000
00000100
00000000
00010000
00000000
00001000
00010000
00001000
00000000
01000000
00000000
01010000
00000000
00000000
00010000
,
01000000
00000000
00001000
00010000
00000100
00000000
00001000
00000000
00000000
00010000
00100000
00000000
01000000
00000000
00000000
10000000
,
01000000
00000000
00100000
00001000
00010000
00000000
00001000
00000000
00010000
00000100
00010000
00000000
00000001
00001000
00000001
00000000
,
00000100
00000000
00000001
00000000
00001000
00000000
00000010
00000000
00010000
00000000
00001000
00000000
01000000
00000000
00010000
01000000
,
00001000
00000000
00010000
00000000
01000000
10000000
00010000
00000000
01000000
00000000
00001000
00010000
00000100
00000000
00000010
00000000
,
00000001
00000000
00000100
00000000
00000010
00001000
00000010
00001000
00000010
00010000
00000010
00010000
00000010
00000000
00001000
00000100
,
00001000
00000000
00010000
00000000
00001000
01000000
00100000
00000000
01000000
00000000
00100000
10000000
00010000
00000000
00100000
00000000
,
01000000
00000000
10000000
00000000
00010000
01000000
00010000
01000000
00001000
01000000
00001000
01000000
00010000
00000000
00100000
01000000
,
00100000
00000000
00010000
00000000
01000000
00001000
00010000
00000000
00000100
00000000
00000010
00000001
00000010
00000000
00000001
00000000
,
00001000
00000100
00010000
00000000
00001000
00000000
01000000
00000000
00100000
10000000
00100000
10000000
00010000
00000000
00100000
01000000
,
00100000
00000000
00001000
00000000
00100000
00001000
00010000
00000000
00000010
00000000
00001000
00000000
00000001
00000000
00000010
00000100
,
00000010
00000000
00001000
00000000
00010000
00001000
00010000
00000000
00001000
01000000
00001000
01000000
00200000
00000000
00000000
00000000
,
10000000
10000000
00000000
01000000
01000000
00000000
10000000
10000000
,
00000000
01000000
01000000
00000000
20300000
00000000
31000000
00000000
,
00100000
00010000
00100000
10000000
00100000
01000000
00001000
00010000
,
00000010
00000001
00000100
00000010
00001010
00000000
00000010
00000001
,
00000010
00001000
00000100
00010000
00001000
01000000
00100000
00010000
,
00100000
10000000
01000000
00100000
00110000
00000000
00100000
10000000
,
00100000
00001000
01000000
00010000
00001000
00000010
00010000
00000100
,
00000001
00000100
00001000
00000010
00000110
00000000
00000100
00001000
,
00010000
00000000
01000000
00000000
00100000
00000000
00001000
00000000
01000000
00000000
10000000
00000000
01000000
00100000
01000000
00000000
,
00010000
00000000
00100000
00010000
00100000
00000000
00000000
00000000
00022000
00000000
00033000
00000000
00001000
00000000
00010000
00000000
,
01000000
00000000
10000000
00000000
00010000
00000000
01000000
00000000
10000000
00000000
01000000
00010000
01000000
00000000
00100000
00000000
,
00001000
00010000
00000100
00000001
00000011
00000000
00000010
00001000
,
00010000
00000000
01000000
00000000
10000000
00000000
00010000
00000000
01000000
00000000
00001000
00010000
00001000
00000000
00100000
00000000
,
00010000
00001000
00000100
00000010
00000011
00000000
00000001
00000010
,
00000100
00000001
00000100
00010000
00001000
01000000
00100000
00010000
,
00100000
10000000
01000000
00100000
00110000
00000000
00010000
00100000
,
00001000
00000000
00010000
00000000
00100000
00000000
00010000
00000000
00001000
00000000
00010000
00000100
00010000
00000000
00000010
00000000
,
00001000
00000001
00001000
00000000
00000001
00000000
00000000
00000000
00000022
00000000
00000033
00000000
00001100
00000000
00000000
00000000
,
00010000
00001000
01001000
00000000
10100000
00000000
00100000
01000000
,
01001000
00000000
00011000
00000000
00010000
00000100
00000110
00000000
,
00000011
00000000
00000001
00001000
00001100
00000000
00101000
00000000
,
00100000
00000000
00010000
00000000
01000000
00100000
10000000
00100000
01000000
00000000
00000000
00000000
00100000
00000000
01000000
00000000
,
00010000
10000000
01000000
00010000
00001000
00000100
00000010
00010000
,
00001000
00000000
00010000
00000000
01000000
00000000
10000000
00000000
00100000
00000000
00010000
00000000
01000000
00001000
01000000
00000000
,
00001000
00000000
00010000
00000100
00010000
00000000
00001000
00000000
00010000
00000000
00000010
00001000
00000010
00001000
00000001
00000000
,
00000010
00000100
00000001
00000100
00001100
00000000
00011000
00000000
,
00010000
01000000
10000000
00010000
01010000
00000000
00101000
00000000
,
00001000
00010000
00000010
00000100
00000101
00000000
00000011
00000000
,
00000010
00000000
00001000
00000000
00010000
00000000
00100000
00000000
10100000
00000000
00000000
00000000
01000000
00000000
00001000
00010000
,
00001000
00000000
00010000
00000000
00000100
00001000
00000100
00000000
00000010
00000001
00000010
00000001
00002000
00000000
00000000
00000000
,
00000000
00000000
00003200
00000000
00000000
00000000
00000000
00000000
00010300
00001000
00010000
00001000
00020000
00000000
00000000
00000000
,
00000000
00000000
00230000
00000000
00000000
00000000
00000000
00000000
10300000
00100000
10000000
00100000
20000000
00000000
00000000
00000000
,
30000000
00000000
11000000
00000000
00000000
00000000
01000000
00000000
00100000
00010000
00100000
00010000
00100000
00000000
00001000
00000000
,
00010000
00000010
00000001
00000010
00001000
00000100
00010100
00000000
,
00001000
00100000
00001000
00000000
00000000
00000000
10000000
00100000
10000000
00000000
00000000
00000000
00001000
01000000
00001000
00000000
,
00000000
00010000
00010100
00000000
00000110
00000000
00000010
00000001
,
00001000
00000100
00010000
00001000
01000000
00100000
10100000
10000000
,
00100000
00000000
10000000
00000000
10200000
00000000
00000000
00000000
00310000
00000000
00000000
00000000
00100000
00000000
01000000
00010000
,
01000000
00000000
00001000
00010000
00001000
00000000
00000010
00000000
00000100
00000000
00010000
00000000
00001000
00000000
01000000
00000000
,
00100000
00000000
10000000
00000000
00100000
01000000
00100000
00000000
01000000
00000000
00001000
00000000
00010000
00000000
00000100
00000000
,
00000001
00000000
00000100
00001000
00000100
00000000
00000010
00000000
00000001
00000000
00000100
00000000
00010000
00000000
00001000
00000000
,
00000010
00000000
00010000
00000000
00001000
00000000
10000000
00000000
01000000
00100000
01000000
00100000
00020000
00000000
00000000
00000000
,
00130000
00001000
00020000
00000000
00000000
00000000
00031000
00010000
00000200
00000000
00000000
00000000
00000310
00000001
00000020
00000000
,
00000000
00000000
00000031
00001000
00000001
00000000
00000100
00000000
00000120
00000000
00000000
00000000
00000031
00000000
00000010
00000000
,
00001000
00010000
01000000
00100000
10000000
00010000
01010000
00010000
,
01000000
00000000
00010000
00000000
01010000
00000000
01000000
00000000
00001000
00000000
00010000
00000000
00000100
00000000
00000010
00000001
,
00000010
00000000
00000100
00001000
00000100
00000000
00010000
00000000
00001000
00000000
01000000
00000000
00100000
00000000
00010000
00000000
,
00100000
10000000
01000000
00000000
00110000
00000000
00012000
00000000
,
00000100
00000000
00000100
00000000
00000000
00000000
00010000
00000000
00013000
00000000
00000000
00000000
00001000
00000000
00010000
00000100
,
00010000
00000000
00000010
00000000
00000100
00000000
00000001
00000000
00001000
00000000
00000100
00000010
00000100
00000000
00001000
00000000
,
00000100
00000000
00010000
00001000
00010000
00000000
00001000
00100000
00001000
00000000
00100000
00000000
00010000
00000000
00100000
00000000
,
01000000
10000000
10010000
00000000
01001000
00000000
00011000
00010000
,
00000100
00000000
00000110
00000010
00000001
00000000
00001001
00001000
,
00000100
00000000
00010100
00010000
00001000
00000000
00101000
00100000
,
00010000
00000000
00000000
00000000
01010000
00000000
01000000
00000000
00100000
00000000
00000000
00000000
10000000
00000000
01000000
00100000
,
01000000
00000000
00010000
00001000
00010000
00000100
00010000
00000100
00010000
00000100
00001000
00000100
00001000
00000000
00000000
00000000
,
00000100
00000000
00000010
00000000
00000011
00000000
00000000
00000000
00000001
00000000
00001000
00000000
00000100
00000000
00100000
00001000
,
00100000
00001000
01000000
00100000
01000000
00010000
00110000
00000000
,
01000000
00000000
10000000
00000000
10010000
00000000
00000000
00000000
00010000
00000000
01000000
00000000
00001000
00000000
00010000
00000100
,
00010000
00000000
00000000
00000000
00000000
00000000
00000010
00000000
00000000
00001000
00000000
00000000
00000010
00000000
00000000
00000000
00000000
00000000
00000000
00000000
00000000
00000000
00000000
00000000
00000110
00000000
00000000
00000000
00000000
00000000
00000000
00000000
00000000
00000000
00000000
00000000
00000010
00000000
00000000
00000000
00000001
00000000
00000000
00000000
00000010
00000000
00000000
00000000
,
00000001
00001000
00000001
00000100
00000010
00000100
00000010
00010000
00000010
00010000
00001000
00010000
,
00001000
01000000
00001000
00010000
00000000
00000000
01100000
00000000
00000000
01000000
10000000
01000000
,
00100000
00010000
01000000
00001000
00010000
00000100
00001000
00000001
00000100
00000010
00000000
00000000
,
00001000
00000000
00000100
00010000
00000100
00000000
00000000
00010000
00000000
00000000
00001000
00000000
00101000
00000000
00000000
00000000
,
00100000
00010000
00000000
10000000
00010000
00000000
01000000
00001000
,
00000000
00010000
00000100
00000000
00000110
00000000
00000000
00000000
;
