#VERSION:0.83;
#TITLE:Monogatary;
#SUBTITLE:;
#ARTIST:BEMANI Sound Team "PON×あさき×Yvya";
#TITLETRANSLIT:;
#SUBTITLETRANSLIT:;
#ARTISTTRANSLIT:BEMANI Sound Team "PON×asaki×Yvya";
#GENRE:;
#CREDIT:chronon;
#MUSIC:Monogatary.ogg;
#BANNER:Monogatary.png;
#BACKGROUND:Monogatary-bg.png;
#CDTITLE:;
#SAMPLESTART:77.988;
#SAMPLELENGTH:11.925;
#SELECTABLE:YES;
#OFFSET:1.018;
#BPMS:0.000=161.000;
#STOPS:;
#BGCHANGES:;
#FGCHANGES:;

//--------------- dance-single - chronon ----------------
#NOTEDATA:;
#STEPSTYPE:dance-single;
#DESCRIPTION:chronon;
#DIFFICULTY:Beginner;
#METER:6;
#RADARVALUES:0,0,0,0,0;
#NOTES:
0000
0000
0000
0000
,
0000
0000
0000
0000
,
0000
0000
0000
0000
,
0000
0000
0000
0000
,
0000
0000
0000
0000
,
2002
0000
0000
3003
,
0200
0000
0310
0000
,
1001
0000
0000
0000
,
0001
0000
0000
0001
0000
0000
0000
0000
0000
0000
0000
0000
0000
0000
0000
0000
,
1000
1000
0000
0000
,
0001
0100
0001
0001
,
0100
0000
0100
0000
,
0001
0000
1000
0000
,
0100
0000
0100
0000
,
1000
0100
1000
1000
,
0001
0010
0100
0000
,
0010
0100
1000
0000
,
0001
0100
0010
0000
,
0100
0000
1001
0000
,
1000
0010
0100
0000
,
0010
0100
0001
0000
,
1000
0100
0010
0000
,
0100
0010
0001
1000
,
0001
0001
0001
0000
,
0100
0000
0010
0000
,
1000
1000
1000
0000
,
0100
0000
0010
0000
,
0001
0001
0001
0000
,
0100
0000
0010
0000
,
1000
0000
0010
0000
,
0001
0000
0010
0000
,
2002
0000
0000
0000
,
0000
0000
0000
0000
,
3000
0000
0000
0000
,
0003
0000
0000
0000
,
1001
0000
1000
0000
,
0001
0000
1000
0000
,
0200
0000
0000
0300
0000
0200
0000
0000
0300
0000
0000
0000
1000
0000
0000
0000
,
0001
0010
0001
0001
,
1000
0000
0000
0001
0000
0000
1000
0000
,
0000
0000
0001
0000
0000
1000
0000
0000
0001
0000
0000
0000
0000
0000
1000
0000
,
0000
0001
0000
0000
1000
0000
0001
0000
1000
0000
0000
0000
0000
0001
0000
0000
,
1000
0001
1000
0000
0001
0000
1000
0000
,
0020
0130
0001
0010
,
0200
0300
1000
0010
,
0100
0000
0001
0000
,
1000
0000
0000
0001
0000
0000
1000
0000
0000
0000
0000
0000
0001
0000
0000
0000
,
0200
0310
1000
0001
,
0010
0010
0010
0000
,
0200
0000
2300
0000
,
3002
0000
2000
3003
,
1001
0000
0000
0000
,
1000
0010
1000
1000
,
0010
0100
0001
0000
,
0010
0100
1000
0000
,
0010
0100
0001
0000
,
1000
0000
1001
0000
,
0010
0000
1001
0000
,
0100
0000
1001
0000
,
0001
0000
1001
0000
,
1000
0001
1000
0000
0001
0000
0000
0000
,
1000
0100
0010
0001
,
1000
0100
0010
0000
,
0001
0010
0100
1000
,
0001
0010
0100
0000
,
1000
0001
0100
0000
,
0001
1000
0100
0000
,
1000
0001
1000
0000
0001
1000
0001
0000
,
0100
0100
0100
0000
,
0001
0000
0000
0000
0100
0000
0000
0010
,
0000
0000
0000
1000
0000
0000
1000
0000
,
0000
0000
0100
0000
0000
0010
0000
0000
,
0000
0001
0000
1000
0000
0000
0000
0000
,
0001
1000
0001
0000
0110
0000
0000
0000
;

//--------------- dance-single - chronon ----------------
#NOTEDATA:;
#STEPSTYPE:dance-single;
#DESCRIPTION:chronon;
#DIFFICULTY:Easy;
#METER:10;
#RADARVALUES:0,0,0,0,0;
#NOTES:
0000
0000
0000
0000
,
0000
0000
0000
0000
,
0000
0000
0000
0000
,
0000
0000
0000
0000
,
0000
0000
0000
0000
,
2002
0000
0000
3003
,
0020
0000
0200
0330
,
1001
0000
0000
0000
,
0100
0000
0000
1001
0000
0000
0000
0000
0000
0000
0000
0000
0000
0000
0000
0000
,
0010
1001
0000
0000
,
2000
0000
0000
3100
0000
0000
0100
0000
0020
0000
0000
0000
0031
0000
0000
0000
,
0010
0000
0000
0000
0001
0000
0000
0000
1000
0000
0010
0000
0000
0010
0000
0000
,
1000
0010
0100
0000
0001
0100
0010
0000
,
0100
1001
0001
1000
,
0002
0000
0000
0013
0000
0000
0010
0000
0200
0000
0000
0000
1300
0000
0000
0000
,
0001
0000
0000
1000
0000
0000
0200
0000
0000
0000
1300
0000
0001
0000
0000
0000
,
1000
0000
0000
0001
0000
0000
0200
0000
0000
0000
0301
0000
1000
0000
0000
0000
,
0001
0000
0000
1000
0000
0000
0020
0000
0000
0000
1030
0000
0001
0000
0000
0000
,
1001
0000
0000
0011
0000
0001
1000
0000
,
1000
0000
0000
0001
0000
0000
0020
0000
0000
0000
0031
0000
1000
0000
0000
0000
,
0001
0000
0000
1000
0000
0000
0020
0000
0000
0000
1030
0000
0001
0000
0000
0000
,
1000
0000
0000
0001
0000
0000
0200
0000
0000
0000
0301
0000
1000
0000
0000
0000
,
0100
0000
0010
0000
0001
1000
0001
0000
,
1000
0010
0100
0000
0010
0100
0001
0000
,
0010
0100
0010
0000
,
0001
0010
0100
0000
0010
0100
1000
0000
,
0010
0100
0010
0000
,
1000
0010
0100
0000
0010
0100
0001
0000
,
0010
0100
0010
0000
,
0001
0010
0001
0000
0010
0100
0010
0000
,
0100
1000
0100
0000
1000
0001
1000
0000
,
2002
0000
0000
0000
,
0000
0000
0000
0000
,
0003
0000
0000
0000
,
3000
0000
0000
0000
,
1001
1000
0001
1000
,
0100
0010
0001
0100
,
0002
0000
0000
0103
0000
0002
0000
0000
0103
0000
0000
0000
0010
0000
0000
0000
,
2000
0000
0000
3010
0000
0000
0010
0000
0200
0000
0000
0000
0301
0000
0000
0000
,
1000
0000
0000
0010
0000
0000
1000
0000
,
0000
0000
0001
0000
0000
0010
0000
0000
0001
0000
0000
0010
0000
0000
0001
0000
,
0000
0000
0000
0000
1000
0000
0100
0000
1000
0000
0100
0000
0000
1000
0000
0000
,
0001
0100
0001
0100
0001
0000
1000
0000
,
0100
0000
0010
0100
1000
0000
0010
0100
,
0001
0000
0100
0010
1000
0000
0100
0010
,
0001
0010
0100
1000
,
0001
0000
0000
0100
0000
0000
0001
0000
0000
0100
0000
0000
0001
0000
0000
0000
,
0100
0000
0010
0100
0001
0000
0010
0100
,
1000
0100
0001
0100
,
2000
0000
3020
0000
,
0230
0302
2000
3003
,
1001
0000
0000
0000
,
0002
0000
0000
0103
0000
0000
0200
0000
0000
0310
0000
0000
1000
0000
0000
0000
,
0001
0000
0000
0100
0000
0000
0020
0000
0000
0000
1030
0000
0100
0000
0000
0000
,
1000
0000
0000
0100
0000
0000
0020
0000
0000
0000
0031
0000
0100
0000
0000
0000
,
0001
0000
0000
0100
0000
0000
0020
0000
0000
0000
1030
0000
0100
0000
0000
0000
,
1100
0000
0000
1001
0000
0001
0100
0000
,
0010
0000
0000
1000
0000
0000
0200
0000
0000
0000
1300
0000
0100
0000
0000
0000
,
0010
0000
0000
0001
0000
0000
0200
0000
0000
0000
0301
0000
0100
0000
0000
0000
,
0010
0000
0000
0010
0000
0000
1000
0000
0000
1000
0000
0000
0100
0000
0000
0000
,
1000
0001
1000
0001
1000
0000
0001
0000
,
1000
0010
1000
0000
0010
0100
0010
0000
,
0100
0001
0100
0000
0001
1000
0001
0000
,
0001
0010
0001
0000
0010
0100
0010
0000
,
0100
1000
0100
0000
1000
0001
1000
0000
,
0001
0100
0001
0200
0000
0000
0310
0000
,
1000
0010
1000
0020
0000
0000
0130
0000
,
0001
1000
0001
1000
0001
1000
0001
1000
,
0002
0000
0000
2000
0000
0000
3003
0000
,
1000
0000
0100
0000
0001
0000
0100
0010
,
0000
0001
0000
0100
0000
0000
0001
0000
,
0100
0000
1000
0000
0100
0010
0000
1000
,
0000
0100
0000
0010
0100
0000
0000
0000
,
0010
0001
1000
0000
0110
0000
0000
0000
;

//--------------- dance-single - chronon ----------------
#NOTEDATA:;
#STEPSTYPE:dance-single;
#DESCRIPTION:chronon;
#DIFFICULTY:Medium;
#METER:13;
#RADARVALUES:0,0,0,0,0;
#NOTES:
0000
0000
0000
0000
,
0000
0000
0000
0000
,
0000
0000
0000
0000
,
0000
0000
0000
0000
,
0000
0000
0000
0000
,
1001
0001
1000
0001
,
1000
0100
0010
0000
0220
0000
0330
0000
,
1001
0000
0000
0000
,
0011
0000
0000
1100
0000
0000
0100
0000
1000
0000
0001
0000
1000
0000
0010
0000
,
1000
0000
0001
0000
0101
0000
0000
0000
0100
0000
0000
0001
0000
2000
0000
0000
,
0100
0000
0000
3001
0100
0000
0002
0000
0100
0000
0000
0000
1003
0000
0000
0000
,
0001
0000
0000
0010
0000
0000
0100
0000
1000
0000
0010
0000
0000
0010
0000
0000
,
1000
0010
0100
0001
1000
0001
0010
0100
,
1000
0000
0001
0000
0011
0000
0000
0000
0010
0000
0000
0001
0000
0000
2000
0000
,
0010
0000
0000
3001
0010
0000
0002
0000
0010
0000
0000
0000
1003
0000
0000
0000
,
0010
0000
0000
1000
0000
0000
0200
0000
0000
0000
0310
0000
0100
1000
0000
0100
,
0010
0000
0000
0001
0000
0000
0200
0000
0000
0000
0310
0000
0100
0000
0001
0000
,
0010
0000
0000
0100
1000
0000
0002
0000
0000
0000
1003
0000
0010
0000
2000
0000
,
0100
0000
0000
3001
0000
0000
0101
0000
0000
0000
0100
0000
0010
0000
0000
0000
,
0100
0000
0000
0001
0000
0000
0020
0000
0000
0000
0130
0000
0010
0001
0000
0010
,
0100
0000
0000
1000
0000
0000
0020
0000
0000
0000
0130
0000
0010
0000
1000
0000
,
0100
0000
0000
0010
0001
0000
2000
0000
0000
0000
3001
0000
0100
0000
0010
0000
,
1000
0000
0001
1000
0000
0100
0000
0010
0000
0000
0001
0000
0200
0000
0000
0000
,
0301
0100
0010
1000
0001
0010
0100
1000
,
0100
0000
0010
0100
0000
0000
1000
0000
0001
0000
1000
0000
0010
0000
0000
0000
,
1000
0010
0100
0001
1000
0100
0010
0001
,
0010
0100
0010
0100
0010
0001
0010
0000
,
0001
0010
0100
1000
0001
0100
0010
1000
,
0020
0000
0100
0000
0000
2030
0000
0000
0010
0000
0000
3001
0000
0000
0010
0000
,
0001
0010
0100
0000
0010
0100
1000
0000
,
0001
0100
0010
0000
0100
0010
1000
0001
,
2000
0000
0000
0000
,
0000
0000
0000
0000
,
0002
0000
0000
0000
,
0000
0000
3003
0000
,
1001
0000
0000
0000
0001
0000
0000
0000
1000
0000
0000
0000
0001
0010
0000
0001
,
0000
0000
1000
0000
0000
0100
0000
1000
0000
0001
0000
0000
0100
0000
0000
0000
,
0001
0000
0100
0001
0000
0100
0000
0001
0100
0000
0010
0000
2000
0000
0000
0000
,
0010
0000
0000
3001
0010
0000
0002
0000
0010
0000
0000
0000
1003
0000
0000
0000
,
0001
0000
0000
0100
0000
0000
0010
0000
0000
1000
0000
0000
0001
0000
0000
1000
,
0000
0000
1000
0000
0100
0010
0000
0000
0001
0000
1000
0001
0000
0000
0001
0000
,
0100
0010
0000
0000
1000
0000
0001
0000
0100
0000
0001
0000
1000
0000
0100
0000
,
1000
0001
0010
0001
1000
0000
0100
0000
,
0020
0000
0000
0130
0010
0000
0100
0000
2000
0000
0000
0010
0000
0000
3001
1000
,
0020
0000
0000
0130
0010
0000
0100
0000
0002
0000
0000
0010
0000
0000
1003
0001
,
0010
0000
0000
0100
0000
0000
1000
0000
0010
0000
0000
0100
0000
0000
0001
0000
,
1000
0000
0010
0100
0000
0000
0001
0000
0010
0100
0000
0000
1000
0000
0100
0000
,
0020
0000
0000
0130
0010
0000
0100
0000
2000
0000
0000
0001
0000
0000
3010
0000
,
1000
0010
0100
0001
1000
0100
0010
0001
,
0200
0310
2000
3001
,
0020
0130
2000
3001
,
2002
0000
0000
3000
,
0010
0000
0000
1003
0010
0000
2000
0000
0000
0010
0000
0000
3001
0000
0000
0000
,
0100
0000
0000
0001
0000
0000
0020
0000
0000
0000
0031
0010
0100
0000
1000
0000
,
0100
0000
0000
1000
0000
0000
0020
0000
0000
0000
1030
0000
0010
1000
0010
0000
,
0100
0000
0000
1000
0000
0000
0200
0000
0000
0000
0301
0100
0010
0000
2000
0000
,
0100
0000
0000
3001
0000
0000
0101
0000
0000
0000
0100
0000
0001
0000
0020
0000
,
0001
0000
0000
0130
0000
0000
1100
0000
0000
0000
1000
0000
0020
0000
0000
0000
,
1000
0000
0000
0130
0000
0000
0101
0000
0000
0000
0001
0000
0020
0000
0000
0000
,
0031
0000
0000
0011
0000
0000
0010
0000
0000
0110
0000
0000
0100
0000
0000
0000
,
1000
0100
1000
0100
1000
0001
1000
0000
,
0001
1000
0010
0100
0001
1000
0100
0010
,
0001
0000
0010
0000
0100
0000
1000
0000
0001
0000
0100
0000
0010
1000
0001
0000
,
1000
0001
0100
0010
1000
0001
0010
0100
,
1000
0000
0100
0000
0010
0000
0001
0000
1000
0000
0010
0000
0100
0001
1000
0000
,
0001
0000
0010
0001
0000
0010
0200
0000
0000
0000
0000
0000
0300
0000
0000
0000
,
1000
0000
0100
1000
0000
0100
0020
0000
0000
0000
0000
0000
0030
0000
0000
0000
,
0001
0000
1000
0100
0000
1000
0001
0000
1000
0001
0000
1000
0010
0000
0100
0020
,
0000
0230
0000
2300
0000
3200
0000
0301
,
1000
0010
0100
0001
0010
0100
1000
0001
,
0010
0100
1000
0010
0200
0000
0301
0100
,
0010
0000
1000
0000
0100
0000
0010
0000
0001
0010
0001
0000
0010
0000
0100
0000
,
1000
0000
0001
0100
0001
0000
0100
0000
0010
0000
0000
0000
0000
0000
0000
0000
,
0100
0010
1000
0000
0001
0000
0000
0000
0110
0000
0000
0000
0000
0000
0000
0000
;

//--------------- dance-single - chronon ----------------
#NOTEDATA:;
#STEPSTYPE:dance-single;
#DESCRIPTION:chronon;
#DIFFICULTY:Hard;
#METER:16;
#RADARVALUES:0,0,0,0,0;
#NOTES:
0000
0000
0000
0000
,
0000
0000
0000
0000
,
0000
0000
0000
0000
,
0000
0000
0000
0000
,
0000
0000
0000
0000
,
1001
0000
1000
0100
0010
0001
1000
0001
,
0100
0010
1000
0001
0220
0000
0330
0000
,
1001
0000
0000
0000
,
1100
0000
0000
0011
0000
0000
0001
0010
0100
1000
0001
1000
0010
0100
0001
0000
,
0101
0000
1001
0000
1010
0000
0000
0000
1000
0010
0000
0100
0000
0001
0000
0000
,
2001
0000
0000
3010
0000
0000
0100
0000
1002
0000
0000
0000
0013
0000
0000
0000
,
0001
0000
0010
0100
0000
0000
1000
0000
0001
1000
0010
0000
0000
0010
0000
0000
,
1000
0010
0100
0001
1000
0001
0010
0000
0001
0010
0100
1000
0001
1000
0010
0000
,
1010
0000
1001
0000
0101
0000
0000
0000
0001
0100
0000
0010
0000
0000
1000
0000
,
1002
0000
0000
0103
0000
0000
0010
0000
2001
0000
0000
0000
3100
0000
0000
0000
,
1000
0000
0002
0010
0000
0000
0203
0000
0000
0000
0301
0100
0010
2000
0000
0000
,
3001
0000
2000
0010
0000
0000
3200
0000
0000
0000
1300
0100
0010
0001
0010
0100
,
1000
0000
0000
0100
0010
0001
0200
0000
0000
0301
0100
0010
1000
0000
0001
0000
,
0101
0000
0000
1001
0000
0000
1100
0000
0000
0000
1000
0000
0100
1000
0100
0010
,
0001
0000
2000
0100
0000
0000
3020
0000
0000
0000
1030
0010
0100
0002
0000
0000
,
1003
0000
0002
0100
0000
0000
0023
0000
0000
0000
0031
0010
0100
1000
0100
0010
,
0001
0000
0000
0010
0100
1000
0020
0000
0000
0000
1030
0010
0100
0010
1000
0001
,
0010
0100
1000
0001
1000
0001
1000
0020
0000
0000
1030
0001
0200
0000
0000
0000
,
0301
0100
0010
0100
1000
0100
0010
0100
,
0001
0000
0100
0010
0000
1000
0001
0000
1000
0100
0010
0001
1000
0100
0010
0100
,
1000
0100
0010
0100
0001
0100
0010
0100
,
1000
0100
0010
0001
1000
0100
0010
0001
1000
0000
0010
0100
0001
0100
0010
0100
,
0001
0100
0010
0100
1000
0100
0010
0100
,
0001
0100
0010
1000
0001
0100
0001
1000
0100
1000
0001
0010
0001
1000
0100
0000
,
1000
0000
0100
1000
0100
0010
0001
1000
0001
0000
0100
0001
0100
0010
1000
0001
,
1000
0010
0100
0001
1000
0001
0010
0100
1000
0100
0010
0001
1000
0001
0100
0010
,
2000
0000
0000
0000
,
0000
0000
0000
0000
,
3001
0000
0000
1000
0000
0000
0001
0000
0010
0000
0000
0000
0000
0000
0100
0000
,
1000
0000
0000
0001
0000
0000
1000
0000
0010
0000
0000
0000
0100
0000
0000
0000
,
1001
0000
0000
0000
0001
0000
0000
0000
1000
0000
0000
0000
0001
0010
0000
0010
,
0000
0000
0100
0000
0000
1000
0000
1000
0000
0001
0000
0000
0200
0000
0000
0000
,
0301
0100
0001
0100
0000
0010
1000
0010
2000
0000
0010
0000
3001
0000
0000
0000
,
1002
0000
0000
0103
0000
0000
0010
0000
2001
0000
0000
0000
3100
0000
0000
0000
,
1000
0000
0100
1000
0000
0000
0001
0000
0100
0001
0000
0000
1000
0000
0001
1000
,
0000
0000
0001
0000
0100
0001
0000
0001
1000
0000
0100
1000
0000
1000
0001
0000
,
1000
0001
0000
0001
1000
0000
0100
1000
0100
1000
0001
0000
0100
0001
0100
0001
,
1000
0000
0001
1000
0001
1000
0001
0000
0100
0000
0000
0010
1000
0010
0100
0001
,
0020
0000
0000
0031
0010
0000
0001
0010
0100
0000
0010
0100
0002
0000
0103
1000
,
0020
0000
0000
1030
0010
0000
1000
0010
0100
0000
0010
0100
2000
0000
3100
0001
,
1000
0000
0001
0100
0000
0010
1000
0000
0001
0000
1000
0100
0000
0010
0001
0000
,
2001
0000
3100
1000
0000
0000
1002
0000
0103
0001
0000
0100
0001
0100
0010
1000
,
0200
0000
0000
1300
0100
0000
0010
0100
1000
0000
0010
0100
0001
0000
0100
0010
,
1000
0001
0010
0100
1000
0001
0100
0010
1000
0010
0100
0001
1000
0100
0010
0001
,
2000
0000
0000
0000
3001
0000
1000
0010
0200
0000
0000
0000
0301
0000
1000
0001
,
0010
0000
0100
0000
0010
0000
0001
1000
0010
0000
1000
0000
0001
0000
0000
0000
,
0220
0330
0000
0000
0000
0000
0000
0000
,
2001
0000
0000
3100
0000
0000
0010
0000
0000
1002
0000
0000
0103
0000
0000
0000
,
0001
0000
0200
0010
0000
0000
2300
0000
0000
0000
3100
0010
1000
0001
0010
0100
,
1000
0000
0200
0010
0000
0000
0302
0000
0000
0000
0103
0010
0001
1000
0010
0100
,
0001
0000
0000
0100
0010
0100
2000
0000
0000
3100
0010
0100
0001
1000
0001
0000
,
1001
0000
0000
1010
0000
0000
1200
0000
0000
0000
1300
0100
0010
0100
1000
0000
,
1100
0000
0000
0011
0000
0000
0201
0000
0000
0000
0310
0100
0001
0100
0000
0000
,
0101
0000
0000
1010
0000
0000
1200
0000
0000
0000
0310
0000
0100
1000
0100
0000
,
1100
0000
0000
1001
0000
0000
0101
0000
0000
1001
0000
0000
1010
0000
0000
0000
,
1000
0010
0100
0010
1000
0010
0100
0001
1000
0000
0001
0010
0100
1000
0001
0000
,
1000
0000
0100
0010
0000
0100
0001
0000
1000
0000
0010
0100
0000
0010
0001
0000
,
1000
0000
0010
0100
0000
0010
0001
0000
1000
0000
0100
0010
0000
0100
0001
1000
,
0001
0000
0100
0010
0000
0100
1000
0000
0001
0000
0010
0100
0000
0010
1000
0000
,
0001
0000
0010
0100
0000
0010
1000
0000
0001
0000
0100
0010
0000
0100
1000
0001
,
1000
0001
0010
0001
1000
0010
1000
0001
0020
0000
0000
0230
0000
0000
2300
0000
,
3001
1000
0100
1000
0001
0100
0001
1000
0200
0000
0000
0320
0000
0000
0032
0000
,
1003
0001
0010
0001
1000
0010
1000
0001
0100
0001
1000
0100
0010
0001
1000
0001
,
0200
0010
0000
2300
0000
0001
0000
3100
,
1000
0100
0010
0100
0001
1000
0100
0001
,
0100
0000
0000
0010
0000
0000
0100
0000
0000
1000
0000
0000
0001
0000
0100
0000
0010
0000
0001
0000
0000
0010
0000
0000
,
0100
0000
0010
0000
1000
0000
0001
0000
1000
0100
0010
0000
0001
0100
0010
0000
,
1000
0000
0100
0010
0001
0000
0100
0000
0010
0000
0000
0000
0000
0000
0000
0000
,
0100
0010
0100
0001
1000
0000
0000
0000
0110
0000
0000
0000
0000
0000
0000
0000
;

//--------------- dance-double - chronon ----------------
#NOTEDATA:;
#STEPSTYPE:dance-double;
#DESCRIPTION:chronon;
#DIFFICULTY:Hard;
#METER:15;
#RADARVALUES:0,0,0,0,0;
#NOTES:
00000000
00000000
00000000
00000000
,
00000000
00000000
00000000
00000000
,
00000000
00000000
00000000
00000000
,
00000000
00000000
00000000
00000000
,
00000000
00000000
00000000
00000000
,
20010000
00000000
31000000
00100000
00001000
00010000
00000100
00000010
,
00000001
00000100
00000010
00010000
00022000
00000000
00033000
00000000
,
00010100
00000000
00000000
00000000
,
00011000
00000000
00000000
01010000
00000000
00000000
00010000
01000000
00100000
10000000
00010000
10000000
01000000
00100000
00010000
00000000
,
00110000
00000000
00011000
00000000
00010010
00000000
00000000
00000000
00000010
00001000
00000000
00000001
00000000
00000010
00000000
00000000
,
00000021
00000000
00000000
00000130
00000000
00000000
00010000
00000000
00020100
00000000
00000000
00000000
00031000
00000000
00000000
00000000
,
00010000
00000000
00001000
00100000
00000000
00000000
01000000
00000000
10000000
00010000
01000000
00000000
00000000
01000000
00000000
00000000
,
00010000
01000000
00100000
10000000
00010000
10000000
01000000
00000000
10000000
01000000
00100000
00010000
10000000
00010000
01000000
00000000
,
01010000
00000000
00011000
00000000
00010100
00000000
00000000
00000000
00000100
00001000
00000000
00000001
00000000
00000000
00000100
00000000
,
00000201
00000000
00000000
00000310
00000000
00000000
00010000
00000000
00020010
00000000
00000000
00000000
00031000
00000000
00000000
00000000
,
00010000
00000000
00002000
00100000
00000000
00000000
02003000
00000000
00000000
00000000
03010000
00000000
01000000
00001000
00010000
00000000
,
00001000
00000000
00020000
00000010
00000000
00000000
00030200
00000000
00000000
00000000
00001300
00000000
00000100
00010000
00001000
00000000
,
00010000
00000000
00000000
00001000
00200000
00000000
01000000
00000000
00000000
00000000
00301000
00000000
01000000
00001000
00010000
00000000
,
00011000
00000000
00000000
00010010
00000000
00000000
00011000
00000000
00000000
00000000
00001000
00000000
00100000
00001000
00010000
00000000
,
00001000
00000000
00020000
00000100
00000000
00000000
00030020
00000000
00000000
00000000
00001030
00000000
00000010
00010000
00001000
00000000
,
00010000
00000000
00002000
01000000
00000000
00000000
00203000
00000000
00000000
00000000
00310000
00000000
00100000
00001000
00010000
00000000
,
00001000
00000000
00000000
00010000
00000200
00000000
00000010
00000000
00000000
00000000
00010300
00000000
00000010
00010000
00001000
00000000
,
00010000
00000000
00001000
01000000
00000000
00001000
00000000
00010000
00000000
00000000
00001000
00100000
02000000
00000000
00000000
00000000
,
13000000
01000000
00100000
00010000
00001000
00000100
00000010
00000001
,
00000100
00000000
00000010
00000100
00000000
00000001
00001000
00000000
00000100
00000010
00000001
00000000
00002000
00000000
00000000
00000000
,
00003001
00000010
00000100
00001000
00010000
00100000
01000000
10000000
,
00100000
10000000
00100000
01000000
00100000
10000000
00100000
01000000
00010000
00000000
10000000
00000000
00020000
00000000
00000000
00000000
,
10030000
01000000
00100000
00010000
00001000
00000100
00000010
00000001
,
00000100
00000000
00000001
00001000
00000010
00001000
00000001
00000010
00000001
00001000
00000100
00001000
00000001
00000100
00000010
00000000
,
00000100
00000000
00000010
00010000
00001000
00000000
00010000
00001000
01000000
00000000
00010000
10000000
00010000
00000000
10000000
00000000
,
01000000
00100000
00010000
00000000
00100000
00001000
00010000
00000000
00001000
00010000
00000100
00000000
00001000
00000001
00001000
00000000
,
00002002
00000000
00000000
00000000
,
00000000
00000000
00000000
00000000
,
00000003
00000000
00000000
00000000
,
00003000
00000000
00000000
00000000
,
00001001
00000000
00000000
00000000
00000001
00000000
00000000
00000000
00001000
00000000
00000000
00000000
00000010
00010000
00000000
00001000
,
00000000
00000000
00100000
00000000
00000000
00001000
00000000
00010000
00000000
00000010
00000000
00000000
00011000
00000000
00000000
00000000
,
00001000
00010000
00001000
00010000
00000000
00001000
00010000
00001000
00010000
00000000
01000000
00000000
10000000
00000000
00000000
00000000
,
12000000
00000000
00000000
03100000
00000000
00000000
00001000
00000000
00102000
00000000
00000000
00000000
00013000
00000000
00000000
00000000
,
00001000
00000000
00010000
00000100
00000000
00000000
00010000
00000000
00001000
01000000
00000000
00000000
00001000
00000000
00010000
00000100
,
00000000
00000000
00010000
00000000
00001000
01000000
00000000
01000000
00001000
00000000
00010000
00000100
00000000
00000100
00010000
00000000
,
00001000
01000000
00000000
01000000
00001000
00000000
00010000
00000100
00010000
00000100
00010000
00000000
00001000
01000000
00001000
01000000
,
00001000
00000000
00010000
00000100
00010000
00000100
00010000
00000000
00001000
00000000
00000000
00010000
00001000
01000000
00010000
10000000
,
00200000
00000000
00000000
10300000
00010000
00000000
10000000
01000000
00100000
00000000
00001000
00010000
00000020
00000000
00001030
00000001
,
00000200
00000000
00000000
00000301
00001000
00000000
00000001
00000010
00000100
00000000
00010000
00001000
02000000
00000000
03010000
10000000
,
00100000
00000000
10000000
00100000
00000000
01000000
00010000
00000000
01000000
00000000
00001000
01000000
00000000
00001000
00010000
00000000
,
00001000
00000000
00100000
00001000
00000000
00000000
00010000
00000000
00000010
00010000
00000000
00001000
00010000
00000100
00001000
00000001
,
00000020
00000000
00000000
00000031
00001000
00000000
00000001
00000100
00000020
00000000
00000000
00010030
00001000
00000000
01000000
00010000
,
10000000
01000000
00100000
00000000
01000000
00100000
00010000
00000000
00100000
00001000
00010000
00000000
00001000
00010000
00000010
00000000
,
00000200
00000000
00000000
00000000
00000310
00000000
00001000
00000001
00000020
00000000
00000000
00000000
00000130
00000000
00001000
00000001
,
00000100
00000000
00000010
00000000
00010000
00000000
00001000
01000000
00010000
00000000
00000000
00000000
10000000
00000000
00000000
00000000
,
10010000
00000000
00000000
00000000
,
10200000
00000000
00000000
01300000
00000000
00000000
00001000
00000000
00000000
01002000
00000000
00000000
00013000
00000000
00000000
00000000
,
00001000
00000000
00020000
01000000
00000000
00000000
00032000
00000000
00000000
00000000
00013000
00000100
00010000
00001000
00000000
00000000
,
00010000
00000000
00002000
00000100
00000000
00000000
00023000
00000000
00000000
00000000
00031000
00010000
00001000
01000000
00001000
00010000
,
00001000
00000000
00000000
00010000
01000000
00010000
00002000
00000000
00000000
00013000
00000100
00010000
00001000
00000000
00010000
00000000
,
00011000
00000000
00000000
00101000
00000000
00000000
00011000
00000000
00000000
00000000
00010000
00000100
00010000
00001000
00010000
00000000
,
00011000
00000000
00000000
01001000
00000000
00000000
00011000
00000000
00000000
00000000
00001000
00100000
00001000
00010000
00000000
00000000
,
00011000
00000000
00000000
00010100
00000000
00000000
00011000
00000000
00000000
00000000
00010000
00000000
00000010
00010000
00001000
00000000
,
00011000
00000000
00000000
01001000
00000000
00000000
00011000
00000000
00000000
00010100
00000000
00000000
00011000
00000000
00000000
00000000
,
00001000
00010000
00001000
00010000
00001000
00010000
00001000
00000000
01000000
00000000
00010000
10000000
00100000
01000000
00010000
00000000
,
01000000
00000000
00001000
01000000
00000000
00001000
00010000
00000000
00000100
00000000
00010000
00000100
00000000
00010000
00001000
00000000
,
00100000
00000000
00001000
00100000
00000000
00001000
00010000
00000000
00000010
00000000
00010000
00000010
00000000
00010000
00001000
00000000
,
01000000
00000000
00001000
01000000
00000000
00001000
00010000
00000000
00000100
00000000
00010000
00000100
00000000
00010000
00001000
00000000
,
00100000
00000000
00001000
00100000
00000000
00001000
00010000
00000000
00000010
00000000
00010000
00000010
00000000
00010000
00001000
00000000
,
00010000
00001000
01000000
00010000
10000000
01000000
00100000
00000000
00002000
00000000
00000000
00023000
00000000
00000000
00031000
00010000
,
00001000
00010000
00000100
00001000
00000001
00000100
00000010
00000000
00020000
00000000
00000000
00032000
00000000
00000000
00013000
00001000
,
00010000
00001000
00100000
00010000
10000000
00100000
01000000
00000000
00001000
00010000
00000010
00001000
00000001
00000010
00000100
00000000
,
00020000
00001000
00000000
02030000
00000000
03020000
00000000
01030000
,
10000000
01000000
00010000
00001000
00000010
00000001
00000100
00000001
,
00000100
00000000
00000000
00001000
00000000
00000000
00010000
00000000
00000000
00100000
00000000
00000000
10000000
00000000
00000000
00000000
01000000
00000000
10000000
00000000
00000000
01000000
00000000
00000000
,
00010000
00000000
00001000
00000000
00000010
00000000
00000001
00000000
00000100
00000001
00001000
00000000
00000010
00010000
00001000
00000000
,
00100000
00000000
00010000
00100000
01000000
00000000
10000000
00000000
00010000
00000000
00000000
00000000
00000000
00000000
00000000
00000000
,
10000000
00010000
01000000
00001000
00010000
00000000
00000000
00000000
00011000
00000000
00000000
00000000
00000000
00000000
00000000
00000000
;
