#VERSION:0.83;
#TITLE:Monochrome;
#SUBTITLE:;
#ARTIST:BABYMETAL;
#TITLETRANSLIT:;
#SUBTITLETRANSLIT:;
#ARTISTTRANSLIT:;
#GENRE:;
#CREDIT:D0omsday;
#MUSIC:Monochrome.ogg;
#BANNER:;
#BACKGROUND:;
#JACKET:;
#DISCIMAGE:;
#CDIMAGE:;
#SELECTABLE:YES;
#LYRICSPATH:;
#CDTITLE:;
#SAMPLESTART:48.686;
#SAMPLELENGTH:16.457;
#OFFSET:-0.002;
#BPMS:0.000000=175.000000,
64.000000=87.500000,
96.000000=175.000000,
176.000000=87.500000,
192.000000=175.000000
;
#STOPS:;
#WARPS:;
#DELAYS:;
#SPEEDS:0.000000=1.000000=0.000000=0;
#SCROLLS:0.000000=1.000000,
95.000000=0.000000,
95.500000=2.000000,
96.000000=1.000000,
236.000000=0.000000,
239.000000=1.000000
;
#TICKCOUNTS:;
#TIMESIGNATURES:;
#LABELS:;
#COMBOS:;
#FAKES:;
#BGCHANGES:;
#FGCHANGES:;
#ATTACKS:;

//---------------dance-single - ---------------
#NOTEDATA:;
#CHARTNAME:;
#CHARTSTYLE:;
#CREDIT:D0omsday;
#STEPSTYPE:dance-single;
#DESCRIPTION:;
#DIFFICULTY:Beginner;
#METER:2;
#METERF:2;
#RADARVALUES:0,0,0,0,0;
#NOTES:
// measure 0
0000
0000
0000
0000
,  // measure 1
0000
0000
0000
0000
,  // measure 2
0000
0000
0000
0000
,  // measure 3
0000
0000
0000
0000
,  // measure 4
1000
0000
0000
0000
,  // measure 5
0000
0000
0000
0001
,  // measure 6
0000
0000
0000
0000
,  // measure 7
0000
0000
0000
0000
,  // measure 8
0000
0000
0000
1001
,  // measure 9
0000
0000
0000
0001
,  // measure 10
0000
0000
0000
0100
,  // measure 11
0000
0000
0000
0000
,  // measure 12
0010
0000
0000
0010
,  // measure 13
0000
0000
0000
1000
,  // measure 14
0000
0000
0000
0001
,  // measure 15
0000
0000
0000
0000
,  // measure 16
2002
3003
0000
0000
0000
0000
0000
0000
0000
0000
0000
0000
0000
0000
0000
0000
,  // measure 17
1000
0000
0000
0000
,  // measure 18
0100
0000
0000
0000
,  // measure 19
0010
0000
0000
0000
,  // measure 20
0001
0000
0000
0000
,  // measure 21
0001
0000
0000
0000
,  // measure 22
0100
0000
0000
0000
,  // measure 23
0100
0000
0000
2002
,  // measure 24
0000
0000
0000
0000
,  // measure 25
0000
0000
0000
0000
,  // measure 26
0000
0000
0000
0000
,  // measure 27
0000
0000
3003
0000
,  // measure 28
1000
0000
0000
0000
,  // measure 29
0100
0000
0000
0000
,  // measure 30
0010
0000
0000
0000
,  // measure 31
0010
0000
0000
0000
,  // measure 32
0001
0000
0000
0000
,  // measure 33
0001
0000
0000
0000
,  // measure 34
1000
0000
0000
0000
,  // measure 35
1000
0000
0000
0000
,  // measure 36
0001
0000
0000
0000
,  // measure 37
0100
0000
0000
0000
,  // measure 38
0010
0000
0000
0000
,  // measure 39
0010
0000
0000
0000
,  // measure 40
1000
0000
0000
0000
,  // measure 41
1000
0000
0000
0000
,  // measure 42
0001
0000
0000
0000
,  // measure 43
0001
0000
0000
0000
,  // measure 44
2002
3003
0000
0000
0000
0000
0000
0000
0000
0000
0000
0000
0000
0000
0000
0000
,  // measure 45
1000
0000
0000
0000
,  // measure 46
0100
0000
0000
0000
,  // measure 47
1000
0000
0000
0000
,  // measure 48
0002
0003
0000
0000
0000
0000
0000
0000
0000
0000
0000
0000
0000
0000
0000
0000
,  // measure 49
0000
0000
0000
0000
,  // measure 50
0001
0000
0000
0000
,  // measure 51
0001
0000
0000
0000
,  // measure 52
0100
0000
0000
0000
,  // measure 53
0010
0000
0000
0000
,  // measure 54
0000
0000
0000
0000
,  // measure 55
0000
0000
0000
0000
,  // measure 56
1001
0000
0000
1001
,  // measure 57
0000
0000
0000
0000
,  // measure 58
0010
0000
0000
0010
,  // measure 59
0000
0000
0000
0000
,  // measure 60
0000
0000
0000
0000
,  // measure 61
1000
0000
0000
0000
,  // measure 62
0001
0000
0000
0000
,  // measure 63
0001
0000
0000
0000
,  // measure 64
1000
0000
0000
0000
,  // measure 65
0010
0000
0000
0000
,  // measure 66
0100
0000
0000
0000
,  // measure 67
0100
0000
0000
0000
,  // measure 68
0001
0000
0000
0000
,  // measure 69
0001
0000
0000
0000
,  // measure 70
1000
0000
0000
0000
,  // measure 71
1000
0000
0000
0000
,  // measure 72
0001
0000
0000
0001
,  // measure 73
0000
0000
0000
0000
,  // measure 74
1000
0000
0000
1000
,  // measure 75
0000
0000
0000
0000
,  // measure 76
0010
0000
0000
0000
,  // measure 77
0010
0000
0000
0000
,  // measure 78
0100
0000
0000
0000
,  // measure 79
0100
0000
0000
0000
,  // measure 80
0010
0000
0000
0010
,  // measure 81
0000
0000
0000
0000
,  // measure 82
1000
0000
0000
1000
,  // measure 83
0000
0000
0000
0000
,  // measure 84
0001
0000
0000
0000
,  // measure 85
0001
0000
0000
0000
,  // measure 86
0020
0000
0000
0000
,  // measure 87
0000
0000
0000
0000
,  // measure 88
0030
0000
0000
0000
;

//---------------dance-single - ---------------
#NOTEDATA:;
#CHARTNAME:;
#CHARTSTYLE:;
#CREDIT:D0omsday;
#STEPSTYPE:dance-single;
#DESCRIPTION:;
#DIFFICULTY:Easy;
#METER:5;
#METERF:5;
#RADARVALUES:0,0,0,0,0;
#NOTES:
// measure 0
0000
0000
0000
0000
,  // measure 1
0000
0000
0000
0000
,  // measure 2
0000
0000
0000
0000
,  // measure 3
0000
0000
0000
0000
,  // measure 4
0001
0000
0001
0010
,  // measure 5
0000
0000
0100
0100
,  // measure 6
0000
0000
1000
1000
,  // measure 7
0000
0000
0001
1000
,  // measure 8
0000
0000
0000
0110
,  // measure 9
0000
0000
1000
1000
,  // measure 10
0000
0000
0100
0100
,  // measure 11
0000
0000
0010
0001
,  // measure 12
0010
0000
0010
0001
,  // measure 13
0000
0000
1000
1000
,  // measure 14
0000
0000
0010
0010
,  // measure 15
0000
0000
1001
0000
,  // measure 16
2000
3000
0000
0000
0000
0000
0000
0000
0010
0000
0000
0000
0000
0000
0000
0000
,  // measure 17
1000
0000
0100
0000
,  // measure 18
0010
0000
0001
0000
,  // measure 19
0100
0000
0010
0000
,  // measure 20
1000
1000
0001
0001
,  // measure 21
0010
0000
0100
0000
,  // measure 22
1000
1000
0001
0001
,  // measure 23
0100
0000
0000
0000
0000
0000
0000
0000
0010
0000
0000
0000
0220
0000
0000
0330
,  // measure 24
2000
3000
0200
0300
,  // measure 25
0020
0030
0002
0003
,  // measure 26
0100
0100
0010
0010
,  // measure 27
0100
0000
0110
0000
,  // measure 28
2002
0000
3003
0020
,  // measure 29
0000
0000
0130
0000
,  // measure 30
0001
0000
0001
1000
,  // measure 31
0000
0000
0100
0000
,  // measure 32
1000
0000
1000
0000
1000
0000
0000
0010
,  // measure 33
0000
0010
0000
0010
0000
0000
0100
0000
,  // measure 34
0001
0000
0001
0000
0001
0000
0000
1000
,  // measure 35
0000
1000
0000
1000
0000
0000
0100
0000
,  // measure 36
0020
0000
0030
0002
,  // measure 37
0000
0000
1003
0000
,  // measure 38
0010
0000
0010
0100
,  // measure 39
0000
0000
0001
0000
,  // measure 40
1000
0000
1000
0000
1000
0000
0000
0100
,  // measure 41
0000
0100
0000
0100
0000
0000
0010
0000
,  // measure 42
0001
0000
0001
0000
0001
0000
0000
1000
,  // measure 43
0000
1000
0000
1000
0000
0000
0010
0000
,  // measure 44
0200
0300
0000
0000
0000
0000
0000
0000
0001
0000
0000
0000
0000
0000
0000
0000
,  // measure 45
0010
0000
0100
0000
,  // measure 46
1000
0000
0000
0000
1000
0000
0000
0001
0000
0000
0000
0001
0000
0000
0000
0000
,  // measure 47
0100
0000
0000
0000
0100
0000
0000
0010
0000
0000
0000
0010
0000
0000
0000
0000
,  // measure 48
2000
3000
0000
0000
0000
0000
0000
0000
0100
0000
0000
0000
0000
0000
0000
0000
,  // measure 49
0010
0010
0000
0001
,  // measure 50
0001
0000
1000
0000
,  // measure 51
0010
0010
0000
0100
,  // measure 52
0100
0000
0001
0000
,  // measure 53
1000
0001
1000
0001
,  // measure 54
0000
0000
0000
0000
,  // measure 55
0000
0000
0000
0000
,  // measure 56
2002
0000
3003
0220
,  // measure 57
0000
0000
0000
0330
,  // measure 58
1000
0000
0000
0100
0000
0000
0010
0000
,  // measure 59
0000
0000
0000
0000
,  // measure 60
0001
0000
0001
0000
0001
0000
0000
1000
,  // measure 61
0000
1000
0000
1000
0000
0000
0010
0000
,  // measure 62
0100
0000
0100
0000
0100
0000
0000
0001
,  // measure 63
0000
0001
0000
0001
0000
0000
1000
0000
,  // measure 64
0200
0000
0300
0020
,  // measure 65
0000
0000
0031
0000
,  // measure 66
1000
0000
1000
0010
,  // measure 67
0000
0000
0100
0000
,  // measure 68
0001
0000
0001
0000
0001
0000
0000
0010
,  // measure 69
0000
0010
0000
0010
0000
0000
0100
0000
,  // measure 70
1000
0000
1000
0000
1000
0000
0000
0010
,  // measure 71
0000
0010
0000
0010
0000
0000
0100
0000
,  // measure 72
0001
0000
0001
1000
,  // measure 73
0000
0000
0100
0100
,  // measure 74
0000
0000
0010
0010
,  // measure 75
0000
0000
0001
0001
,  // measure 76
1000
0000
1000
0000
1000
0000
0000
0010
,  // measure 77
0000
0010
0000
0010
0000
0000
0100
0000
,  // measure 78
0001
0000
0001
0000
0001
0000
0000
1000
,  // measure 79
0000
1000
0000
1000
0000
0000
0100
0000
,  // measure 80
0010
0000
0010
0001
,  // measure 81
0000
0000
1000
1000
,  // measure 82
0000
0000
0010
0010
,  // measure 83
0000
0000
0100
0100
,  // measure 84
0001
0000
0001
0000
0001
0000
0000
1000
,  // measure 85
0000
1000
0000
1000
0000
0000
0100
0000
,  // measure 86
0020
0000
0000
0000
,  // measure 87
0000
0000
0000
0000
,  // measure 88
0030
0000
0000
0000
;

//---------------dance-single - ---------------
#NOTEDATA:;
#CHARTNAME:;
#CHARTSTYLE:;
#CREDIT:D0omsday;
#STEPSTYPE:dance-single;
#DESCRIPTION:;
#DIFFICULTY:Medium;
#METER:8;
#METERF:8;
#RADARVALUES:0,0,0,0,0;
#NOTES:
// measure 0
0000
0000
0000
0000
,  // measure 1
0000
0000
0000
0000
,  // measure 2
0000
0000
0000
0000
,  // measure 3
0000
0000
0000
0000
,  // measure 4
1002
0000
0013
0200
,  // measure 5
0000
1300
0100
0000
1000
0000
0002
0000
,  // measure 6
0000
0103
0010
2000
,  // measure 7
0000
3001
1000
0000
0100
0000
0010
0000
,  // measure 8
0000
0000
0000
2001
,  // measure 9
0000
3001
1000
0000
0010
0000
0200
0000
,  // measure 10
0000
0301
0010
0200
,  // measure 11
0000
1300
0100
0000
0010
0000
0001
0000
,  // measure 12
2000
0000
3010
0200
,  // measure 13
0000
0301
0100
0000
0010
0000
2000
0000
,  // measure 14
0000
3001
0010
0200
,  // measure 15
0000
1300
0100
0000
0010
0000
0000
0000
,  // measure 16
0002
0003
0000
0000
0000
0000
0000
0000
1000
0000
0000
0000
0010
0000
0000
0000
,  // measure 17
0100
0010
0100
0010
0100
0000
0001
0000
,  // measure 18
0010
0001
1000
0100
,  // measure 19
0010
0100
0010
0100
0010
0000
0001
0000
,  // measure 20
2001
3100
1002
0103
,  // measure 21
0010
1000
0100
0010
,  // measure 22
0001
0100
0010
0000
1000
0100
0010
0000
,  // measure 23
0001
0000
0100
0000
0001
0000
1000
0000
0100
0010
0000
0001
2000
0000
0000
3000
,  // measure 24
2002
3003
2002
3003
,  // measure 25
0220
0330
0220
0330
,  // measure 26
0001
0010
0100
1000
,  // measure 27
2001
0000
3100
0010
,  // measure 28
0002
0000
0000
0203
0000
0000
0320
0000
,  // measure 29
0000
2030
0000
0000
3001
0000
0010
0000
,  // measure 30
0100
0000
1000
0100
0000
0000
0010
0000
,  // measure 31
0000
0000
0001
0000
1000
0001
1000
0000
,  // measure 32
0001
0000
0100
0000
0001
0000
0000
1000
,  // measure 33
0000
0100
0000
1000
0000
0001
1000
0000
,  // measure 34
0001
0000
0010
0000
0001
0000
0000
1000
,  // measure 35
0000
0010
0000
1000
0000
0001
1000
0000
,  // measure 36
0002
0000
0000
0023
0000
0000
0230
0000
,  // measure 37
0000
2300
0000
0000
3001
0000
0100
0000
,  // measure 38
0010
0000
1000
0010
0000
0000
0100
0000
,  // measure 39
0000
0000
0001
0000
1000
0001
1000
0000
,  // measure 40
0001
0000
0010
0000
0001
0000
0000
1000
,  // measure 41
0000
0010
0000
1000
0000
0001
1000
0000
,  // measure 42
0001
0000
0100
0000
0001
0000
0000
1000
,  // measure 43
0000
0100
0000
1000
0000
0001
1000
0000
,  // measure 44
0020
0030
0000
0000
0000
0000
0000
0000
0100
0000
0000
0000
0000
0000
0000
0000
,  // measure 45
0001
0000
0010
0000
,  // measure 46
0100
0000
0010
0000
0100
0000
0000
1000
0000
0001
0000
1000
0000
0001
1000
0000
,  // measure 47
0010
0000
1000
0000
0010
0000
0000
0100
0000
0001
0000
0100
0000
0001
0100
0000
,  // measure 48
0020
0030
0000
0000
1000
0000
0000
0000
0010
0000
0000
0000
0000
0000
1000
0000
,  // measure 49
0001
0000
1000
0000
0001
0000
0000
0010
,  // measure 50
0100
0000
0010
0000
0100
0000
0000
1000
,  // measure 51
0100
0000
1000
0000
0100
0000
0000
0010
,  // measure 52
0001
0001
1000
1000
,  // measure 53
0001
0000
1000
0000
0001
1000
0001
1000
,  // measure 54
0000
0000
0000
0000
,  // measure 55
0000
0000
0000
0000
,  // measure 56
2002
0000
3003
2020
,  // measure 57
0000
3030
0110
0100
,  // measure 58
0001
0000
1000
0100
0000
0010
0001
0000
,  // measure 59
0000
0000
0000
0000
,  // measure 60
1000
0000
0010
0000
1000
0000
0000
0001
,  // measure 61
0000
0010
0000
0001
0000
1000
0001
0000
,  // measure 62
1000
0000
0100
0000
1000
0000
0000
0001
,  // measure 63
0000
0100
0000
0001
0000
1000
0001
0000
,  // measure 64
0020
0000
0000
0230
0000
0000
2300
0000
,  // measure 65
0000
3002
0000
0000
0103
0000
0010
0000
,  // measure 66
1000
0000
0001
1000
0000
0000
0100
0000
,  // measure 67
0000
0000
0010
0000
0001
1000
0001
0000
,  // measure 68
1000
0000
0100
0000
1000
0000
0000
0001
,  // measure 69
0000
0100
0000
0001
0000
1000
0001
0000
,  // measure 70
1000
0000
0010
0000
1000
0000
0000
0001
,  // measure 71
0000
0010
0000
0001
0000
1000
0001
0000
,  // measure 72
0200
0000
0310
2000
,  // measure 73
0000
3001
1000
0000
0100
0000
0020
0000
,  // measure 74
0000
0031
1000
0020
,  // measure 75
0000
0130
0010
0000
1000
0000
0001
0000
,  // measure 76
0010
0000
0001
0000
0100
0000
0000
0010
,  // measure 77
0000
1000
0000
0100
0000
1000
0001
0000
,  // measure 78
0100
0000
0001
0000
0010
0000
0000
0100
,  // measure 79
0000
1000
0000
0010
0000
1000
0001
0000
,  // measure 80
0020
0000
0031
2000
,  // measure 81
0000
3010
1000
0000
0100
0000
0020
0000
,  // measure 82
0000
0031
1000
0020
,  // measure 83
0000
0130
0010
0000
1000
0000
0001
0000
,  // measure 84
1000
0000
0100
0000
0010
0000
0000
0001
,  // measure 85
0000
0100
0000
0010
0000
1000
0001
0000
,  // measure 86
2002
0000
0000
0000
,  // measure 87
0000
0000
0000
0000
,  // measure 88
3003
0000
0000
0000
;

//---------------dance-single - ---------------
#NOTEDATA:;
#CHARTNAME:;
#CHARTSTYLE:;
#CREDIT:D0omsday;
#STEPSTYPE:dance-single;
#DESCRIPTION:;
#DIFFICULTY:Hard;
#METER:11;
#METERF:11;
#RADARVALUES:0,0,0,0,0;
#NOTES:
// measure 0
0000
0000
0000
0000
,  // measure 1
0000
0000
0000
0000
,  // measure 2
0000
0000
0000
0000
,  // measure 3
0000
0000
0000
0000
,  // measure 4
1001
0000
0001
0100
0010
0000
2000
0000
,  // measure 5
0000
3100
1000
0000
0010
1000
0002
0000
,  // measure 6
0000
0013
0100
0000
0001
0000
0200
0000
,  // measure 7
0000
1300
0100
0000
0010
0000
0001
0000
,  // measure 8
1000
0001
1000
0001
1000
0001
2000
0000
,  // measure 9
0000
3010
1000
0000
0100
0010
0200
0000
,  // measure 10
0000
1300
0001
0000
0100
0010
2000
0000
,  // measure 11
0000
3100
0010
0000
0100
1000
0001
0000
,  // measure 12
0100
0000
0010
1000
0001
0000
0020
0000
,  // measure 13
0000
0130
0010
0000
0001
0000
0200
0000
,  // measure 14
0000
0310
0100
0000
1000
0000
0200
0000
,  // measure 15
0000
0310
1000
0000
1001
0000
0000
0000
,  // measure 16
0002
0003
0000
0000
0010
0000
0000
0000
0100
0000
0000
0000
1000
0000
0000
0000
,  // measure 17
0001
0100
0001
0010
0100
0000
0010
0001
,  // measure 18
1000
0010
0100
0001
,  // measure 19
1000
0100
0010
0100
1000
0000
1001
0000
,  // measure 20
0001
0000
0100
0000
0001
0000
0000
0000
1000
0000
0100
0000
1000
0000
0000
0001
,  // measure 21
0010
0000
0000
0001
1000
0000
0000
0001
0100
0000
0000
0001
1000
0000
0100
0000
,  // measure 22
0010
0000
0010
0000
0010
0000
0000
0000
0001
0000
0001
0000
0001
0000
0000
1000
,  // measure 23
0001
0000
0000
1000
0010
0000
0000
1000
0100
0000
0000
0000
2002
0000
0000
3003
,  // measure 24
2002
3003
0202
0303
,  // measure 25
2020
3030
2200
3300
,  // measure 26
0110
0110
1001
1001
,  // measure 27
0001
1000
0001
1000
0001
1000
0001
0000
0000
0000
0000
0000
,  // measure 28
2010
0000
0000
3001
1000
0000
1200
0000
,  // measure 29
0000
0310
0100
0000
1000
0000
0001
0000
,  // measure 30
0100
0000
0010
1000
0000
0001
0010
0000
,  // measure 31
0100
0000
0010
0000
0001
1000
0001
0000
,  // measure 32
0101
0000
1001
0000
0101
0000
0000
1100
,  // measure 33
0000
1001
0000
1100
0000
1000
0001
0000
,  // measure 34
0011
0000
1001
0000
0011
0000
0000
1010
,  // measure 35
0000
1001
0000
1010
0000
1000
0001
0000
,  // measure 36
0102
0000
0000
1003
0001
0000
0021
0000
,  // measure 37
0000
0130
0010
0000
0001
0000
0100
0000
,  // measure 38
0010
0000
1000
0100
0000
0010
0001
0000
,  // measure 39
1000
0000
0010
0000
1000
0001
1000
0000
,  // measure 40
1100
0000
1001
0000
1100
0000
0000
0101
,  // measure 41
0000
1001
0000
0101
0000
0001
1000
0000
,  // measure 42
1010
0000
1001
0000
1010
0000
0000
0011
,  // measure 43
0000
1001
0000
0011
0000
0001
1000
0000
,  // measure 44
0020
0030
0000
0000
0100
0000
0000
0000
0001
0000
0000
0000
1000
0000
0100
0020
,  // measure 45
0000
0000
0130
2000
0000
0000
3001
0200
0000
0000
0301
2000
0000
0000
3100
0010
,  // measure 46
0100
0000
0100
0000
0100
0000
0000
1000
0000
1000
0000
1000
0000
1000
0001
0000
,  // measure 47
0100
0000
0100
0000
0100
0000
0000
0001
0000
0001
0000
0001
0000
0001
1000
0000
,  // measure 48
0020
0030
0000
0000
0100
0000
0000
0000
0010
0000
0000
0000
1000
0000
0001
0000
,  // measure 49
1000
0000
0100
0000
0010
0000
0001
1000
,  // measure 50
0001
0000
0100
0000
0010
0000
1000
0001
,  // measure 51
1000
0000
0100
0000
0010
0000
0001
1000
,  // measure 52
0001
0001
0100
0100
,  // measure 53
0010
1000
0010
1000
0001
0010
0100
1000
,  // measure 54
0000
0000
0000
0000
,  // measure 55
0000
0000
0000
0000
,  // measure 56
2002
0000
3003
0220
,  // measure 57
0000
0330
0110
0000
,  // measure 58
1001
0000
0000
0000
0001
1000
0001
0000
0000
0000
1000
0001
1000
0000
0000
0000
,  // measure 59
0000
0000
0000
0000
,  // measure 60
0011
0000
1001
0000
0101
0000
0000
1010
,  // measure 61
0000
1001
0000
1100
0000
1000
0001
0000
,  // measure 62
0101
0000
1001
0000
0011
0000
0000
1100
,  // measure 63
0000
1001
0000
1010
0000
1000
0001
0000
,  // measure 64
0012
0000
0000
1003
0001
0000
0201
0000
,  // measure 65
0000
0310
0100
0000
0001
0000
1000
0000
,  // measure 66
0100
0000
0010
0001
0000
1000
0010
0000
,  // measure 67
0100
0000
0001
0000
1000
0100
1000
0000
,  // measure 68
1100
0000
1001
0000
1010
0000
0000
0101
,  // measure 69
0000
1001
0000
0011
0000
0001
1000
0000
,  // measure 70
1010
0000
1001
0000
1100
0000
0000
0011
,  // measure 71
0000
1001
0000
0101
0000
0001
1000
0000
,  // measure 72
1020
0000
0000
0130
0001
0000
2001
0000
,  // measure 73
0000
3100
0010
0000
0001
1000
0001
0000
,  // measure 74
0102
0000
0000
0013
0100
0000
2100
0000
,  // measure 75
0000
3001
0100
0000
0010
1000
0010
0000
,  // measure 76
1010
0000
0011
0000
1010
0000
0000
0101
,  // measure 77
0000
1100
0000
0101
0000
0001
1000
0000
,  // measure 78
1100
0000
0101
0000
1100
0000
0000
0011
,  // measure 79
0000
1010
0000
0011
0000
0001
1000
0000
,  // measure 80
1020
0000
0000
0130
0001
0000
2001
0000
,  // measure 81
0000
3100
0010
0000
0100
1000
0100
0000
,  // measure 82
0120
0000
0000
0031
1000
0000
1020
0000
,  // measure 83
0000
0130
0001
0000
1000
0001
1000
0000
,  // measure 84
1100
0000
0011
0000
1001
0000
0000
0101
,  // measure 85
0000
1010
0000
1001
0000
1000
0001
0000
,  // measure 86
0220
0000
0000
0000
,  // measure 87
0000
0000
0000
0000
,  // measure 88
0330
0000
0000
0000
;

//---------------dance-single - ---------------
#NOTEDATA:;
#CHARTNAME:Maybe 14;
#CHARTSTYLE:;
#CREDIT:D0omsday;
#STEPSTYPE:dance-single;
#DESCRIPTION:;
#DIFFICULTY:Challenge;
#METER:13;
#METERF:13;
#RADARVALUES:0,0,0,0,0;
#NOTES:
// measure 0
0000
0000
0000
0000
,  // measure 1
0000
0000
0000
0000
,  // measure 2
0000
0000
0000
0000
,  // measure 3
0000
0000
0000
0000
,  // measure 4
1001
0000
0000
0000
0000
0000
1000
0000
0000
0010
0000
0000
0100
0000
0000
0000
0000
0000
0001
0000
0020
0000
0000
0000
,  // measure 5
0000
0000
0130
0010
0100
0000
1000
0000
0001
0000
0001
0000
0200
0000
0000
0000
,  // measure 6
0000
0000
0310
1000
0010
0000
0100
0000
0001
0000
0000
0000
0020
0000
0000
0000
,  // measure 7
0000
0000
1030
0010
0100
1000
0010
0100
,  // measure 8
0001
0000
0000
0001
0000
0000
1000
0000
0000
1000
0000
0000
0001
0000
0000
0001
0000
0000
1000
0000
0200
0000
0000
0000
,  // measure 9
0000
0310
1000
0010
0100
1000
0020
0000
,  // measure 10
0000
0000
0130
0001
0100
0000
0001
0000
0010
0000
0000
0000
0200
0000
0000
0000
,  // measure 11
0000
0310
0001
0000
1000
0001
0100
0100
,  // measure 12
0020
0000
0000
0000
0000
0000
0000
0000
0000
0130
0000
0000
0010
0000
0000
1000
0000
0000
0001
0000
0020
0000
0000
0000
,  // measure 13
0000
0000
1030
0000
0010
0000
0100
0000
1000
0001
0000
0000
0012
0000
0000
0000
,  // measure 14
0000
0000
0103
0010
0100
0000
0010
0000
1000
0000
0100
0000
0020
0000
0000
0000
,  // measure 15
0000
1030
0010
0001
1001
0000
0000
0000
,  // measure 16
2000
3000
0000
0000
0010
0000
1000
0000
0001
0000
0000
0000
0010
0000
0000
0000
,  // measure 17
0100
0001
0100
1000
0100
0000
0010
0000
0001
0000
0000
0000
0100
0000
0010
0000
,  // measure 18
1000
0000
0001
0010
0100
0000
0010
0000
,  // measure 19
0001
0100
1000
0100
0001
0000
1000
0000
0100
0010
0001
0000
1001
1000
0010
0100
,  // measure 20
0001
0000
0001
0000
0011
0000
0010
0001
1000
0000
1000
0000
1010
0000
0010
0100
,  // measure 21
0001
0000
0001
0010
0100
0000
0100
0010
1000
0000
1000
0010
0001
1000
0000
0010
,  // measure 22
1010
0000
0110
0000
1010
0000
0000
0000
0011
0000
0110
0000
0011
0000
0001
1000
,  // measure 23
0010
0000
0000
1000
0001
0000
0000
1000
0100
0000
0000
1000
2002
0000
0000
3003
,  // measure 24
0202
0303
0022
0033
,  // measure 25
0220
0330
2200
3300
,  // measure 26
1001
0011
1001
1010
,  // measure 27
1000
0000
0001
0000
0100
0000
1000
0000
0100
0000
0001
0000
1000
0000
0000
0100
0000
0000
0001
0000
0000
0100
0000
0000
,  // measure 28
1000
0000
0010
0100
0001
0000
2001
0000
,  // measure 29
0000
0010
3010
0000
0101
0001
0010
0100
,  // measure 30
1000
0000
0010
0100
1000
0100
0001
0000
,  // measure 31
0010
0000
0100
1000
0001
0000
0100
0000
0110
0000
0010
0000
1000
0000
0000
0000
,  // measure 32
1100
0000
0100
0010
0100
1000
1020
0000
,  // measure 33
0000
0000
0100
0000
0130
0000
0000
0000
0101
0000
0001
0000
0010
0000
0100
1000
,  // measure 34
0001
0001
0100
0110
0000
0010
1000
1000
,  // measure 35
0100
0000
0110
0000
0000
0000
0010
0001
1000
0000
0010
0000
0001
0000
0010
0000
,  // measure 36
0100
0000
0001
1000
0100
0000
0120
0000
,  // measure 37
0000
0001
0031
0000
1100
1000
0010
0100
,  // measure 38
0001
0000
1000
0100
0001
0100
1000
0000
,  // measure 39
0001
0000
0100
0010
1000
0000
0001
0000
0011
0000
0010
0000
0100
0000
0000
0000
,  // measure 40
1100
0000
1000
0001
0100
0001
0021
0000
,  // measure 41
0000
0000
0100
0000
0130
0000
0000
0000
1100
0000
1000
0000
0010
0000
0100
0001
,  // measure 42
1000
1000
1100
0100
0110
0010
1000
0010
,  // measure 43
0110
0000
0000
0100
0000
0000
1100
0000
0000
1000
0000
0000
0001
0000
0100
0000
0010
0000
0001
0000
0010
0000
0100
0000
,  // measure 44
0002
0003
0000
0000
0010
0000
0100
1000
0001
0000
0100
0010
0000
0000
1000
0200
,  // measure 45
0000
0000
0310
0200
0000
0000
0301
0200
0000
0000
0310
0200
0000
0000
1300
0001
,  // measure 46
0100
0000
0110
0000
0010
0000
0000
1000
0000
1100
0000
0100
0000
0010
0001
0000
,  // measure 47
1000
0000
1010
0000
0010
0000
0000
0100
0000
0101
0000
0001
0000
1000
0100
0010
,  // measure 48
0002
0003
0000
0000
1000
0000
0010
0000
0100
0000
0000
0000
0001
0000
1000
0000
,  // measure 49
0100
0000
0000
0000
0110
0000
0000
0000
0100
0000
0000
0000
1000
0000
0001
0100
,  // measure 50
0001
0000
0100
0010
1000
0000
0001
1000
,  // measure 51
0100
0000
0000
0000
0110
0000
0000
0000
0100
0000
0000
0000
0010
0000
0001
1000
,  // measure 52
0001
0100
0010
1000
0001
0100
0010
1000
,  // measure 53
0001
1000
0001
0000
1000
0000
0100
0000
0010
0100
0010
0100
0010
0100
0010
0100
,  // measure 54
0000
0000
0000
0000
,  // measure 55
0000
0000
0000
0000
,  // measure 56
2002
0000
3003
2020
,  // measure 57
3000
0000
0130
0000
0101
0001
0010
0100
,  // measure 58
1100
0000
0000
0000
0001
0010
0100
0000
0000
0000
1000
0010
0100
0000
0000
0000
,  // measure 59
0000
0000
0000
0000
,  // measure 60
1001
0000
1000
0100
0001
0100
0120
0000
,  // measure 61
0000
0000
0001
0000
0031
0000
0000
0000
1100
0000
1000
0000
0010
0000
0100
0001
,  // measure 62
1000
1000
0100
0110
0000
0010
1000
1000
,  // measure 63
0010
0000
0011
0000
0000
0000
1000
0010
0100
0000
0010
0000
0001
0000
0010
0000
,  // measure 64
1010
0000
1000
0100
0010
0000
0120
0000
,  // measure 65
0000
0001
0031
0000
1001
1000
0010
0100
,  // measure 66
0001
0000
0010
1000
0010
0100
1000
0000
,  // measure 67
0001
0000
0100
0010
1000
0000
0001
0000
0011
0000
0010
0000
0100
0000
1000
0000
,  // measure 68
1010
0000
0010
0001
0010
1000
1002
0000
,  // measure 69
0000
0000
0100
0000
0103
0000
0000
0000
1010
0000
0010
0000
0100
0000
0001
0010
,  // measure 70
0100
0100
1100
1000
1010
0010
0001
0010
,  // measure 71
1010
0000
0000
1000
0000
0000
1001
0000
0000
0001
0000
0000
0010
0000
0100
0000
1000
0000
0010
0000
0001
0000
0010
0000
,  // measure 72
1000
0000
0000
0000
0000
0000
0001
0000
0000
0010
0000
0000
0100
0000
0000
0001
0000
0000
0100
0000
0020
0000
0000
0000
,  // measure 73
0000
0001
0031
0000
1000
0010
0100
0001
,  // measure 74
0010
0000
0100
0001
0100
1000
0010
0000
,  // measure 75
0000
0000
0100
0001
1000
0000
0100
0000
0110
0000
0010
0000
0001
0000
1000
0000
,  // measure 76
1010
0000
0010
0001
0010
1000
1002
0000
,  // measure 77
0000
0000
0100
0000
0103
0000
0000
0000
1010
0000
0010
0000
0100
0000
0001
1000
,  // measure 78
0100
0100
0001
0101
0000
0100
0010
0010
,  // measure 79
0001
0000
1001
0000
0000
0000
0100
0010
1000
0000
0100
0000
0010
0000
0001
0000
,  // measure 80
1001
0000
0000
0000
0000
0000
1000
0000
0000
0010
0000
0000
0100
0000
0000
1000
0000
0000
0100
0000
0020
0000
0000
0000
,  // measure 81
0000
1000
1030
0000
0100
0010
1000
0010
,  // measure 82
0001
0000
1000
0010
0001
0010
1000
0000
,  // measure 83
0001
0000
0010
0100
1000
0000
0010
0000
0110
0000
0100
0000
1000
0000
0100
0000
,  // measure 84
0101
0000
0001
0010
0100
1000
1020
0000
,  // measure 85
0000
0000
0100
0000
0130
0000
0000
0000
1001
0000
1000
0000
0100
0000
0001
0100
,  // measure 86
2000
0000
0000
0000
,  // measure 87
0000
0000
0000
0000
,  // measure 88
3000
0000
0000
0000
;

//---------------dance-double - ---------------
#NOTEDATA:;
#CHARTNAME:;
#CHARTSTYLE:;
#CREDIT:D0omsday;
#STEPSTYPE:dance-double;
#DESCRIPTION:;
#DIFFICULTY:Challenge;
#METER:14;
#METERF:14;
#RADARVALUES:0,0,0,0,0;
#NOTES:
// measure 0
00000000
00000000
00000000
00000000
,  // measure 1
00000000
00000000
00000000
00000000
,  // measure 2
00000000
00000000
00000000
00000000
,  // measure 3
00000000
00000000
00000000
00000000
,  // measure 4
00101000
00000000
00000000
00000000
00000000
00000000
00001000
00000000
00000000
00010000
00000000
00000000
00100000
00000000
00000000
00000000
00000000
00000000
01000000
00000000
00020000
00000000
00000000
00000000
,  // measure 5
00000000
00000000
10030000
00010000
10000000
00000000
01000000
00000000
00100000
00000000
00000000
00000000
00002000
00000000
00000000
00000000
,  // measure 6
00000000
00000000
00013000
00001000
00010000
00000000
00000100
00000000
00000010
00000000
00000000
00000000
00000002
00000000
00000000
00000000
,  // measure 7
00000000
00000000
00001003
00000001
00001000
00000000
00000010
00000000
00000100
00000000
00001000
00000000
00010000
00000000
00100000
00000000
,  // measure 8
01000000
00000000
00000000
01000000
00000000
00000000
00010000
00000000
00000000
00010000
00000000
00000000
01000000
00000000
00000000
01000000
00000000
00000000
00010000
00000000
20000000
00000000
00000000
00000000
,  // measure 9
00000000
31000000
00100000
00000000
00001000
00010000
00200000
00000000
,  // measure 10
00000000
00000000
01300000
00100000
01000000
00000000
00010000
00000000
00100000
00000000
00000000
00000000
00002000
00000000
00000000
00000000
,  // measure 11
00000000
00013000
00001000
00000000
00000100
00000001
00000010
00000100
,  // measure 12
00001000
00000000
00000000
00000000
00000000
00000000
00000001
00000000
00000000
00001000
00000000
00000000
00000010
00000000
00000000
00000000
00000000
00000000
00010000
00000000
00002000
00000000
00000000
00000000
,  // measure 13
00000000
00000000
00003100
00000000
00000010
00000000
00010000
00000000
00001000
00100000
00000000
00000000
00020000
00000000
00000000
00000000
,  // measure 14
00000000
00000000
01030000
00010000
01000000
00000000
00001000
00000000
00010000
00000000
00000000
00000000
00000200
00000000
00000000
00000000
,  // measure 15
00000000
00000310
00000100
00010000
00011000
00000000
00000000
00000000
,  // measure 16
00002000
00003000
00000000
00000000
01000000
00000000
00100000
00000000
10000000
00000000
00000000
00000000
00010000
00000000
00000000
00000000
,  // measure 17
00100000
00001000
00010000
00000100
00001000
00000000
00000001
00000000
00000100
00000000
00000000
00000000
00000010
00000000
00010000
00000000
,  // measure 18
00001000
00000000
00000010
00000100
00001000
00000000
00000010
00000000
,  // measure 19
00000100
00000001
00001000
00000100
00010000
00000000
00001000
00000000
01000000
00100000
10000000
00000000
10010000
00000000
10000000
01000000
,  // measure 20
00100000
00000000
00100000
00000000
00101000
00000000
00001000
00010000
00000010
00000000
00000010
00000000
00000110
00000000
00000100
00000001
,  // measure 21
00001000
00000000
00000100
00010000
00001000
00000000
01000000
00010000
10000000
00000000
01000000
00100000
00001000
00010000
00000000
00000010
,  // measure 22
00001010
00000000
00010010
00000000
00001010
00000000
00010000
00001000
00101000
00000000
00110000
00000000
00101000
00000000
00001000
01000000
,  // measure 23
00010000
00000000
10000000
00000000
01000000
00000000
00010000
00000000
00001000
00000010
00000000
00000001
00002000
00000000
00000000
00003000
,  // measure 24
00002020
00003030
00020200
00030300
,  // measure 25
00202000
00303000
02020000
03030000
,  // measure 26
20000000
32000000
03020000
00032000
,  // measure 27
00103000
00000000
00001000
00000000
00010000
00000000
00000100
00000000
00001000
00000000
00000001
00000000
00000100
00000000
00000000
00001000
00000000
00000000
00010000
00000000
00000000
00001000
00000000
00000000
,  // measure 28
00000010
00000000
00000100
00010000
00001000
00000000
02001000
00000000
,  // measure 29
00000000
00100000
03100000
00000000
10000000
00010000
00000000
00100000
,  // measure 30
01000000
00000000
00010000
00001000
00100000
00010000
01000000
00000000
,  // measure 31
00001000
00000000
00010000
00000100
00001000
00000000
00000001
00000000
00000010
00000000
00000100
00000000
00000000
00000000
00001000
00000000
,  // measure 32
00000010
00000000
00010000
00000000
00100000
00000000
00000000
01000000
,  // measure 33
00000000
00001000
00000000
00000100
00000000
00000001
00001000
00000000
,  // measure 34
00000100
00000000
00010000
00000000
01000000
00000000
00000000
00100000
,  // measure 35
00000000
00001000
00000000
00000010
00000000
00000001
00001000
00000000
,  // measure 36
00000100
00000000
00010000
00001000
01000000
00000000
02010000
00000000
,  // measure 37
00000000
00001000
03001000
00000000
00010000
00000010
00000000
00001000
,  // measure 38
00000001
00000000
00000010
00000100
00001000
00000010
00010000
00000000
,  // measure 39
00000100
00000000
00010000
00001000
01000000
00000000
00010000
00000000
10000000
00000000
01000000
00000000
00000000
00000000
00100000
00000000
,  // measure 40
01000000
00000000
00010000
00000000
00000100
00000000
00000000
00000010
,  // measure 41
00000000
00001000
00000000
00100000
00000000
00010000
10000000
00000000
,  // measure 42
00100000
00000000
00010000
00000000
00000010
00000000
00000000
00000100
,  // measure 43
00000000
00000000
00000000
00001000
00000000
00000000
00000000
00000000
00000000
01000000
00000000
00000000
00010000
00000000
01000000
00000000
00100000
00000000
10000000
00000000
00010000
00000000
00100000
00000000
,  // measure 44
02000000
03000000
00000000
00000000
00100000
00000000
00010000
00100000
00001000
00000000
00010000
00000010
00000000
00000000
00001000
00020000
,  // measure 45
00000000
00000000
01030000
00020000
00000000
00000000
10030000
00020000
00000000
00000000
00130000
00020000
00000000
00000000
00031000
00010000
,  // measure 46
00100000
00000000
00101000
00000000
00001000
00000000
00000000
00010000
00000000
00010010
00000000
00000010
00000000
00001000
00000001
00000000
,  // measure 47
00000010
00000000
00000110
00000000
00000100
00000000
00000000
00010000
00000000
00011000
00000000
00001000
00000000
01000000
00010000
00000000
,  // measure 48
10000000
00000000
01000000
00100000
00010000
00000000
01000000
00001000
,  // measure 49
00010000
00000000
00000000
00000000
00011000
00000000
00000000
00000000
00001000
00000000
00000000
00000000
00100000
00000000
00001000
00010000
,  // measure 50
00001000
00000000
01000000
00010000
00100000
00000000
00001000
00010000
,  // measure 51
00000010
00000000
00000000
00000000
00001010
00000000
00000000
00000000
00001000
00000000
00000000
00000000
00000001
00000000
00000010
00000100
,  // measure 52
00000010
00000100
00001000
00000010
,  // measure 53
00000100
00000000
00000001
00000000
00001000
00000000
00000100
00000000
00010000
00001000
00010000
00001000
00010000
00001000
00010000
00001000
,  // measure 54
00000000
00000000
00000000
00000000
,  // measure 55
00000000
00000000
00000000
00000000
,  // measure 56
20020000
00000000
30030000
00022000
00000000
00033000
00002002
00000000
,  // measure 57
00003003
00022000
00000000
00033000
00001000
00010000
00100000
01000000
,  // measure 58
00010000
00000000
00000000
00000000
00100000
00001000
00010000
00000000
00000000
00000000
01000000
10000000
00100000
00000000
00000000
00000000
,  // measure 59
00000000
00000000
00000000
00000000
,  // measure 60
00000021
00000000
00001030
00000000
00100000
00000000
00000000
01000000
,  // measure 61
00000000
00010000
00000000
00000100
00000000
00001000
00000001
00000000
,  // measure 62
00000100
00000000
00001000
00000000
01000000
00000000
00000000
00100000
,  // measure 63
00000000
00010000
00000000
00000010
00000000
00001000
00000001
00000000
,  // measure 64
00000010
00000000
00001000
00010000
00000100
00000000
00001200
00000000
,  // measure 65
00000000
00010000
00010300
00000000
00001000
00100000
00000000
00010000
,  // measure 66
01000000
00000000
00001000
00010000
00000010
00001000
00000001
00000000
,  // measure 67
00001000
00000000
00000100
00010000
00001000
00000000
00100000
00000000
00001000
00000000
00010000
00000000
00000000
00000000
01000000
00000000
,  // measure 68
00100000
00000000
00001000
00000000
00000010
00000000
00000000
00000100
,  // measure 69
00000000
00010000
00000000
01000000
00000000
10000000
00010000
00000000
,  // measure 70
01000000
00000000
00001000
00000000
00000100
00000000
00000000
00000010
,  // measure 71
00000000
00000000
00000000
00010000
00000000
00000000
00000000
00000000
00000000
00100000
00000000
00000000
01000000
00000000
00010000
00000000
00100000
00000000
01000000
00000000
00010000
00000000
00001000
00000000
,  // measure 72
00100000
00000000
00000000
00000000
00000000
00000000
00001000
00000000
00000000
00010000
00000000
00000000
00000100
00000000
00000000
00000000
00000000
00000000
00000010
00000000
00000002
00000000
00000000
00000000
,  // measure 73
00000000
00000100
00000103
00000000
00000010
00001000
00000100
00000000
,  // measure 74
00010000
00000000
00001000
00000000
01000000
00010000
00100000
00000000
,  // measure 75
01000000
00000000
10000000
00010000
01000000
00000000
00001000
00000000
00010000
00000000
00100000
00000000
00000000
00000000
10000000
00000000
,  // measure 76
01000000
00000000
00010000
00000000
00000010
00000000
00000000
00000100
,  // measure 77
00000000
00001000
00000000
00100000
00000000
00010000
10000000
00000000
,  // measure 78
00100000
00000000
00010000
00000000
00000100
00000000
00000000
00000010
,  // measure 79
00000000
00001000
00000000
01000000
00000000
00010000
10000000
00100000
,  // measure 80
01000000
00000000
00000000
00000000
00000000
00000000
00001000
00000000
00000000
00010000
00000000
00000000
00000100
00000000
00000000
00000000
00000000
00000000
00000010
00000000
00000200
00000000
00000000
00000000
,  // measure 81
00000000
00010000
00010300
00000000
00001000
01000000
00100000
00000000
,  // measure 82
00010000
00000000
00001000
00000000
00000100
00000001
00000010
00000000
,  // measure 83
00000100
00000000
00001000
00000001
00000010
00000000
00000100
00000000
00010000
00000000
00001000
00000000
00000000
00000000
00000100
00000000
,  // measure 84
00000010
00000000
00010000
00000000
01000000
00000000
00000000
00100000
,  // measure 85
00000000
00000000
00001000
00000000
00000000
00000000
00000100
00000000
00000000
00000000
00000001
00000000
00001000
00000000
00000100
00010000
,  // measure 86
00002000
00000000
00000000
00000000
,  // measure 87
00000000
00000000
00000000
00000000
,  // measure 88
00003000
00000000
00000000
00000000
;
