#VERSION:0.83;
#TITLE:Mermaid;
#SUBTITLE:(DJ HIBIKI Delaction Remix);
#ARTIST:TSUKASA;
#TITLETRANSLIT:;
#SUBTITLETRANSLIT:;
#ARTISTTRANSLIT:;
#GENRE:;
#CREDIT:valgrind;
#MUSIC:mermaid.ogg;
#BANNER:mermaid-bn.png;
#BACKGROUND:mermaid-bg.png;
#CDTITLE:cdtitle.png;
#SAMPLESTART:43.637;
#SAMPLELENGTH:13.427;
#SELECTABLE:YES;
#OFFSET:-0.001;
#BPMS:0.000=143.000;
#STOPS:;
#BGCHANGES:;
#FGCHANGES:;

//--------------- dance-single - No Tech ----------------
#NOTEDATA:;
#STEPSTYPE:dance-single;
#DESCRIPTION:No Tech;
#DIFFICULTY:Medium;
#METER:11;
#RADARVALUES:0,0,0,0,0;
#CREDIT:valgrind | 11+ |;
#NOTES:
0000
0000
0000
0000
,
0000
0000
0000
0000
,
0000
0000
0000
0000
,
0000
0000
0000
0000
,
0000
0000
0000
0000
,
0000
0000
0000
0000
,
1000
0000
0001
0000
0100
0100
0100
0000
,
0001
0000
1000
0000
0100
0100
0100
0000
,
1000
0000
0001
0000
0010
0010
0010
0000
,
0220
0000
0000
0330
,
0001
0000
0010
0000
0001
0000
0000
0000
0100
0000
0000
0010
0000
0000
1000
0000
,
0001
0000
0100
0000
0001
0000
0000
0000
0010
0000
0000
0100
0000
0000
1000
0000
,
0001
0000
0010
0000
0001
0000
0100
0000
0010
0000
0000
1000
0000
0000
0001
0000
,
0020
0030
0200
0300
1000
0001
1001
0000
,
1000
0000
0100
0000
1000
0000
0000
0000
0010
0000
0000
0100
0000
0000
0001
0000
,
1000
0000
0010
0000
1000
0000
0000
0000
0100
0000
0000
0010
0000
0000
0001
0000
,
1000
0000
0100
0000
1000
0000
0010
0000
0100
0000
0000
0001
0000
0000
1000
0000
,
0200
0300
0020
0030
0001
1000
1001
0000
,
0001
1000
0010
1000
0200
0000
0310
0000
,
0001
1000
0100
1000
0020
0000
0130
0000
,
0002
0000
0023
0230
,
2300
0000
0000
3001
0002
0000
0003
0000
,
1000
0001
0100
0001
0020
0000
0130
0000
,
1000
0001
0010
0001
0200
0000
0310
0000
,
2000
0000
3200
0320
,
0032
0000
0000
1003
2000
0000
3000
0000
,
0001
0000
0100
0000
0010
0000
1000
0000
0100
0000
0000
0010
0000
0000
0001
0000
,
1000
0000
0100
0000
0010
0000
0001
0000
0100
0000
0000
0010
0000
0000
1000
0000
,
0002
0000
0023
0230
,
2300
0000
0000
3001
0002
0000
0003
0000
,
1000
0000
0010
0000
0100
0000
0001
0000
0010
0000
0000
0100
0000
0000
1000
0000
,
0001
0000
0010
0000
0100
0000
1000
0000
0010
0000
0000
0100
0000
0000
0001
0000
,
2000
0000
3200
0320
,
0032
0000
0000
1003
2000
0000
3000
0000
,
0220
0000
0000
0000
,
0330
0000
0000
0000
,
0001
0000
0000
0100
0000
0000
0001
0000
1000
0000
0100
0000
1000
0000
0000
0000
,
0001
0010
0001
0100
0010
0000
1000
0000
,
1001
0000
0001
0000
0010
0100
0110
0000
,
1001
0000
1000
0010
0100
0100
0110
0000
,
1000
0000
0000
0010
0000
0000
1000
0000
0001
0000
0010
0000
0001
0000
0000
0000
,
1000
0100
1000
0010
0100
0000
0001
0000
,
1002
0000
1003
0100
0120
0000
0031
1000
,
0100
0000
0000
0010
0000
0000
0001
0000
0000
1000
0000
0000
0010
0000
0000
0000
,
1000
0000
0000
0100
0000
0000
1000
0000
0001
0000
0010
0000
0001
0000
0000
0000
,
0100
0010
1000
0100
0010
0000
0001
0000
,
1001
0000
1000
0000
0001
0100
0110
0000
,
1001
0000
0001
0010
0100
0100
0110
0000
,
0001
0000
0000
0100
0000
0000
0001
0000
1000
0000
0010
0000
1000
0000
0000
0000
,
0100
0010
0001
0100
0010
0000
1000
0000
,
1001
0000
0001
0100
0120
0000
1030
0001
,
0010
0000
0000
0100
0000
0000
1000
0000
0000
0001
0000
0000
0100
0000
0000
0000
,
0002
0003
2000
3000
,
0200
0000
0000
0000
0000
0000
0000
0000
0000
0000
0000
0000
0000
0000
0000
0300
,
1000
0100
1000
0000
0001
0010
0001
0000
,
1000
0010
1000
0000
0001
0100
0001
0000
,
0020
0000
0000
0030
,
0002
0000
0003
0000
,
1000
0000
0000
0010
0000
0000
1000
0000
0001
0000
0010
0000
0100
0000
1000
0000
,
0001
0100
0001
0010
0100
1000
0001
0000
,
1000
0010
0100
0010
1000
0100
0010
0000
,
0001
0010
0001
0100
0010
1000
0001
0000
,
1000
0000
0000
0100
0000
0000
1000
0000
0001
0000
0100
0000
0010
0000
1000
0000
,
0001
0010
0001
0100
0010
1000
0001
0000
,
1000
0000
0010
0100
0010
0000
1000
0000
0100
0000
0010
0001
0010
0000
0100
0000
,
0010
0000
0000
0001
0000
0000
0100
0000
0000
0001
0000
0000
1000
0000
0000
0000
,
0001
0000
0000
0010
0000
0000
0001
0000
0100
0000
0010
0000
1000
0000
0001
0000
,
0010
0100
1000
0010
0100
0001
1000
0000
,
0001
1000
0100
0010
0001
0100
0001
0000
,
1000
0010
1000
0100
0010
0001
0010
0000
,
0001
0000
0000
0100
0000
0000
0001
0000
0010
0000
0100
0000
1000
0000
0001
0000
,
0100
0010
1000
0100
0010
0001
1000
0000
,
0001
0000
0100
0010
0100
0000
0001
0000
0010
0000
0100
1000
0100
0000
0010
0000
,
0100
0000
0000
1000
0000
0000
0010
0000
0000
1000
0000
0000
0001
0000
0000
0000
,
2002
0000
0000
0000
,
3003
0000
0000
0000
;

//--------------- dance-single - GA XO ----------------
#NOTEDATA:;
#STEPSTYPE:dance-single;
#DESCRIPTION:GA XO;
#DIFFICULTY:Hard;
#METER:15;
#RADARVALUES:0,0,0,0,0;
#CREDIT:valgrind | 15- |;
#CHARTNAME:mermaybe a 14;
#NOTES:
0000
0000
0000
0000
,
0000
0000
0000
0000
,
0000
0000
0000
0000
,
0000
0000
0000
0000
,
0000
0000
0000
0000
,
0000
0000
0000
0000
,
1000
0000
0000
0100
0000
0000
0010
0000
0001
0000
0001
0000
2000
0000
0000
0000
,
3001
0000
0000
0100
0000
0000
0010
0000
1000
0000
1000
0000
0002
0000
0000
0000
,
0013
0000
0000
0100
0000
0000
1000
0000
0001
0000
0001
0000
0200
0000
0300
0000
,
0220
0000
0000
0330
,
0001
0000
1000
0000
0010
0000
1000
0000
0100
0000
0000
0010
0000
0000
0100
0000
,
1000
0000
0001
0000
0010
0000
0001
0000
0100
0000
0000
0010
0000
0000
1000
0000
,
0001
0000
0100
0000
0001
0000
0010
0000
0100
0000
0000
1000
0000
0000
0001
0000
,
0100
0000
0010
1000
0001
0000
0010
0000
0110
0000
1100
0000
1002
0000
0000
0000
,
1003
0000
0001
0000
0010
0000
0001
0000
0100
0000
0000
0010
0000
0000
0100
0000
,
0001
0000
1000
0000
0010
0000
1000
0000
0100
0000
0000
0010
0000
0000
0001
0000
,
1000
0000
0100
0000
1000
0000
0010
0000
0100
0000
0000
0001
0000
0000
1000
0000
,
0100
0000
0010
0001
1000
0000
0010
0000
0110
0000
0101
0000
2001
0000
0000
0000
,
3001
0000
0010
0000
0100
0000
1000
0000
0010
0000
0100
0001
0000
0001
0100
0010
,
1000
0000
0010
0000
0100
0000
0001
0000
0010
0000
0100
1000
0000
1000
0001
1000
,
0020
0000
0130
0001
0020
0000
0230
0000
,
2300
0000
0000
0000
3001
0000
0100
0010
0200
0000
0000
0000
0301
0000
0000
0000
,
1000
0000
0100
0000
0010
0000
0001
0000
0100
0000
0010
1000
0000
1000
0010
0100
,
0001
0000
0100
0000
0010
0000
1000
0000
0100
0000
0010
0001
0000
0001
1000
0001
,
0200
0000
0310
1000
0200
0000
0320
0000
,
0032
0000
0000
0000
1003
0000
0010
0100
0020
0000
0000
0000
1030
0000
0000
0000
,
0001
0000
0100
0000
0010
0000
1000
0001
0010
0000
0100
1000
0000
0001
0100
0000
,
0001
0000
0010
0000
0100
0000
1000
0001
0100
0000
0010
1000
0000
0001
0010
0000
,
0200
0000
1300
0010
0200
0000
0302
0000
,
0023
0000
0000
0000
0031
0000
1000
0010
0100
0000
0101
0000
1002
0000
0000
0000
,
1003
0000
0100
0000
0010
0000
0001
1000
0010
0000
0100
0001
0000
1000
0100
0000
,
1000
0000
0010
0000
0100
0000
0001
1000
0100
0000
0010
0001
0000
1000
0010
0000
,
0200
0000
0302
0023
,
0230
0000
0000
0000
0000
0300
1000
0001
2000
0000
0000
0000
3000
0000
0000
0000
,
0220
0000
0000
0000
,
0330
0000
0000
0000
,
1000
0000
0000
0100
0000
0000
1000
0000
0010
0000
0100
0000
0001
0000
1000
0000
,
0100
0010
0001
0100
0010
1000
0001
0000
,
1000
0000
0001
0010
0001
0000
1000
0000
0010
0000
0110
0000
0110
0000
0000
0000
,
0001
0100
0001
0000
1000
0000
0100
0010
0100
0000
0110
0000
1002
0000
0000
0000
,
1003
0000
0000
0010
0000
0000
1000
0000
0100
0000
0010
0000
0001
0000
1000
0000
,
0010
0100
0001
0010
0100
1000
0001
0000
,
1000
0000
0010
1000
0010
0000
0100
0000
0002
0000
0013
0100
1000
0000
0001
0000
,
0100
0010
0000
0010
1000
0000
1000
0001
0000
0001
0010
0100
1000
0000
0000
0000
,
0010
0000
0000
0100
0000
0000
0001
0000
0010
0000
0001
0000
1000
0000
0100
0000
,
1000
0010
0100
1000
0100
0010
2000
0000
,
3001
0000
0100
0010
1000
0000
0001
0000
0010
0000
0110
0000
0110
0000
0000
0000
,
1000
0100
0010
0000
0001
0000
0100
0010
0100
0000
0110
0000
2001
0000
0000
0000
,
3100
0000
0000
0010
0000
0000
0001
0000
0100
0000
0001
0000
1000
0000
0010
0000
,
1000
0100
0010
1000
0010
0100
2000
0000
,
3001
0000
0010
0001
0010
0000
0100
0000
2000
0000
3010
0100
0001
0000
1000
0000
,
0100
0010
0000
0010
0001
0000
0001
1000
0000
1000
0010
0100
0001
0000
0000
0000
,
1000
0100
0020
0000
0031
0100
0020
0000
,
0030
1000
0010
1000
0000
0010
0100
0010
0000
0100
0001
0100
0000
0001
1000
0001
,
0010
0100
0010
0100
1000
0001
1000
0001
,
0100
0100
0010
0010
1000
1000
0001
0001
,
1000
0100
1000
0100
1000
0100
1000
0100
0010
0001
0010
0001
0010
0001
0010
0001
,
2000
0000
3000
0000
,
0001
0000
1000
0100
0000
1000
0001
0000
0100
0000
0010
0000
1000
0000
0001
0000
,
0010
0100
1000
0100
1000
0000
0020
0000
0130
0000
0001
0000
1000
0000
0000
0000
,
0001
0000
0010
0001
0010
0000
0100
1000
0001
0000
0100
0000
0010
0000
0000
0000
,
0100
0001
1000
0000
0010
0000
1000
0100
0010
0000
0001
0000
2000
0000
0000
0000
,
3001
0000
1000
0010
0000
1000
0001
0000
0010
0000
0100
0000
1000
0000
0001
0000
,
0100
0010
1000
0010
1000
0000
0200
0000
0310
0000
0001
0000
1000
0000
0000
0000
,
0001
0000
0010
0001
0010
0000
0100
1000
0020
0000
0130
0001
0100
0000
0001
1000
,
0100
0010
0000
0010
0001
0000
0001
0100
0000
0100
0010
1000
0001
0000
0000
0000
,
1000
0000
0100
0010
0000
0100
1000
0000
0001
0000
0100
0000
0010
0000
0100
0000
,
0001
1000
0100
0010
0100
0000
0002
0000
0103
0000
0010
0000
0001
0000
0000
0000
,
1000
0000
0100
1000
0100
0000
1000
0001
0010
0000
0001
0000
0100
0000
0000
0000
,
0010
1000
0001
0000
0100
0000
0001
0010
0100
0000
0010
0000
0002
0000
0000
0000
,
1003
0000
0010
0100
0000
0010
1000
0000
0001
0000
0010
0000
0100
0000
0010
0000
,
0001
1000
0010
0100
0010
0000
0002
0000
0013
0000
0100
0000
0001
0000
0000
0000
,
1000
0000
0010
0000
0100
0001
0100
0001
0020
0000
0130
0000
1000
0001
1000
0001
,
0100
0010
0000
0010
1000
0000
1000
0100
0000
0100
0010
0001
1000
0000
0000
0000
,
2002
0000
0000
0000
,
3003
0000
0000
0000
;

//--------------- dance-single - GA XO ----------------
#NOTEDATA:;
#STEPSTYPE:dance-single;
#DESCRIPTION:GA XO;
#DIFFICULTY:Challenge;
#METER:16;
#RADARVALUES:0,0,0,0,0;
#CREDIT:valgrind | 16 |;
#CHARTNAME:delaction longer than 4 hours;
#NOTES:
0000
0000
0000
0000
,
0000
0000
0000
0000
,
0000
0000
0000
0000
,
0000
0000
0000
0000
,
0000
0000
0000
0000
,
0000
0000
0000
0000
,
2000
0000
0000
0010
0000
0000
3001
0000
0010
0100
0010
0100
2000
0000
0000
0000
,
3002
0000
0000
0010
0000
0000
1003
0000
0010
0100
0010
0100
0002
0000
0000
0000
,
2003
0000
0000
0100
0000
0000
3001
0000
0100
0010
0100
0010
2000
0000
3000
0000
,
0220
0000
0000
0330
,
0001
0000
1000
0000
0100
0000
0010
0100
0001
0000
0100
0010
0000
0010
0001
0000
,
1000
0000
0001
0000
0100
0000
0010
0100
1000
0000
0100
0010
0000
0010
1000
0000
,
0001
0000
1000
0000
0100
0000
0001
0000
0100
0000
0010
0001
0000
0001
1000
0000
,
0100
0000
0010
0001
0100
0000
0010
0000
0110
0000
1010
0000
2001
0000
0000
3000
,
0001
0000
1000
0000
0010
0000
0100
0010
0001
0000
0010
0100
0000
0100
0001
0000
,
1000
0000
0001
0000
0010
0000
0100
0010
1000
0000
0010
0100
0000
0100
1000
0000
,
0001
0000
1000
0000
0010
0000
0001
0000
0010
0000
0100
0001
0000
0001
1000
0000
,
0010
0000
0100
0001
0010
0000
0100
0000
0110
0000
1100
0000
2001
0000
0000
3000
,
0100
0000
1000
0100
0000
0010
1000
0010
0100
0000
0010
0001
0000
0001
1000
0010
,
0100
0000
0001
0100
0000
0010
0001
0010
0100
0000
0010
1000
0000
1000
0001
0010
,
0200
0000
0310
0000
0001
0000
1000
0000
0020
0000
0130
0001
2000
0000
3100
0010
,
0001
0000
1000
0000
0010
0000
1000
0100
0010
0000
0100
0000
2000
0000
0000
0000
,
3010
0000
1000
0010
0000
0100
1000
0100
0010
0000
0100
0001
0000
0001
1000
0100
,
0010
0000
0001
0010
0000
0100
0001
0100
0010
0000
0100
1000
0000
1000
0001
0100
,
0020
0000
0130
0000
0001
0000
1000
0000
0200
0000
0310
0001
2000
0000
3010
0100
,
0001
0000
1000
0000
0100
0000
1000
0010
0100
0000
0010
0000
2000
0000
0000
0000
,
3100
0000
1000
0000
0001
0000
0010
0100
0001
0000
0100
1000
0000
1000
0001
0000
,
0100
0000
0001
0000
1000
0000
0010
0100
1000
0000
0100
0001
0000
0001
1000
0000
,
0010
0000
1000
0000
0100
0000
0001
0000
0100
0000
0010
0001
0000
0001
0100
0000
,
0010
0000
0100
0001
0010
0000
0100
0000
0110
0000
1100
0000
1002
0000
0000
0000
,
0013
0000
0001
0000
1000
0000
0100
0010
1000
0000
0010
0001
0000
0001
1000
0000
,
0010
0000
1000
0000
0001
0000
0100
0010
0001
0000
0010
1000
0000
1000
0001
0000
,
0200
0000
0302
0023
,
0230
0000
0000
0000
0000
0300
1000
0001
2000
0000
0000
0000
3000
0000
0000
0000
,
0220
0000
0000
0000
,
0330
0000
0000
0000
,
1000
0000
0001
0100
0000
0001
1000
0000
0100
0000
0010
0000
0001
0000
0010
0000
,
0100
1000
0001
0100
0010
0000
0002
0000
0013
0000
0100
0000
0001
0000
0000
0000
,
2000
0000
3001
0010
0100
0010
0001
1000
0010
0100
0010
0000
0210
0000
0000
0000
,
0301
1000
0010
0000
0100
0000
0001
0010
0100
0000
0110
0000
1002
0000
0000
0000
,
1003
0000
0001
0010
0000
0001
1000
0000
0010
0000
0100
0000
0001
0000
0100
0000
,
0010
1000
0001
0010
0100
0000
0002
0000
0103
0000
0010
0000
0001
0000
0000
0000
,
2000
0000
3010
0100
0001
0100
0010
1000
0200
0000
0310
0001
1000
0001
0100
0010
,
1000
0100
0000
0100
0010
0000
0010
1000
0000
1000
0010
0100
2000
0000
0000
0000
,
3001
0000
0100
0010
0000
0100
0001
0000
1000
0000
0100
0000
0010
0000
0100
0000
,
1000
0010
0100
0001
0100
0000
2000
0000
3100
0000
0001
0000
0020
0000
0000
0000
,
0031
0000
1000
0100
1000
0001
0010
0001
0100
0010
0100
0000
0120
0000
0000
0000
,
1030
0001
0100
0000
0010
0000
1000
0100
0010
0000
0110
0000
2001
0000
0000
0000
,
3001
0000
0010
0100
0000
0010
0001
0000
1000
0000
0010
0000
0100
0000
0010
0000
,
1000
0100
0010
0001
0010
0000
2000
0000
3010
0000
0001
0000
0200
0000
0000
0000
,
0301
0000
1000
0010
1000
0001
0100
0001
0010
0000
0001
0010
0001
1000
0100
0010
,
0001
0100
0000
0100
0010
0000
0010
0001
0000
0001
0010
1000
0002
0000
0103
0000
,
0001
0010
0001
1000
0100
0000
0100
0000
1000
0010
1000
0001
0100
0000
0100
0000
,
0001
0010
0100
1000
0000
0010
0100
0001
0000
0010
0100
1000
0000
0010
0100
0001
,
1000
0100
1000
0001
0010
0100
0010
0001
1000
0010
0100
0010
1000
0001
0100
0001
,
1000
0100
1000
0001
1000
0010
0100
0001
0010
0001
1000
0001
0100
0010
1000
0100
,
4000
0010
0000
3010
0400
0001
0000
0301
4000
0100
0000
3100
0040
0001
0000
0031
,
2000
0000
3000
0000
,
0001
0000
1000
0100
0000
1000
0001
0000
0100
0000
0010
0000
0001
0000
0010
0000
,
0100
0001
1000
0001
0010
0000
2000
0000
3010
0000
0100
0000
1000
0000
0000
0000
,
0002
0000
1003
0010
0100
0001
1000
0100
0010
0100
0001
0000
0200
0000
0000
0000
,
0310
0001
1000
0000
0010
0000
0100
1000
0100
0000
0010
0000
2000
0000
0000
0000
,
3001
0000
1000
0010
0000
1000
0001
0000
0010
0000
0100
0000
0001
0000
0100
0000
,
0010
0001
1000
0001
0100
0000
2000
0000
3100
0000
0010
0000
1000
0000
0000
0000
,
0002
0000
1003
0100
0010
0001
1000
0010
0002
0000
0013
0100
0001
1000
0010
1000
,
0100
0010
0000
0010
1000
0000
1000
0001
0000
0001
0100
0010
0002
0000
0000
0000
,
0103
0000
0010
0001
0000
0010
0100
0000
0001
0000
1000
0000
0100
0000
0010
0000
,
1000
0010
0001
0010
0100
0000
0002
0000
0103
0000
1000
0000
0020
0000
0000
0000
,
1030
0000
0001
0010
0100
1000
0001
1000
0100
0010
1000
0000
0020
0000
0000
0000
,
0031
1000
0010
0000
0002
0000
1003
0100
0010
0000
0100
0000
0002
0000
0000
0000
,
0013
0000
0100
0001
0000
0100
0010
0000
0001
0000
1000
0000
0010
0000
0100
0000
,
1000
0100
0001
0100
0010
0000
0002
0000
0013
0000
1000
0000
0200
0000
0000
0000
,
1300
0000
0100
1000
0010
0100
0001
0100
2000
0000
3100
0010
1000
0001
0100
0001
,
0010
0100
0000
0100
0001
0000
0001
1000
0000
1000
0010
0001
1000
0000
0000
0000
,
2002
0000
0000
0000
,
3003
0000
0000
0000
;
