#VERSION:0.83;
#TITLE:Maritare!;
#SUBTITLE:;
#ARTIST:Waldeus von Dövjak;
#TITLETRANSLIT:;
#SUBTITLETRANSLIT:;
#ARTISTTRANSLIT:;
#GENRE:CLASSIC 6;
#CREDIT:;
#MUSIC:Maritare!.ogg;
#BANNER:Maritare!.png;
#BACKGROUND:Maritare!-bg.png;
#CDTITLE:;
#SAMPLESTART:32.518;
#SAMPLELENGTH:11.962;
#SELECTABLE:YES;
#OFFSET:-1.118;
#BPMS:0.000=160.510;
#STOPS:;
#SPEEDS:0.000=1.000=0.000=0,
52.000=0.500=4.000=0,
72.000=1.000=3.000=0,
236.000=0.500=0.000=0
;
#DISPLAYBPM:160.000;
#JACKET:Maritare!-jacket.png;
#BGCHANGES:;
#FGCHANGES:;

//--------------- dance-single - ----------------
#NOTEDATA:;
#STEPSTYPE:dance-single;
#CREDIT:Kikoia;
#DESCRIPTION:;
#DIFFICULTY:Medium;
#METER:10;
#RADARVALUES:0,0,0,0,0;
#NOTES:
0000
0000
0000
0000
,
0000
0000
0000
0000
,
0000
0000
0000
0000
,
0000
0000
0000
0000
,
0000
0000
0000
0000
,
1000
1000
0020
0030
,
1000
0001
0010
0002
,
0100
2003
0100
3001
,
0100
0010
2000
0000
3000
0000
0002
0000
,
0010
2003
0010
3001
,
0010
0100
1000
0000
0001
0100
0001
0100
,
0020
0000
0030
0000
1000
0100
1000
0100
,
0010
0000
0110
0000
,
1001
0000
0000
0000
,
0000
0000
0000
0000
,
1000
1000
0100
0100
,
0001
0001
0020
0000
,
0031
0001
0100
0100
,
1000
1000
0020
0000
,
1030
0001
1000
0000
0001
0100
0001
0000
,
1000
1000
0100
0010
0001
0000
MMMM
0000
,
0000
0000
0000
0000
,
0000
0000
0000
0000
,
0000
0000
0000
0000
,
0000
0000
0000
0010
,
1000
0001
0100
0000
0001
0000
1000
0000
,
0100
0000
0010
0000
0001
0000
0000
0000
1000
0001
0000
0000
0001
0100
0000
0000
,
0001
1000
0010
0000
1000
0000
0001
0000
,
0010
0000
0000
0000
0100
1000
0000
0000
1000
0001
0000
0000
1002
0000
0000
0000
,
0023
0000
0000
0000
,
0230
0000
2300
0000
3010
0100
0020
0000
,
2030
0000
3200
0000
0301
0100
2000
0000
,
3002
0000
0203
0000
1300
0100
0002
0000
,
1003
0010
0200
0000
0301
1000
0001
1000
,
0001
0000
0000
0000
,
1001
1001
2002
3003
,
2000
0000
0000
0000
3100
0000
0000
0010
0002
0000
0000
0000
0000
0000
0000
0000
,
2003
0000
0000
3010
0200
0000
0001
0000
,
0302
1003
2002
0000
,
3003
0000
0220
0000
,
0000
0000
0000
0330
,
0001
1000
0001
1000
0100
0000
0100
0010
,
0001
0000
0000
0200
0000
0000
0000
0000
,
0000
0020
0000
0000
0000
0000
0000
0000
,
0000
0000
0330
0000
,
1000
1000
1000
0000
0001
0001
0001
0000
,
0010
0100
0010
0000
0100
0100
0110
0000
,
1000
0000
0000
0100
0010
0000
0000
0000
0010
0000
0000
0001
1000
0000
0000
0000
,
0001
0000
0000
0100
0010
0000
0000
0000
0010
0000
0000
1000
0002
0000
0000
0000
,
0023
2030
3020
0032
,
2003
0000
0000
0000
3010
0000
0000
0010
0100
0000
0000
0000
1001
0000
0000
0000
,
0000
0000
0000
0000
,
0000
0000
0000
0000
,
0002
0003
0002
0003
,
0002
0000
0003
0002
,
2003
3200
0302
0203
,
1300
0000
0000
0000
1001
0000
0000
0001
,
0100
0010
1000
0000
0100
0010
0001
0000
,
1000
0010
1000
0010
0001
0010
0001
0010
,
1000
0000
0000
0000
,
0000
1001
0000
0000
;

//--------------- dance-single - ----------------
#NOTEDATA:;
#STEPSTYPE:dance-single;
#CREDIT:Kikoia;
#DESCRIPTION:;
#DIFFICULTY:Hard;
#METER:14;
#RADARVALUES:0,0,0,0,0;
#NOTES:
0000
0000
0000
0000
,
0000
0000
0000
0000
,
0000
0000
0000
0000
,
0000
0000
0000
0000
,
0000
0000
0000
0000
,
1000
0001
0010
0001
1000
0001
0100
0001
,
1000
0000
0000
0000
0010
0000
0000
0000
0100
0000
0000
0000
0001
0000
0000
0000
0010
0000
0000
0000
0100
0000
0000
0000
0020
0030
0000
0000
0000
0000
0001
0000
,
0100
0000
0000
0000
0000
0000
0000
0000
0020
0030
0000
0000
0000
0000
1000
0000
0100
0000
0000
0000
0000
0000
0000
0000
0020
0030
0000
0000
0000
0000
0001
0000
,
1000
0000
0010
0000
1000
0000
0010
0000
0100
0000
0000
0000
0001
0000
0000
0000
0010
0000
0000
0000
0001
0000
0000
0000
0200
0300
0000
0000
0000
0000
0001
0000
,
0010
0000
0000
0000
0000
0000
0000
0000
0200
0300
0000
0000
0000
0000
1000
0000
0010
0000
0000
0000
0000
0000
0000
0000
0200
0300
0000
0000
0000
0000
0001
0000
,
0010
0100
0010
0100
1000
0000
0001
0000
1000
0000
0100
0000
0001
0000
0100
0000
,
1000
1000
0001
0100
1000
0100
0001
0010
,
0011
0000
1010
0000
,
1001
0000
0000
0000
,
0000
0000
0000
0000
,
1000
1000
0100
0100
,
0001
0001
0020
0000
,
0031
0001
0100
0100
,
1000
1000
0020
0000
,
1030
1000
0001
0001
0010
0010
0001
0000
,
1000
0000
0010
0100
0001
0000
0001
0000
0010
0000
0000
0000
MMMM
0000
0000
0000
,
0000
0000
0000
0000
,
0000
0000
0000
0000
,
0002
0000
0000
1003
0002
0000
0000
1003
,
0001
0010
1000
0010
0200
0000
1300
0000
,
1000
0010
1000
0000
0100
0000
0010
0000
0001
0000
0100
0000
0001
1000
0001
1000
,
0100
0000
1000
0000
0001
0000
0100
0000
0010
1000
0100
0000
0010
0001
0100
0000
,
0001
0010
0001
0000
0100
0000
0010
0000
1000
0000
0100
0000
0010
0001
0000
0001
,
1000
0000
0010
0000
0100
0001
0010
0000
0100
1000
0100
1000
0001
0100
0001
0000
,
2000
0000
0000
0000
0000
0000
0000
3001
,
1000
0100
0001
0100
1000
0010
0200
0000
,
0301
0000
0100
0000
0010
0000
0100
0000
1000
0000
0100
0010
0100
0000
0001
0000
,
1000
0000
0100
0010
0100
0000
0001
0100
1000
0000
0001
0100
0010
0000
1000
0001
,
0010
0000
0100
1000
0010
0000
0100
0001
0010
0000
0100
1000
0001
1000
0001
1000
,
0002
0000
0000
0003
,
1001
0110
2002
3003
,
2000
0000
0000
0000
3100
0000
0000
0010
0002
0000
0000
0000
0000
0000
0000
0000
,
2003
0000
0000
3010
0200
0000
2300
0000
,
3200
0000
0000
0302
0000
0000
2003
0000
0000
3001
0010
0001
,
0010
0000
0000
1100
0000
0000
0101
0000
0000
1000
0010
1000
,
0020
0000
0000
0130
0001
0100
0001
1000
0100
1000
0001
0010
,
0100
0000
0000
0000
,
1000
0000
0000
2000
0000
0000
0000
0000
,
0000
0002
0000
0000
0000
0000
0000
0000
,
0000
0000
3003
0000
,
0010
0010
0010
0000
0100
0100
0100
0000
,
1000
0001
0010
0001
1000
0000
0010
0100
0001
0000
0101
0000
1001
0000
0000
0000
,
0001
0000
0000
0010
0100
0000
0000
0100
4000
0004
0000
0000
0000
0000
3000
0000
,
0103
0000
0000
0010
1000
0000
0000
1000
0100
0000
0000
0100
0010
0000
0000
0010
,
0001
0000
0000
0001
0100
0000
0000
0100
1000
0000
0000
1000
0100
0000
0000
0100
,
0001
0000
0000
0001
1000
0000
0000
1000
0010
0000
0000
0000
2002
0000
0000
0000
,
3003
0000
0000
0000
,
0000
0000
0000
0000
,
0001
1000
0100
1000
0001
0010
0001
0010
,
0001
1000
0010
1000
0001
0100
0001
0100
,
0010
1000
0100
0001
0100
1000
0001
0100
,
0020
0000
0030
0000
0220
0000
0330
1000
,
0001
0000
0000
0010
0000
0000
0100
1000
0100
1000
0000
0000
0001
0000
0000
0100
0000
0000
0010
1000
0010
1000
0000
0000
,
0001
0000
0010
0100
0010
0000
0100
1000
0100
0000
1000
0001
0100
0000
0010
1000
,
0100
0000
0000
0000
,
0000
1001
0000
0000
;
