#VERSION:0.83;
#TITLE:Make A Sell;
#SUBTITLE:;
#ARTIST:Project Pat;
#TITLETRANSLIT:;
#SUBTITLETRANSLIT:;
#ARTISTTRANSLIT:;
#GENRE:;
#CREDIT:;
#MUSIC:Make A Sell.ogg;
#BANNER:Make A Sell-bn.png;
#BACKGROUND:Make A Sell-bg.png;
#CDTITLE:laserlight-cdtitle.png;
#SAMPLESTART:0.000;
#SAMPLELENGTH:0.000;
#SELECTABLE:YES;
#OFFSET:-0.047;
#BPMS:0.000=282.000;
#STOPS:;
#BGCHANGES:;
#FGCHANGES:;

//--------------- dance-single - ----------------
#NOTEDATA:;
#STEPSTYPE:dance-single;
#DESCRIPTION:;
#DIFFICULTY:Beginner;
#METER:1;
#RADARVALUES:0,0,0,0,0;
#NOTES:
0000
0000
0000
0000
,
0000
0000
0000
0000
,
0000
0000
0000
0000
,
0000
0000
0000
0000
,
0000
0000
0000
0000
,
0000
0000
0000
0000
,
0000
0000
0000
0000
,
0000
0000
0000
0000
,
0001
0000
0000
0000
,
0000
0000
0000
0000
,
0000
0000
0000
0000
,
0000
0000
0000
0000
,
1000
0000
0000
0000
,
0000
0000
0000
0000
,
0000
0000
0000
0000
,
0000
0000
0000
0000
,
0010
0000
0000
0000
,
0000
0000
0000
0000
,
0000
0000
0000
0000
,
0000
0000
0000
0000
,
0100
0000
0000
0000
,
0000
0000
0000
0000
,
0000
0000
0000
0000
,
0000
0000
0000
0000
,
0001
0000
0000
0000
,
0000
0000
0000
0000
,
0000
0000
0000
0000
,
0000
0000
0000
0000
,
0010
0000
0000
0000
,
0000
0000
0000
0000
,
0000
0000
0000
0000
,
0000
0000
0000
0000
,
0001
0000
0000
0000
,
0000
0000
0000
0000
,
0000
0000
0000
0000
,
0000
0000
0000
0000
,
0100
0000
0000
0000
,
0000
0000
0000
0000
,
0000
0000
0000
0000
,
0000
0000
0000
0000
,
0010
0000
0000
0000
,
0000
0000
0000
0000
,
0000
0000
0000
0000
,
0000
0000
0000
0000
,
1000
0000
0000
0000
,
0000
0000
0000
0000
,
0000
0000
0000
0000
,
0000
0000
0000
0000
,
0001
0000
0000
0000
,
0000
0000
0000
0000
,
0000
0000
0000
0000
,
0000
0000
0000
0000
,
0010
0000
0000
0000
,
0000
0000
0000
0000
,
0000
0000
0000
0000
,
0000
0000
0000
0000
,
0100
0000
0000
0000
,
0000
0000
0000
0000
,
0000
0000
0000
0000
,
0000
0000
0000
0000
,
1000
0000
0000
0000
,
0000
0000
0000
0000
,
0000
0000
0000
0000
,
0000
0000
0000
0000
,
0010
0000
0000
0000
,
0000
0000
0000
0000
,
0000
0000
0000
0000
,
0000
0000
0000
0000
,
0100
0000
0000
0000
,
0000
0000
0000
0000
,
0001
0000
0000
0000
,
0000
0000
0000
0000
,
0010
0000
0000
0000
,
0000
0000
0000
0000
,
0001
0000
0000
0000
,
0000
0000
0000
0000
,
1000
0000
0000
0000
,
0000
0000
0000
0000
,
0010
0000
0000
0000
,
0000
0000
0000
0000
,
0100
0000
0000
0000
,
0000
0000
0000
0000
,
0000
0000
0000
0000
,
0000
0000
0000
0000
,
1001
0000
0000
0000
,
0000
0000
0000
0000
,
0000
0000
0000
0000
,
0000
0000
0000
0000
,
0000
0000
0000
0000
,
0000
0000
0000
0000
,
0000
0000
0000
0000
,
0000
0000
0000
0000
,
1001
0000
0000
0000
,
0000
0000
0000
0000
,
0000
0000
0000
0000
,
0000
0000
0000
0000
,
0000
0000
0000
0000
,
0000
0000
0000
0000
,
0000
0000
0000
0000
,
0000
0000
0000
0000
,
1001
0000
0000
0000
,
1001
0000
0000
0000
,
1001
0000
0000
0000
,
0000
0000
0000
0000
,
1001
0000
0000
0000
,
1001
0000
0000
0000
,
1001
0000
0000
0000
,
0000
0000
0000
0000
,
1001
0000
0000
0000
,
1001
0000
0000
0000
,
1001
0000
0000
0000
,
0000
0000
0000
0000
,
1001
0000
0000
0000
,
1001
0000
0000
0000
,
1001
0000
0000
0000
,
0000
0000
0000
0000
,
0010
0000
0000
0000
,
0000
0000
0000
0000
,
0001
0000
0000
0000
,
0000
0000
0000
0000
,
0100
0000
0000
0000
,
0000
0000
0000
0000
,
0000
0000
0000
0000
,
0000
0000
0000
0000
,
0010
0000
0000
0000
,
0000
0000
0000
0000
,
1000
0000
0000
0000
,
0000
0000
0000
0000
,
0100
0000
0000
0000
,
0000
0000
0000
0000
,
0000
0000
0000
0000
,
0000
0000
0000
0000
,
0010
0000
0000
0000
,
0000
0000
0000
0000
,
0001
0000
0000
0000
,
0000
0000
0000
0000
,
0100
0000
0000
0000
,
0000
0000
0000
0000
,
0000
0000
0000
0000
,
0000
0000
0000
0000
,
0010
0000
0000
0000
,
0000
0000
0000
0000
,
1000
0000
0000
0000
,
0000
0000
0000
0000
,
0100
0000
0000
0000
,
0000
0000
0000
0000
,
0000
0000
0000
0000
,
0000
0000
0000
0000
,
0010
0000
0000
0000
,
0000
0000
0000
0000
,
0001
0000
0000
0000
,
0000
0000
0000
0000
,
1000
0000
0000
0000
,
0000
0000
0000
0000
,
0000
0000
0000
0000
,
0000
0000
0000
0000
,
0010
0000
0000
0000
,
0000
0000
0000
0000
,
1000
0000
0000
0000
,
0000
0000
0001
0000
;

//--------------- dance-single - ----------------
#NOTEDATA:;
#STEPSTYPE:dance-single;
#DESCRIPTION:;
#DIFFICULTY:Easy;
#METER:5;
#RADARVALUES:0,0,0,0,0;
#NOTES:
0000
0000
0000
0000
,
0000
0000
0000
0000
,
0000
0000
0000
0000
,
0000
0000
0000
0000
,
0001
0000
0100
0000
,
0001
0000
0010
0000
,
0100
0000
0010
0000
,
0001
0000
0000
0000
,
0000
0000
0100
0000
,
1000
0000
0100
0000
,
0001
0000
0010
0000
,
0100
0000
0000
0000
,
0000
0000
1000
0000
,
0001
0000
1000
0000
,
0010
0000
1000
0000
,
0100
0000
0000
0000
,
0000
0000
1000
0000
,
0010
0000
0100
0000
,
0001
0000
0010
0000
,
0100
0000
0000
0000
,
0000
0000
0100
0000
,
1000
0000
0000
0000
,
0010
0000
0000
0000
,
0100
0000
0010
0000
,
1000
0000
0000
0000
,
0000
0000
0001
0000
,
0010
0000
0100
0000
,
0010
0000
0000
0000
,
0000
0000
0000
0000
,
0001
0000
0100
0000
,
0001
0000
0010
0000
,
0100
0000
1000
0000
,
0010
0000
1000
0000
,
0100
0000
0010
0000
,
0001
0000
0100
0000
,
0001
0000
0000
0000
,
0000
0000
0000
0000
,
1000
0000
0100
0000
,
0010
0000
0001
0000
,
0100
0000
0001
0000
,
0010
0000
0100
0000
,
1000
0000
0010
0000
,
1000
0000
0001
0000
,
1000
0000
0000
0000
,
0000
0000
0000
0000
,
0001
0000
0010
0000
,
0100
0000
1000
0000
,
0010
0000
1000
0000
,
0100
0000
0010
0000
,
0001
0000
0100
0000
,
0001
0000
1000
0000
,
0001
0000
0000
0000
,
0000
0000
0000
0000
,
1000
0000
0010
0000
,
0100
0000
0001
0000
,
0010
0000
0001
0000
,
0100
0000
0010
0000
,
1000
0000
0100
0000
,
1000
0000
0001
0000
,
1000
0000
0000
0000
,
0000
0000
0000
0000
,
0001
0000
0010
0000
,
0100
0000
1000
0000
,
0100
0000
0010
0000
,
0001
0000
0100
0000
,
0010
0000
1000
0000
,
0010
0000
0100
0000
,
0001
0000
0010
0000
,
0100
0000
1000
0000
,
0010
0000
0100
0000
,
0001
0000
0010
0000
,
0100
0000
1000
0000
,
0010
0000
0100
0000
,
0001
0000
0000
0000
,
0100
0000
0001
0000
,
0100
0000
0001
0000
,
0010
0000
0100
0000
,
0001
0000
1000
0000
,
0010
0000
0100
0000
,
0001
0000
0010
0000
,
0100
0000
0010
0000
,
0000
0000
0000
0000
,
1000
0000
0001
0000
,
1000
0000
0001
0000
,
1000
0000
0100
0000
,
0010
0000
0001
0000
,
0010
0000
0100
0000
,
1000
0000
0010
0000
,
1000
0000
0100
0000
,
0000
0000
0000
0000
,
1000
0000
0010
0000
,
0100
0000
0001
0000
,
1000
0000
0000
0000
,
0000
0000
0100
0000
,
0010
0000
0001
0000
,
1000
0000
0001
0000
,
0020
0000
0000
0000
,
0031
0000
0000
0000
,
0010
0000
0100
0000
,
1000
0000
0010
0000
,
1000
0000
0100
0000
,
0010
0000
0001
0000
,
0010
0000
0100
0000
,
1000
0000
0010
0000
,
0100
0000
0001
0000
,
1000
0000
0100
0000
,
0010
0000
0001
0000
,
0010
0000
0100
0000
,
1000
0000
0001
0000
,
1000
0000
0001
0000
,
0100
0000
0010
0000
,
1000
0000
0000
0000
,
0001
0000
0010
0000
,
0100
0000
1000
0000
,
0001
0000
1000
0000
,
0010
0000
0100
0000
,
0010
0000
1000
0000
,
0000
0000
0000
0000
,
0001
0010
0100
1000
,
0010
0100
0001
1000
,
0001
0010
0100
1000
,
0010
0100
0001
0000
,
1000
0000
0100
0000
,
0010
0000
0100
0000
,
1000
0000
0010
0000
,
0100
0000
0010
0000
,
1000
0000
0000
0000
,
0001
0000
0010
0000
,
0100
0000
0000
0000
,
0110
0000
0000
0000
,
0100
0000
1000
0000
,
0010
0000
0100
0000
,
0001
0000
0010
0000
,
0100
0000
0010
0000
,
0001
0000
0100
0000
,
0010
0000
1000
0000
,
0100
0000
0000
0000
,
0010
0000
0000
0000
,
0001
0000
0010
0000
,
1000
0000
0010
0000
,
0001
0000
0010
0000
,
1000
0000
0010
0000
,
0001
0000
0100
0000
,
0010
0000
0100
0000
,
0001
0000
0010
0000
,
1000
0000
0000
0000
,
0010
0000
0001
0000
,
0100
0000
0010
0000
,
1010
0000
0000
0000
,
1100
0000
0000
0000
,
0010
0000
0001
0000
,
0010
0000
0100
0000
,
1000
0000
0000
0000
,
0010
0000
0000
0000
,
0000
0000
0100
0000
,
0001
0000
0010
0000
,
0100
0000
0010
0000
,
0001
0000
0100
0000
,
0010
0000
1000
0000
,
0100
0000
0010
0000
,
0100
0000
1000
0000
,
0010
0000
0000
0000
;

//--------------- dance-single - ----------------
#NOTEDATA:;
#STEPSTYPE:dance-single;
#DESCRIPTION:;
#DIFFICULTY:Medium;
#METER:9;
#RADARVALUES:0,0,0,0,0;
#NOTES:
0000
0000
0000
0000
,
0000
0000
0000
0000
,
0000
0000
0000
0000
,
0000
0000
0000
0000
,
1000
0100
1000
0010
,
0100
0010
1000
0000
,
0000
0100
0001
0100
,
1000
0010
0100
0000
,
0000
0001
1000
0001
,
0010
0001
0100
0000
,
0000
0001
0010
0100
,
1000
0010
0100
0000
,
0000
0100
0001
0000
,
0010
0000
0100
0010
,
0001
0000
0000
1000
,
0010
0100
0010
0000
,
0000
0000
1000
0100
,
1000
0010
0100
0001
,
0010
0001
0100
0010
,
1000
0100
1000
0000
,
0000
0000
0001
0100
,
0010
1000
0100
1000
,
0010
0100
0001
0010
,
0001
1000
0001
0000
,
0000
0000
1000
0010
,
0100
0001
0010
0001
,
0100
0010
1000
0100
,
1000
0001
1000
0000
,
0000
0000
0001
0010
,
0100
1000
0010
1000
,
0100
0010
0001
0100
,
0001
1000
0001
0000
,
0000
0000
1000
0010
,
0100
0001
0100
0010
,
1000
0100
0010
0001
,
0010
0100
1000
0010
,
0100
0001
0010
0100
,
1000
0010
0100
0001
,
0010
0100
1000
0000
,
0100
1000
0100
1000
,
0010
0100
1000
0001
,
0010
0100
1000
0010
,
0100
0010
0000
0000
,
0001
1000
0001
1000
,
0001
0100
0010
1000
,
0010
0100
0001
0010
,
0001
0100
0000
0000
,
0001
0010
0100
1000
,
0001
0000
0000
0100
,
0010
1000
0001
1000
,
0020
0000
1030
0000
,
0010
0100
0001
0010
,
0001
0100
0010
1000
,
0010
0100
0001
0010
,
0100
1000
0001
0100
,
0010
1000
0010
0100
,
0001
1000
0001
1000
,
0100
0010
0001
0000
,
1000
0010
0100
0001
,
1000
0001
0010
0100
,
0010
0001
0000
0000
,
1000
0010
0100
0001
0010
0100
1000
0001
,
1000
0010
0100
0001
0010
0100
1000
0000
,
0001
0100
0010
0100
,
0001
0010
0100
0010
,
0001
0000
1000
0010
,
0100
0000
0110
0000
,
0100
0001
0010
0100
,
1000
0010
0100
0010
,
1000
0100
0010
0001
,
0100
0000
0010
0000
,
1000
0010
0001
0010
,
1000
0010
0001
0010
,
1000
0100
0010
0100
,
1000
0010
0001
0000
,
0010
1000
0100
0010
,
0011
0000
0101
0000
,
0010
1000
0010
0100
,
0001
0000
0010
0000
,
0000
0100
1000
0010
,
0100
0010
1000
0100
,
0010
0001
0100
0010
,
0100
0001
0010
0000
,
0000
0000
0000
0000
,
0000
0000
0100
1000
,
0001
0010
0100
0000
,
0000
0010
0001
0100
,
0010
0100
0010
0000
,
0000
1000
0010
0100
,
0001
0010
0100
0000
,
0000
0010
0001
0100
,
0010
1000
0100
0000
,
0000
0010
0001
1000
,
0010
1000
0001
0010
,
0100
0010
0001
0100
,
0010
1000
0010
0000
,
0000
0000
0100
0000
,
0001
0000
0010
0100
,
1000
0000
0010
0100
,
0001
0100
0010
0000
,
0000
0000
0001
0010
,
0001
0000
0100
0010
,
0100
0000
0001
0010
,
0100
0001
0100
0000
,
0000
0000
1000
0100
,
1000
0000
0010
0100
,
0010
0000
1000
0100
,
0010
1000
0010
0000
,
0000
0000
0001
0010
,
0001
0000
0100
0010
,
0100
0000
0001
0010
,
0100
0001
0100
0000
,
0000
0000
1000
0100
,
1000
0000
0010
0100
,
0010
0000
1000
0100
,
0010
1000
0010
0000
,
0001
0000
0100
0000
,
0010
0000
0100
0000
,
0001
0010
0100
0010
,
0001
0100
0010
0000
,
0000
0000
1000
0010
,
0100
0000
0001
0010
,
0100
0000
0010
0001
,
1000
0010
0100
0000
,
0000
0000
0100
0001
,
0100
0010
1000
0010
,
0100
0001
0010
0100
,
0010
0001
0100
0000
,
0000
0010
1000
0010
,
0100
0010
1000
0010
,
0100
0001
0010
0100
,
1000
0100
0010
0000
,
0000
0000
1000
0100
,
1000
0010
0100
0001
,
0010
0001
0100
0010
,
1000
0100
1000
0010
,
0000
0000
1000
0010
,
0100
0001
0010
0001
,
0100
0010
1000
0100
,
1000
0001
1000
0010
,
0000
0000
1000
0010
,
0100
0001
0010
0001
,
0100
0010
1000
0100
,
1000
0001
1000
0000
,
0000
0000
0001
0010
,
0100
1000
0010
1000
,
0100
0010
0001
0100
,
0001
1000
0001
0000
,
0000
1000
0010
1000
,
0010
0100
0001
0100
,
0010
1000
0100
0010
,
0001
0010
0001
0000
,
1000
0000
0001
0000
,
1000
0100
0010
0001
,
0100
0010
1000
0001
,
0010
0100
1000
0010
,
1000
0100
0010
0001
,
1000
0001
1000
0100
,
0010
0001
0100
0000
,
0010
0000
0100
0000
,
0001
0010
0100
1000
,
0010
0100
0010
1000
,
0100
0010
0001
0000
,
0100
0001
1000
0000
,
0001
0100
0010
1000
,
0001
0000
0000
0000
;

//--------------- dance-single - ----------------
#NOTEDATA:;
#STEPSTYPE:dance-single;
#DESCRIPTION:;
#DIFFICULTY:Hard;
#METER:16;
#RADARVALUES:0,0,0,0,0;
#NOTES:
0000
0000
0000
0000
,
0000
0000
0000
0000
,
0000
0000
0000
0000
,
0000
0000
0000
0000
,
1000
0100
1000
0010
,
0100
0010
1000
0000
,
0001
0100
0100
0001
,
0010
0001
0100
0000
,
0000
0001
1000
0001
,
0010
0001
0100
0000
,
0000
0001
0010
0100
,
1000
0010
0100
0000
,
0000
0100
0001
0000
,
0010
0000
0100
0010
,
0001
0000
0000
1000
,
0010
0100
0010
0000
,
0000
0000
0000
0000
1000
0100
1000
0010
,
0100
0001
0010
0001
0100
0010
1000
0100
,
1000
0010
0100
0001
0010
0100
1000
0010
,
0100
0001
0010
0100
1000
0000
0000
0000
,
0000
0000
0000
0000
0001
0100
0010
1000
,
0100
1000
0010
0100
0001
0010
0001
1000
,
0001
0100
0001
1000
0010
0100
0001
0010
,
0100
0010
0001
0100
0010
0000
0000
0000
,
0000
0000
0000
0000
1000
0010
0100
0001
,
0010
0001
0100
0010
1000
0100
1000
0001
,
1000
0010
1000
0001
0100
0010
1000
0100
,
0010
0100
1000
0010
0100
0000
0000
0000
,
0000
0000
0000
0000
0001
0010
0100
1000
,
0010
1000
0100
0010
0001
0100
0001
1000
,
0001
0010
0001
1000
0100
0010
0001
0100
,
0010
0100
0001
0010
0100
0000
0000
0000
,
0000
0000
0000
0000
1000
0010
0100
0001
,
0100
0010
1000
0100
0010
0001
0010
0100
,
1000
0010
0100
0001
0010
0100
1000
0010
,
0100
0001
0010
0100
1000
0100
0010
0001
,
1000
0010
0100
0010
1000
0100
0010
0001
,
0100
0010
1000
0001
0010
0100
1000
0010
,
1000
0100
0010
0001
0000
0000
0000
0000
,
0100
0010
0100
0001
,
0010
0100
1000
0001
0010
0100
1000
0010
,
0100
0010
1000
0100
0010
0001
1000
0001
,
0100
0010
1000
0000
0000
0000
0000
0000
,
0001
1000
0001
1000
,
0001
0100
0010
1000
0010
0100
0001
0010
,
0001
0100
0010
1000
0100
1000
0010
1000
,
0100
0010
0001
0000
0000
0000
1000
0000
,
0001
0010
0100
1000
,
0001
0000
0000
0100
,
0010
1000
0001
0100
,
0020
0000
1030
0000
,
0010
0100
0001
0010
,
0001
0100
0010
1000
0010
0100
0001
0010
,
0100
1000
0001
0100
0010
1000
0010
0100
,
0001
1000
0001
1000
0100
0010
0001
0000
,
1000
0010
0100
0001
0100
0010
1000
0100
,
0010
0001
1000
0010
0100
0001
0100
0010
,
1000
0001
1000
0001
0010
0100
1000
0010
,
0100
0001
0100
0010
1000
0000
0001
0000
,
1000
0001
0010
0100
,
0010
0001
0000
0000
,
1000
0010
0100
0001
0010
0100
1000
0001
,
1000
0010
0100
0001
0010
0100
1000
0000
,
0001
0100
0010
0100
,
0001
0010
0100
0010
,
0001
0000
1000
0010
,
0100
0000
0110
0000
,
0100
0001
0010
0100
,
1000
0010
0100
0010
,
1000
0100
0010
0001
,
0100
0000
0010
0000
,
1000
0010
0001
0010
,
1000
0010
0001
0010
,
1000
0100
0010
0100
,
1000
0010
0001
0000
,
0010
1000
0100
0010
,
0011
0000
0101
0000
,
0010
1000
0010
0100
,
0001
0000
0010
0000
,
0000
0100
1000
0010
,
0100
0010
1000
0100
,
0010
0001
0100
0010
,
0100
0001
0010
0000
,
0000
0000
0000
0000
,
0000
0000
0100
1000
,
0001
0010
0100
0000
,
0000
0010
0001
0100
,
0010
0100
0010
0000
,
0000
1000
0010
0100
,
0001
0010
0100
0000
,
0000
0010
0001
0100
,
0010
1000
0100
0000
,
0000
0010
0001
1000
,
0010
1000
0001
0010
,
0100
0010
0001
0100
,
0010
1000
0010
0000
,
0000
0000
0100
0000
,
0001
0000
0010
0100
,
1000
0000
0010
0100
,
0001
0100
0010
0000
,
0000
0000
0001
0010
,
0001
0000
0100
0010
,
0100
0000
0001
0010
,
0100
0001
0100
0000
,
0000
0000
1000
0100
,
1000
0000
0010
0100
,
0010
0000
1000
0100
,
0010
1000
0010
0000
,
0000
0000
0001
0010
,
0001
0000
0100
0010
,
0100
0000
0001
0010
,
0100
0001
0100
0000
,
0000
0000
1000
0100
,
1000
0000
0010
0100
,
0010
0000
1000
0100
,
0010
1000
0010
0000
,
0001
0000
0100
0000
,
0010
0000
0100
0000
,
0001
0010
0100
0010
,
0001
0100
0010
0000
,
0000
0000
1000
0010
,
0100
0000
0001
0010
,
0100
0000
0010
0001
,
1000
0010
0100
0000
,
0000
0000
0100
0001
,
0100
0010
1000
0010
,
0100
0001
0010
0100
,
0010
0001
0100
0000
,
0000
0010
1000
0010
,
0100
0010
1000
0010
,
0100
0001
0010
0100
,
1000
0100
0010
0000
,
0000
0000
0000
0000
1000
0100
1000
0010
,
0100
0001
0010
0001
0100
0010
1000
0100
,
1000
0010
0100
0001
0010
0100
1000
0010
,
0100
0001
0010
0100
1000
0000
0001
0000
,
0000
0000
0000
0000
0001
0100
0010
1000
,
0100
1000
0010
0100
0001
0010
0001
1000
,
0001
0100
0001
1000
0010
0100
0001
0010
,
0100
0010
0001
0100
0010
0000
1000
0000
,
0000
0000
0000
0000
1000
0010
0100
0001
,
0010
0001
0100
0010
1000
0100
1000
0001
,
1000
0010
1000
0001
0100
0010
1000
0100
,
0010
0100
1000
0010
0100
0000
0000
0000
,
0000
0000
0000
0000
0001
0010
0100
1000
,
0010
1000
0100
0010
0001
0100
0001
1000
,
0001
0010
0001
1000
0100
0000
0010
0000
,
0001
0010
0100
1000
0010
0000
0000
0000
,
0000
1000
0010
1000
,
0010
0100
0001
0100
,
0010
1000
0100
0010
,
0001
0010
0001
0000
,
1000
0000
0001
0000
1000
0100
0010
0001
,
0100
0010
1000
0001
0010
0100
1000
0010
,
1000
0100
0010
0001
1000
0001
1000
0100
,
0010
0001
0100
0000
0010
0000
0100
0000
,
0001
0010
0100
1000
0010
0100
0010
1000
,
0100
0010
0001
1000
0001
0100
0010
1000
,
0010
0100
0010
1000
0001
0000
1000
0000
,
0001
0000
1000
0000
0001
0100
0010
1000
,
0010
0100
0001
0010
0001
0100
0010
1000
,
0100
1000
0010
1000
0100
0010
0001
0000
,
0010
0100
0010
0001
,
0100
0001
1000
0000
,
0001
0100
0010
1000
,
0001
0000
0000
0000
;
