#TITLE:Mad;
#SUBTITLE:(feat. WaMi);
#ARTIST:ESAI;
#TITLETRANSLIT:;
#SUBTITLETRANSLIT:;
#ARTISTTRANSLIT:;
#GENRE:J-Pop;
#CREDIT:;
#BANNER:Mad (feat. WaMi).png;
#BACKGROUND:Mad (feat. WaMi)-bg.png;
#LYRICSPATH:;
#CDTITLE:cdtitle.png;
#MUSIC:Mad (feat. WaMi).ogg;
#OFFSET:-0.500060;
#SAMPLESTART:54.584572;
#SAMPLELENGTH:13.521122;
#SELECTABLE:YES;
#BPMS:0.000000=142.000000
;
#STOPS:
;
#BGCHANGES:-1.125=Mad (feat. WaMi).mp4=1.000=1=0=1===CrossFade==,
99999=-nosongbg-=1.000=0=0=0 // don't automatically add -songbackground-
;
#KEYSOUNDS:;
#ATTACKS:;

//---------------dance-single - ----------------
#NOTES:
     dance-single:
     :
     Hard:
     11:
     0.542426,0.552188,0.176846,0.405705,0.156040,365.000000,348.000000,17.000000,39.000000,0.000000,0.000000,0.542426,0.552188,0.176846,0.405705,0.156040,365.000000,348.000000,17.000000,39.000000,0.000000,0.000000:
0000
0000
0000
0000
,
0000
0000
0000
0000
,
0000
0000
0000
0000
,
0000
0000
0000
0000
,
1000
0100
1000
0010
0010
0000
1000
0000
,
0001
0100
0001
0010
0010
0000
0001
0000
,
1000
0100
1000
0010
0010
0000
1000
0000
,
0001
0100
0001
0010
0100
1000
0001
0000
,
1000
0010
0000
1000
0010
0000
1000
0000
0100
0000
0000
0000
1000
0000
0100
0000
,
0010
0001
1000
0010
0100
0000
0002
0000
,
1003
0000
0000
0001
0100
0000
0001
0000
0010
0000
0000
0000
0100
0000
1000
0000
,
0010
1000
0010
0100
0001
1000
1000
0000
,
0001
0010
0000
0001
0010
0000
0001
0000
0100
0000
0000
0000
0001
0000
0100
0000
,
0010
1000
0001
0010
0100
0000
2000
0000
,
3001
0000
0000
1000
0100
0000
1000
0000
0010
0000
0100
0000
0001
0000
1000
0000
,
0200
0000
0320
0032
2003
0000
3001
0000
,
1000
0010
1000
0010
0001
0010
1000
0000
,
0100
0010
0100
1000
0001
0001
1001
0000
,
0001
0100
0001
0100
1000
0100
0001
1000
,
0200
0000
0300
0010
0001
0000
1000
0000
0010
0000
0100
0000
0001
0000
1000
0000
,
0001
0010
0001
0010
1000
0010
0001
0000
,
0100
0010
0100
0001
1000
1000
1001
0000
,
2000
0000
0000
3200
0000
0000
0301
0000
0200
0000
0000
0320
0000
0000
0130
0000
,
1000
0000
0000
0000
0000
0001
0100
0010
,
2000
3010
0020
0130
,
0010
1000
0001
1000
0100
0010
0010
0000
,
0002
0013
0020
0130
,
0010
0001
1000
0010
0100
0001
1000
0000
,
0002
0010
2003
0010
,
3002
0100
2003
0100
,
3002
0000
0000
0203
0000
0000
0310
0000
2000
0000
0000
3200
0000
0000
0310
0000
,
0001
0100
0001
0100
0010
1000
0100
0000
,
0011
0000
1010
0000
0001
0010
0100
1000
,
0001
0100
0010
0200
1000
0000
0010
0000
,
0301
0000
0000
0001
0010
0000
0001
0000
1000
0000
0000
1000
0010
0000
1000
0000
,
0100
0010
0100
0010
0001
0100
0010
0000
,
1010
0000
0011
0000
1000
0010
0100
0001
,
1000
0100
0010
0200
0001
0000
0010
0000
,
1300
0000
0000
1000
0010
0000
0100
0000
0001
0000
0000
0001
0010
0000
0100
0000
,
2000
3002
0203
0302
0023
0000
0130
0000
,
1100
0000
0101
0000
1000
0100
0001
0100
,
1000
0001
1000
0020
0001
0000
0130
0010
,
1010
0000
0000
1000
0001
0000
0010
0000
0011
0000
0000
0001
1000
0000
0010
0000
,
1000
0100
1000
0100
0010
0001
0100
0000
,
0101
0000
1100
0000
0001
0100
1000
0100
,
0001
1000
0001
0020
1000
0000
0130
0010
,
0011
0000
0000
0001
0100
0000
0010
0000
1010
0000
0000
1000
0100
0000
0010
0000
,
0001
1000
0010
0100
0002
2003
3002
0003
,
1000
0100
0000
1000
0100
0000
0010
0000
0001
0000
0100
0000
2000
0000
0000
0000
,
3001
0010
2000
0000
3001
0010
1000
0010
,
0110
0000
0000
0010
0100
0000
0010
0000
0001
0000
0000
0001
1000
0000
0001
0000
,
0100
0000
0000
0100
0010
0000
0000
0010
1000
0000
0001
0000
0001
0000
0010
0000
,
0001
0100
0000
0001
0100
0000
0010
0000
1000
0000
0100
0000
0002
0000
0000
0000
,
1003
0010
0002
0000
1003
0010
0001
0010
,
0110
0000
0000
0010
0100
0000
0010
0000
1000
0000
0000
1000
0001
0000
1000
0000
,
0100
0000
0000
0100
0010
0000
0001
0000
1000
0000
1000
0000
0010
0000
0110
0000
;

//---------------dance-single - ----------------
#NOTES:
     dance-single:
     :
     Medium:
     8:
     0.393816,0.406875,0.166443,0.260067,0.000000,265.000000,249.000000,16.000000,25.000000,0.000000,0.000000,0.393816,0.406875,0.166443,0.260067,0.000000,265.000000,249.000000,16.000000,25.000000,0.000000,0.000000:
0000
0000
0000
0000
,
0000
0000
0000
0000
,
0000
0000
0000
0000
,
0000
0000
0000
0000
,
1000
0100
0000
1000
0001
0000
0000
0000
,
0001
0100
0000
0001
1000
0000
0000
0000
,
1000
0100
0000
1000
0001
0000
0000
0000
,
0001
0100
0000
0010
1000
0000
1000
0000
,
0001
0010
0001
0000
0020
0000
0130
0000
,
0010
0001
1000
0000
0001
0000
1001
0000
,
0001
0100
0010
0000
0200
0000
0301
0000
,
1000
0000
1000
0000
0100
0010
0001
0000
,
1000
0010
1000
0000
0020
0000
0130
0000
,
0010
1000
0001
0000
1000
0000
1001
0000
,
1000
0100
0010
0000
0200
0000
1300
0000
,
0002
0000
0103
0010
2000
0000
3000
0000
,
0001
0010
0001
0000
0010
0000
0100
0000
,
1000
0001
0100
0000
0010
1000
0001
0000
,
1000
0100
1000
0000
0100
0000
0010
0000
,
0110
0110
1000
0001
,
1000
0010
1000
0000
0010
0000
0100
0000
,
0001
1000
0100
0000
0010
0001
1000
0000
,
0002
0100
2003
0100
,
3001
0000
0000
1000
,
2000
3000
0020
0030
,
0100
0000
0010
0000
1000
0001
1000
0000
,
0002
0003
0020
0030
,
0100
0000
0010
0000
0001
1000
0001
0000
,
0200
1000
0301
1000
,
0200
0001
1300
0001
,
2000
0010
3002
0010
,
1003
0010
0100
0001
1000
0000
0100
0000
,
1100
0011
1000
1000
,
0001
0100
0001
0100
1000
0000
0100
0000
,
0002
0000
0013
0100
2000
0000
3001
0010
,
0100
0000
0100
0000
1000
0010
0100
0000
,
0101
1010
0001
0001
,
1000
0100
1000
0100
0001
0000
0100
0000
,
2000
0000
3010
0100
0002
0000
1003
0000
,
0100
0010
0100
0010
0002
0000
0003
0000
,
0011
1100
0001
0001
,
1000
0010
1000
0010
0001
0000
0010
0000
,
2000
0000
3010
1000
0200
0000
1300
0100
,
0010
0000
0001
0000
0010
0001
0100
0000
,
1010
0101
1000
1000
,
0001
0010
0001
0010
1000
0000
0010
0000
,
0001
0100
0010
0000
1000
0100
0010
0000
,
0002
0000
2003
0000
3001
1000
0001
0000
,
0101
0000
0101
0000
0001
0100
0010
0000
,
0100
0010
1000
0000
0010
1000
0100
0000
,
0010
0010
0100
0100
,
0010
0000
0001
0000
0100
0010
1000
0000
,
1100
0000
1100
0000
1000
0100
0010
0000
,
0100
0010
0001
0000
0010
0001
0100
0000
,
0010
0010
0100
0100
,
0001
0000
1000
0000
0100
0100
0010
0001
;

//---------------dance-single - ----------------
#NOTES:
     dance-single:
     :
     Easy:
     5:
     0.268984,0.289975,0.083222,0.280873,0.000000,181.000000,173.000000,8.000000,27.000000,0.000000,0.000000,0.268984,0.289975,0.083222,0.280873,0.000000,181.000000,173.000000,8.000000,27.000000,0.000000,0.000000:
0000
0000
0000
0000
,
0000
0000
0000
0000
,
0000
0000
0000
0000
,
0000
0000
0000
0000
,
1000
0000
1000
0001
,
0001
0000
0001
1000
,
1000
0000
1000
0001
,
0001
0000
1000
0001
,
0010
0100
0010
0100
,
1000
0001
1000
0000
,
0001
0100
0001
0100
,
0001
0010
0100
1000
,
0010
0100
0010
0100
,
0001
1000
0001
0000
,
1000
0100
0010
0001
,
2000
0000
3001
0000
,
1000
0010
1000
1000
,
0100
0010
0001
1000
,
0001
0100
0001
0001
,
2000
3000
1000
1000
,
0001
0010
0001
0001
,
0100
0010
1000
0001
,
0010
0100
1000
0010
,
0100
0000
0000
0000
,
0002
0003
0002
0003
,
1000
0010
0100
0001
,
2000
3000
2000
3000
,
0001
0010
0100
1000
,
0002
0000
0203
0000
,
0320
0000
2030
0000
,
3100
0010
0100
0010
,
0002
0000
1003
0000
,
2002
3003
0001
0100
,
1000
0100
0001
0000
,
1000
0100
1000
0100
,
0010
0001
0100
0010
,
2002
3003
1000
0100
,
0001
0100
1000
0000
,
0001
0100
0010
1000
,
0100
0100
0100
0000
,
2002
3003
1000
0010
,
0001
0010
1000
0000
,
0001
0010
0100
1000
,
0010
0100
0001
1000
,
2002
3003
0001
0010
,
1000
0010
0001
0000
,
1000
0010
0100
0001
,
1000
0100
0010
0010
,
0220
0330
2002
3003
,
0001
0100
0010
1000
,
0001
0001
1000
1000
,
0100
0010
0001
0100
,
0220
0330
2002
3003
,
1000
0100
0010
0001
,
1000
1000
0001
0001
,
1000
0010
0100
0001
;

//---------------dance-single - ----------------
#NOTES:
     dance-single:
     :
     Beginner:
     2:
     0.142665,0.202982,0.041611,0.093624,0.000000,96.000000,92.000000,4.000000,9.000000,0.000000,0.000000,0.142665,0.202982,0.041611,0.093624,0.000000,96.000000,92.000000,4.000000,9.000000,0.000000,0.000000:
0000
0000
0000
0000
,
0000
0000
0000
0000
,
0000
0000
0000
0000
,
0000
0000
0000
0000
,
1000
0000
0000
0000
,
0001
0000
0000
0000
,
1000
0000
0000
0000
,
0001
0000
0000
0000
,
1000
0000
1000
0000
,
1000
0000
0000
0000
,
0100
0000
0100
0000
,
0010
0000
0000
0000
,
0001
0000
0001
0000
,
0001
0000
0000
0000
,
0100
0000
0010
0000
,
1000
0000
0000
0000
,
0001
0000
0001
0000
,
1000
0000
1000
0000
,
0001
0000
0001
0000
,
0100
0000
0001
0000
,
0010
0000
0010
0000
,
0100
0000
0100
0000
,
0010
0000
0100
0000
,
1000
0000
0000
0000
,
0002
0000
0003
0000
,
0100
0000
0010
0000
,
2000
0000
3000
0000
,
0010
0000
0100
0000
,
0002
0000
0003
0000
,
2000
0000
3000
0000
,
0100
0000
0010
0000
,
0002
0000
0003
0000
,
1001
0000
0001
0000
,
0100
0100
0100
0000
,
0010
0000
0010
0000
,
0100
0000
0001
0000
,
1001
0000
0001
0000
,
0010
0010
0010
0000
,
0001
0000
0100
0000
,
0002
0000
0003
0000
,
1001
0000
1000
0000
,
0100
0100
0100
0000
,
0010
0000
0010
0000
,
0100
0000
1000
0000
,
1001
0000
1000
0000
,
0010
0010
0010
0000
,
1000
0000
0100
0000
,
2000
0000
3000
0000
,
0001
0000
0100
0000
,
1000
0000
0010
0000
,
0002
0000
0003
0000
,
0001
0001
0001
0000
,
1000
0000
0100
0000
,
0001
0000
0010
0000
,
2000
0000
3000
0000
,
0100
0000
0100
0100
;

//---------------dance-single - ----------------
#NOTES:
     dance-single:
     :
     Challenge:
     14:
     0.716299,0.726563,0.291275,0.582551,0.546141,482.000000,454.000000,28.000000,56.000000,4.000000,0.000000,0.716299,0.726563,0.291275,0.582551,0.546141,482.000000,454.000000,28.000000,56.000000,4.000000,0.000000:
// measure 0
0000
0000
0000
0000
,  // measure 1
0000
0000
0000
0000
,  // measure 2
0000
0000
0000
0000
,  // measure 3
0000
0000
0000
0000
,  // measure 4
1000
0000
0100
0000
1000
0000
0010
0000
0010
0000
0000
0000
1000
0000
0001
1000
,  // measure 5
0001
0000
0100
0000
0001
0000
0010
0000
0010
0000
0000
0000
0001
0000
1000
0001
,  // measure 6
1000
0000
0100
0000
1000
0000
0010
0000
0010
0000
0000
0000
1000
0000
0001
1000
,  // measure 7
0001
0100
0001
0010
0100
1000
0001
0000
,  // measure 8
1000
0010
0000
1000
0010
0000
1000
0000
0100
0000
1000
0000
0010
1000
0000
0001
,  // measure 9
0010
0000
0100
0000
1000
0001
1000
0001
0100
0000
0010
0000
2000
0000
0000
0000
,  // measure 10
3001
0000
0000
0001
0010
0000
0001
0000
0100
0000
0010
0000
1000
0001
0000
1000
,  // measure 11
0100
0000
0010
0000
0001
0100
0010
1000
0002
0000
1000
0000
1003
0000
0000
0000
,  // measure 12
0001
0010
0000
0001
0010
0000
0001
0000
0100
0000
0001
0000
0010
0001
0000
1000
,  // measure 13
0010
0000
0100
0000
0001
1000
0001
1000
0100
0000
0010
0000
0002
0000
0000
0000
,  // measure 14
1003
0000
0000
1000
0010
0000
1000
0000
0100
0000
0010
0000
0001
1000
0000
0001
,  // measure 15
0200
0000
0320
2030
3200
0310
0011
0000
,  // measure 16
0001
0000
1000
0000
0001
0100
0000
0001
0000
0100
0010
0000
0001
0000
0010
0000
,  // measure 17
0100
0000
0001
0000
1000
0100
0000
0010
0001
0000
0011
0000
0011
0000
1000
0000
,  // measure 18
0001
0000
0100
0000
0010
0100
0000
1000
0000
0100
0010
0100
0001
0000
1000
0000
,  // measure 19
0200
0000
0000
1300
0100
0000
0010
0000
0001
0000
0001
0000
1000
0010
0100
0001
,  // measure 20
1000
0000
0001
0000
1000
0100
0000
1000
0000
0100
0010
0000
1000
0000
0010
0000
,  // measure 21
0100
0000
1000
0000
0001
0100
0000
0010
1000
0000
1010
0000
1010
0000
0001
0000
,  // measure 22
2000
0000
0000
3100
0010
0000
0100
0000
0002
0000
0000
0103
0010
0000
0100
0000
,  // measure 23
1000
0000
0000
0000
0000
0001
0010
0100
,  // measure 24
2000
0000
3010
0000
0020
0000
0130
0010
,  // measure 25
1000
0001
0001
1000
0100
0010
0110
0000
,  // measure 26
0002
0000
0013
0000
0020
0000
0130
0010
,  // measure 27
0001
0000
1000
0000
1000
0000
0001
0000
0100
0010
1000
0000
0010
1000
0001
1000
,  // measure 28
0200
0000
0000
0000
0001
0000
0000
0000
0310
0000
0000
0100
1000
0000
0001
0000
,  // measure 29
0200
0000
0000
0000
1000
0000
0000
0000
0310
0000
0000
0100
0001
0000
1000
0000
,  // measure 30
0001
0000
0000
0011
0000
0000
0001
0000
1000
0000
0000
1010
0000
0000
1000
0000
,  // measure 31
0001
0000
0010
0000
0100
0000
1000
0001
1000
0000
0000
0001
0100
0000
0010
0000
,  // measure 32
1020
0000
0M30
0010
0001
0000
0010
0100
1000
0000
0001
0100
0010
0000
1000
0000
,  // measure 33
2010
3001
0102
1003
2001
0000
3100
0010
,  // measure 34
0002
0000
0003
0010
0100
0000
1000
0000
0010
0000
1000
0010
0100
0000
0001
0000
,  // measure 35
2000
0000
0100
0000
3002
0000
0010
0000
1003
0010
0100
0001
1000
0000
0001
0000
,  // measure 36
0021
0000
0M30
0010
1000
0000
0010
0100
0001
0000
1000
0100
0010
0000
0001
0000
,  // measure 37
0012
1003
2100
3001
1002
0000
0103
0010
,  // measure 38
2000
0000
3000
0010
0100
0000
0001
0000
0010
0000
0001
0010
0100
0000
1000
0000
,  // measure 39
0002
0023
0032
0203
0302
0000
0103
0000
,  // measure 40
0201
0000
03M0
0100
1000
0100
0010
0000
0001
0000
1000
0001
0100
0000
0010
0000
,  // measure 41
2010
0000
3001
0000
0012
0000
1003
0000
2001
0000
3010
0100
0001
1000
0100
0000
,  // measure 42
0020
0000
0030
0100
0010
0000
0100
0000
0001
0000
0100
0010
0100
0000
1000
0000
,  // measure 43
0002
0000
0100
0000
2003
0000
0010
0000
3001
0100
0010
1000
0001
0000
1000
0000
,  // measure 44
1200
0000
03M0
0100
0001
0100
0010
0000
1000
0000
0001
1000
0100
0000
0010
0000
,  // measure 45
0012
0000
1003
0000
2010
0000
3001
0000
1002
0000
0013
0100
1000
0001
0100
0000
,  // measure 46
0020
0000
0030
0100
0010
0000
0100
0000
1000
0000
0100
0010
0100
0000
0001
1000
,  // measure 47
0002
0023
2030
3020
0032
0203
0302
0003
,  // measure 48
1000
0010
0000
1000
0010
0000
0100
0000
0001
0010
0001
0010
0100
0000
1000
0000
,  // measure 49
0100
1000
0001
1000
0010
0000
0100
0000
0010
0000
1000
0010
1000
0000
0001
0000
,  // measure 50
1002
0000
0000
0013
0100
0000
1000
0100
1000
0000
0001
0100
0001
0000
1000
0001
,  // measure 51
0010
0000
0100
0000
1000
0000
0001
0000
0100
0010
0200
0000
0320
0000
1030
0000
,  // measure 52
0001
0010
0000
0001
0010
0000
0100
0000
1000
0010
1000
0010
0100
0000
0001
0000
,  // measure 53
0100
0001
1000
0001
0010
0000
0100
0000
0010
0000
0001
0010
0001
0000
1000
0000
,  // measure 54
2001
0000
0000
3010
0100
0000
0001
0010
0001
0000
1000
0010
1000
0000
0001
1000
,  // measure 55
0100
0000
0010
0001
1000
0000
0001
0100
0010
0000
0010
0000
0110
0000
1001
0000
;
