#TITLE:MARAVILLOSA;
#SUBTITLE:;
#ARTIST:ero808, NXSTY;
#TITLETRANSLIT:;
#SUBTITLETRANSLIT:;
#ARTISTTRANSLIT:;
#GENRE:;
#CREDIT:SPACE GOBLIN!!!;
#MUSIC:ero808, NXSTY - MARAVILLOSA - 208cut.mp3;
#BANNER:banner.jpg;
#BACKGROUND:bg.jpg;
#CDTITLE:cover.jpg;
#SAMPLESTART:67.549;
#SAMPLELENGTH:17.109;
#SELECTABLE:YES;
#OFFSET:1.123;
#BPMS:0.000=128.000;
#STOPS:;
#BGCHANGES:;
#FGCHANGES:;

//--------------- dance-single - SPACE GOBLIN!!! ----------------
#NOTES:
     dance-single:
     SPACE GOBLIN!!!:
     Medium:
     10:
     0,0,0,0,0:
0000
0000
0000
0000
,
0000
0000
0000
0000
,
0000
0000
0000
0000
,
0000
0000
0000
0000
,
0000
0000
0000
0000
0000
1000
0100
0010
,
0001
0000
0000
1000
0010
0000
0100
0000
0001
0000
1000
0000
0100
0000
0000
0010
,
0000
0001
0010
0100
1000
0010
0100
0000
,
1000
0000
0000
0001
0010
0000
0001
0000
1000
0000
0010
0000
0100
0000
0001
0000
,
0010
0000
0100
0000
1000
0000
0100
0000
1000
0000
0001
0000
0100
0000
0001
0100
,
0001
0000
1000
0100
0010
0001
1000
0010
,
1000
0000
0001
0010
0001
1000
0100
1000
,
0010
0000
0000
0100
0010
0000
0100
0000
0001
0000
1000
0000
0100
0000
0000
0000
,
0010
0100
0010
0100
0010
0000
0000
0000
0001
0000
0000
0000
0100
0000
0000
0000
,
0010
0000
0000
1000
0010
0000
1000
0000
0000
0000
0001
0000
0010
0000
0001
0000
,
1100
0000
0000
0101
0000
1000
0100
0010
,
1001
0000
0000
0101
0000
0000
0001
0000
,
1000
0000
0000
0100
0010
0000
0001
0000
1000
0000
0001
0000
1000
0000
0001
0000
,
0100
0000
0000
0010
0100
0000
0010
0000
0000
0000
1000
0000
0001
0000
0010
0000
,
0100
0000
0000
0010
0100
0000
1000
0000
0000
0000
0001
0000
0100
0000
0001
0000
,
1000
0000
0000
0001
0010
0000
0001
0000
0000
0000
1000
0000
0010
0000
1000
0000
,
0002
0000
0000
0003
0020
0000
0000
0030
0200
0000
0000
0300
1000
0000
0000
0000
,
0001
0000
0000
0100
0010
0000
0100
0000
1000
0000
0100
0000
0010
0000
0000
0000
,
1000
0000
0000
0100
0010
0000
0100
0000
0001
0000
0100
0000
0020
0000
0000
0030
,
0001
0000
0000
0100
0010
0000
0001
0000
0010
0000
0100
0000
0001
0000
0000
0000
,
2000
0000
0000
3000
0200
0000
0000
0300
0020
0000
0000
0030
0001
0000
0000
0000
,
1000
0000
0000
0010
0100
0000
0010
0000
0001
0000
0010
0000
0100
0000
0000
0000
,
0001
0000
0000
0010
0100
0000
1000
0000
0010
0000
0100
0000
0002
0000
0000
0003
,
1000
0000
0000
0100
0010
0000
0001
0000
0100
0000
0010
0000
1000
0000
0000
0000
,
0022
0033
0000
0000
2020
3030
0000
0000
2002
3003
0000
0000
0000
0000
0000
0000
,
1000
0000
0000
0001
0100
0000
0001
0000
1000
0000
0100
0000
1000
0000
0000
0000
,
0001
0000
0000
1000
0010
0000
1000
0000
0001
0000
0010
0000
0200
0000
0000
0300
,
1000
0000
0000
0001
1000
0000
0100
0000
0001
0000
1000
0000
0010
0000
0000
0000
,
0001
0000
0000
0000
2200
3300
0000
0000
0202
0303
0000
0000
0000
0000
0000
0000
,
0001
0000
0000
0100
0010
0000
0100
0000
1000
0000
0100
0000
0010
0000
0000
0000
,
1000
0000
0000
0100
0010
0000
0100
0000
0001
0000
0100
0000
0010
0000
0000
0000
,
1000
0000
0000
0010
0100
0000
0010
0000
0001
0000
0010
0000
0100
0000
0000
0000
,
2000
3000
0000
0000
0002
0003
0000
0000
0220
0330
0000
0000
0220
0330
0000
0000
,
0001
0000
1000
0000
0001
1000
0001
0000
,
1000
0000
0000
0010
0100
0000
0000
0000
0001
0000
1000
0000
0100
0000
0010
0000
,
0001
0000
1000
0000
0001
1000
0001
0000
,
0001
0000
0000
0100
0010
0000
0000
0000
0001
0000
1000
0000
0100
0000
0010
0000
,
0001
0000
1000
0000
0001
1000
0001
0000
,
1000
0000
0000
0010
0100
0000
0000
0000
0001
0000
0000
0100
0010
0000
1000
0000
,
0001
0000
0010
0000
0100
1000
0001
0000
,
0100
0000
0010
0000
1000
0100
0010
0001
,
1000
0010
0100
0001
,
1000
0100
1000
0001
0100
0001
0100
0000
,
0010
0000
0000
0100
0010
0000
0000
0000
1000
0000
0000
0000
0100
0000
0010
0000
,
0001
0000
0100
0000
0010
0000
0100
0000
0001
0000
0000
0000
1000
0000
0100
0010
,
0100
0000
0000
0000
1000
0000
0000
0000
0001
0000
0000
0000
0100
0000
0010
0100
,
0010
0000
1000
0000
0001
0000
0010
0000
0001
0000
1000
0000
0010
0000
0100
0010
,
0100
0000
0000
0010
0100
0000
0001
0000
1000
0000
0000
0000
0100
0000
0010
0000
,
0001
0000
0010
0000
0001
0000
1000
0000
0010
0000
0000
1000
0000
0000
0010
0000
,
0100
0000
0000
0001
1000
0000
0001
0000
0000
0000
1000
0000
0100
0000
0010
0000
,
0001
0000
0000
1000
0001
0000
1000
0000
0000
0000
0001
0000
0010
0000
0100
0000
,
1000
0000
0000
0001
1000
0000
0001
0000
0000
0000
1000
0000
0010
0000
0100
0000
,
0001
0000
0000
0010
0000
0000
0100
0000
1000
0000
0010
0000
0100
0001
1000
0000
,
0001
0000
0000
0010
0100
0000
0010
0000
0000
0000
0001
0000
1000
0000
0100
0000
,
0010
0000
0000
1000
0000
0000
0010
0000
0100
0000
1000
0000
0001
0000
0000
0000
,
0100
0000
0000
0010
0100
0000
0001
0000
0000
0000
1000
0000
0100
0000
1000
0000
,
0202
0303
0000
0000
2200
3300
0000
0000
2002
3003
0000
0000
0220
0330
0000
0000
,
1000
0000
0000
0010
0100
0000
0010
0000
0001
0000
0010
0000
0100
0000
0000
0000
,
0001
0000
0000
0010
0100
0000
0010
0000
1000
0000
0010
0000
0200
0000
0000
0300
,
1000
0000
0000
0010
0100
0000
1000
0000
0100
0000
0010
0000
1000
0000
0000
0000
,
0002
0000
0000
0003
0020
0000
0000
0030
0200
0000
0000
0300
1000
0000
0000
0000
,
0001
0000
0000
0100
0010
0000
0100
0000
1000
0000
0100
0000
0010
0000
0000
0000
,
1000
0000
0000
0100
0010
0000
0001
0000
0100
0000
0010
0000
2000
0000
0000
3000
,
0001
0000
0000
0010
0100
0000
1000
0000
0001
0000
0100
0000
0010
0000
0000
0000
,
2020
3030
0000
0000
0022
0033
0000
0000
2002
3003
0000
0000
0000
0000
0000
0000
;

//--------------- dance-single - SPACE GOBLIN!!! ----------------
#NOTES:
     dance-single:
     SPACE GOBLIN!!!:
     Hard:
     12:
     0,0,0,0,0:
0000
0000
0000
0000
,
0000
0000
0000
0000
,
0000
0000
0000
0000
,
0000
0000
0000
0000
,
0000
0000
0000
0000
0000
0000
0000
0000
0000
0000
1000
0100
0010
0000
0001
0000
,
1000
0000
0000
0010
0100
0000
0001
0000
1000
0000
0100
0000
0010
0001
0000
1000
,
0000
0000
0010
0100
0010
0000
0100
0001
0000
1000
0001
0000
2000
0000
0000
3000
,
0001
0000
0000
0000
0000
0000
0000
0000
0000
0010
0000
0000
0100
0000
0000
0000
0000
0000
1000
0000
0000
0000
0000
0000
0000
0000
0000
0000
1000
0000
0000
0000
0010
0000
0000
0000
0100
0000
0000
0000
0000
0000
0010
0000
0000
0000
0100
0000
,
0000
0000
0000
0000
0001
0000
0000
0000
0000
0100
0000
0000
0010
0000
0000
0000
0000
0000
1000
0000
0000
0001
0000
0000
0000
0000
0000
0010
0000
0000
0100
0000
0000
0000
0000
0000
1000
0000
0000
0000
0000
0000
0001
0000
0000
0000
0000
0000
,
1000
0000
0000
0001
1000
0000
0001
0000
1000
0000
0100
0000
0010
0000
0001
1000
,
0100
0010
0001
0000
1000
0010
0000
0100
0001
0000
0100
0010
0100
0000
0000
0000
,
1000
0000
0000
0001
0010
0000
0100
0000
0000
0000
1000
0000
0001
0100
0000
0010
,
1000
0001
0010
0100
1000
0000
0000
0001
0000
0000
0100
0001
0100
0000
0000
0000
,
0001
0000
0000
1000
0100
0000
1000
0000
0000
0000
1000
0000
0100
0000
0010
0000
,
0001
0000
0000
0001
0100
0000
0001
0000
0000
0000
0001
0000
0100
0000
0010
0000
,
1000
0000
0000
1000
0100
0000
1000
0000
0000
0000
1000
0000
0010
0000
0100
0000
,
0001
0000
0000
0001
0100
0000
0010
0100
0010
0000
0100
0010
0100
0000
0001
0000
,
1000
0000
0000
0100
0010
0000
0001
0000
0000
0000
1000
0100
1000
0000
0010
0000
,
1000
0000
0000
0100
1000
0000
0100
0000
0000
0000
1000
0000
0010
0000
0100
0000
,
0001
0000
0000
1000
0100
0000
0010
0000
0000
0000
0001
0100
0001
0000
1000
0000
,
0100
0000
0010
0001
0010
0000
0100
1000
0100
0000
1000
0001
0100
0000
0010
0000
,
0100
0000
0000
0001
0010
0000
1000
0000
0010
0000
0001
0000
1000
0000
0000
0000
,
0010
0000
0000
0100
0010
0000
0001
0000
0010
0000
0100
0000
0002
0000
0003
0000
,
2000
0000
3000
0100
0010
0000
0100
0000
0010
0000
1000
0000
0010
0000
0100
0000
,
2000
0000
3000
0000
0002
0000
0003
0000
0200
0000
0300
0000
0010
0000
0100
0010
,
0100
0000
0000
0010
0100
0000
1000
0000
0100
0000
0010
0000
1000
0000
0001
0000
,
1000
0000
0000
0100
0010
0000
0100
0000
0001
0000
0100
0000
0010
0000
0001
0000
,
1000
0000
0000
0001
0100
0000
1000
0000
0001
0000
0010
0000
1000
0000
0000
0000
,
0001
0000
1000
0100
1000
0000
0001
0100
0001
0000
0100
0010
0100
0000
0001
0000
,
0010
0000
0000
0100
1000
0000
0001
0000
0010
0000
0100
0000
1000
0000
0000
0000
,
0010
0000
0000
0010
0100
0000
1000
0000
0100
0000
0010
0000
2000
0000
3000
0000
,
0002
0000
0003
0010
0100
0000
0010
0000
0100
0000
0001
0000
0100
0000
0010
0000
,
0002
0000
0003
0000
2000
0000
3000
0000
0020
0000
0030
0000
0100
0000
0010
0100
,
0010
0000
0000
0100
1000
0000
0100
0000
0010
0000
1000
0000
0100
0000
0000
0000
,
0001
0000
0000
0100
1000
0000
0100
0000
0010
0000
0001
0000
2000
0000
3000
0000
,
0002
0000
0003
0100
0001
0000
0100
0000
1000
0000
0001
0000
0010
0000
0000
0000
,
1000
0000
0001
0010
0001
0000
1000
0010
1000
0000
0001
0100
0010
0000
1000
0000
,
0001
0000
1000
0000
0001
1000
0001
0000
,
1000
0000
0000
0000
0001
0000
0000
0000
1000
0000
0001
0100
0010
0000
1000
0000
,
0001
0010
0100
1000
,
0001
0000
0100
0000
0010
0100
0001
1000
,
0100
0000
0010
0000
0001
1000
0001
0100
,
0010
0000
0000
1000
0001
0000
0000
0000
0010
0000
0000
0000
0100
0000
0000
0000
,
1000
0000
0000
0001
0100
0000
0010
0000
1000
0000
0001
0000
0010
0000
0000
0100
,
1000
0000
0000
0000
0001
0000
0000
0000
1000
0000
0001
0100
0010
0000
1000
0000
,
0001
0000
0000
0010
0100
0000
1000
0000
0001
0000
0000
0100
0010
0000
1000
0000
,
0001
1000
0100
0000
0010
0000
0001
0000
0100
0010
0100
0000
0001
0000
1000
0000
,
0100
0000
0000
1000
0100
0000
1000
0000
0001
0000
0100
0000
0010
0000
1000
0000
,
0001
0000
0010
0000
0100
0000
0010
0001
1000
0000
0010
0000
0200
0000
0000
0300
,
0002
0003
0000
1000
0100
0000
0010
0000
0001
0000
1000
0000
0010
0000
0100
0000
,
0001
0000
0010
0000
0100
0000
1000
0000
0001
0000
0100
0000
0001
0000
0100
0010
,
0100
0000
0000
0001
1000
0000
0100
0000
0010
0000
0001
0000
0010
0000
0001
0000
,
1000
0000
0010
0100
0010
0000
1000
0001
0010
0000
0100
0010
0000
0000
0001
0000
,
1000
0000
0000
0001
0010
0000
0001
0000
0000
0000
0001
0000
0010
0000
0100
0000
,
1000
0000
0000
1000
0010
0000
1000
0000
0000
0000
1000
0000
0010
0000
0100
0000
,
0001
0000
0000
0001
0010
0000
0001
0000
0000
0000
0001
0000
0100
0000
0010
0000
,
1000
0000
0000
1000
0010
0000
0100
0010
0100
0000
0010
0100
0010
0000
1000
0000
,
0001
0000
0000
0010
0100
0000
1000
0000
0000
0000
0001
0010
0001
0000
0100
0000
,
0001
0000
0000
0010
0001
0000
0010
0000
0000
0000
0001
0000
0100
0000
0010
0000
,
1000
0000
0000
0001
0010
0000
0100
0000
0000
0000
1000
0010
1000
0000
0001
0000
,
0010
0000
0100
1000
0100
0000
0010
0001
0010
0000
0001
1000
0010
0000
0100
0000
,
0010
0000
0000
1000
0100
0000
0001
0000
0100
0000
1000
0000
0001
0000
0000
0000
,
0100
0000
0000
0010
0100
0000
1000
0000
0100
0000
0010
0000
2000
0000
3000
0000
,
0002
0000
0003
0010
0100
0000
0010
0000
0100
0000
0001
0000
0100
0000
0010
0000
,
0002
0000
0003
0000
2000
0000
3000
0000
0020
0000
0030
0000
0100
0000
0010
0100
,
0010
0000
0000
0100
0010
0000
0001
0000
0010
0000
0100
0000
0001
0000
1000
0000
,
0001
0000
0000
0010
0100
0000
0010
0000
1000
0000
0010
0000
0100
0000
1000
0000
,
0001
0000
0000
1000
0010
0000
0001
0000
1000
0000
0100
0000
0001
0000
0000
0000
,
1000
0000
0001
0010
0001
0000
1000
0010
1000
0000
0010
0100
0010
0000
0100
0000
;

//--------------- dance-single - SPACE GOBLIN!!! ----------------
#NOTES:
     dance-single:
     SPACE GOBLIN!!!:
     Challenge:
     15:
     0,0,0,0,0:
0000
0000
0000
0000
,
0000
0000
0000
0000
,
0000
0000
0000
0000
,
0000
0000
0000
0000
,
0000
0000
0000
0000
0000
0000
0000
0000
0000
0000
1000
1000
0100
0000
0010
0000
,
0001
0000
0000
1000
0010
0000
0010
0000
0100
0000
0001
1000
0100
1000
0000
0001
,
0000
0100
0100
0001
1000
0000
1000
0100
0000
0010
0001
0000
1000
0000
0010
0000
,
0100
0000
0000
0000
0000
0000
0000
0000
0000
0001
0000
0000
0100
0000
0000
0000
0000
0000
0001
0000
0000
0000
0000
0000
0000
0000
0000
0000
1000
0000
0000
0000
1000
0000
0000
0000
0100
0000
0000
0000
0000
0000
0010
0000
0000
0000
0001
0000
,
0000
0000
0000
0000
0001
0000
0000
0000
0000
0100
0000
0000
0100
0000
0000
0000
0000
0000
0010
0000
0000
0100
0000
0000
0000
0000
0000
0001
0000
0000
1000
0000
0000
0000
0000
0000
0100
0000
0000
0000
0000
0000
0010
0000
0000
0100
0000
0000
,
0010
0000
0000
0001
0001
0000
1000
0010
0000
0100
0010
0000
1000
0000
1000
0001
,
0010
0000
0100
0010
0001
0001
0000
0100
0100
0000
0010
0100
0100
0000
0000
0001
,
0010
0000
0000
0100
0010
0000
0001
0000
0000
0000
1000
0000
0010
0010
0000
0100
,
0100
0001
1000
0100
0010
0000
0001
1000
0000
0000
0001
0100
0010
0000
0000
0000
,
1000
0000
0000
0001
0001
0000
0100
0000
0000
0000
0010
0010
0100
0000
0010
0000
,
1000
0000
0000
0100
0100
0000
0010
0000
0000
0000
0001
0010
0010
0000
0100
0000
,
1000
0000
0000
0001
0001
0000
0100
0000
0000
0000
0010
1000
1000
0000
0001
0000
,
0010
0000
0000
0100
0100
0000
1000
0001
0100
0000
0001
0100
0010
0000
1000
0000
,
0010
0000
0000
1000
0001
0000
0010
0000
0000
0000
0100
0100
0010
0000
0001
0000
,
1000
0000
0000
0010
0100
0000
0001
0000
0000
0000
0010
0010
0100
0000
1000
0000
,
0001
0000
0000
0100
0010
0000
1000
0000
0001
0010
0001
1000
0010
1000
0001
0010
,
0100
0000
1000
1000
0010
0000
1000
1000
0100
0000
0010
0010
0001
0000
1000
0000
,
0010
0000
0000
0100
0001
0000
1000
0000
0100
0000
0001
0000
1000
0000
0010
0001
,
1000
0000
0000
0010
0010
0000
0100
0100
0001
0000
0100
0000
0001
0010
0100
0000
,
1000
0000
0000
0001
0100
0000
1000
0000
0001
0000
0010
0000
1000
0000
0100
0000
,
0010
0000
0001
0001
0010
0000
0100
0100
1000
0000
0001
0001
0100
0000
0010
0000
,
1000
0000
0000
0001
1000
0000
0100
0000
0001
0000
1000
0000
0010
0000
0001
1000
,
0010
0000
0000
0100
0001
0000
0100
0000
1000
0000
0001
0000
0010
0000
1000
0000
,
0001
0000
0000
0010
0100
0000
1000
0000
0100
0000
0010
0000
0001
0000
0000
0000
,
1000
1000
0010
0000
0100
0100
0010
0000
1000
1000
0100
0000
0001
0000
0100
0000
,
0010
0000
0000
0000
0001
0000
1000
0010
1000
0000
0100
0010
0001
0000
0100
0000
,
0001
0000
0000
0100
0010
0000
1000
0000
0100
0000
0010
0001
0010
0100
1000
0001
,
0100
0000
0000
0010
0100
0000
0001
0000
0010
0000
0100
1000
0001
0000
0100
0000
,
0010
0000
0100
1000
0100
0000
0010
0001
0010
0000
0100
0010
0100
0001
0010
0100
,
1000
0000
0000
0001
1000
0000
0100
0000
0001
0000
0100
0010
0001
0000
1000
0000
,
0010
0000
0000
0100
0010
0000
0100
0000
0001
0000
0010
0000
0100
1000
0001
0100
,
0010
0000
0000
0001
0001
0000
0100
0000
1000
0000
0100
0001
1000
0000
0100
0000
,
0001
0000
0100
0010
0001
0000
1000
0010
0100
0000
0001
1000
0100
0000
0010
0000
,
0001
0000
1000
0000
1000
0001
1000
0000
,
0001
0000
0000
1000
1000
0000
0001
0000
1000
0000
0001
0100
0010
0000
1000
0000
,
0001
0000
0000
0010
0001
0000
0000
1000
0010
0000
0100
0000
0010
0000
1000
0000
,
0001
0000
0000
0010
0100
0000
1000
0000
0001
0000
0100
0010
1000
0000
0001
0000
,
1000
0000
0000
0000
0001
0000
0000
0000
0010
0000
0001
1000
0001
0000
0100
0000
,
0010
0000
0000
1000
0001
0000
0000
0000
0010
0000
0000
0000
0100
0000
0000
0000
,
1000
0000
0000
0001
0100
0000
0010
0000
1000
0000
0001
0000
0010
0000
0000
0100
,
1000
0000
0000
0000
0001
0000
0000
0000
1000
0000
0001
0001
0100
0000
0010
0000
,
1000
0000
0000
0100
0010
0000
0001
0000
1000
0000
0000
0010
0100
0000
0001
0000
,
1000
1000
0100
0000
0010
0000
0001
0000
0100
0100
0010
0000
1000
0000
0001
0000
,
0010
0100
0000
0100
0010
0000
0100
0000
1000
0000
0010
0000
0100
0000
0001
1000
,
1000
0000
0100
0000
0010
0000
0001
0100
0100
0000
0010
0000
1000
0000
0001
0010
,
0010
0000
0100
1000
1000
0000
0010
0000
0100
0000
0001
0000
1000
0000
0100
0000
,
0010
0001
0010
0001
1000
0000
0010
1000
0000
0010
1000
0000
0001
0000
0010
0001
,
0010
0000
0000
1000
0010
0000
0001
0000
1000
0000
0010
0000
0001
0000
0010
1000
,
1000
0000
0001
0010
0100
0000
1000
0001
0001
0000
0100
0010
0000
0000
1000
0000
,
0001
0000
0000
1000
0000
0000
1000
0000
0000
0000
0001
0001
0100
0000
0010
0000
,
1000
0000
0000
0100
0000
0000
0010
0000
0000
0000
0001
0000
1000
0000
0000
0000
,
0001
0000
0000
1000
1000
0000
0001
0000
0000
0000
0100
0000
0010
0000
0000
0000
,
1000
0000
0000
0100
0000
0000
0010
0000
0000
0000
0001
0000
1000
0010
0100
0000
,
0001
0000
0000
1000
0001
0000
0010
0000
0000
0000
0100
0100
1000
0000
0001
0000
,
0100
0100
0000
0010
0000
0010
1000
0000
0100
0000
0010
0000
0001
0000
0001
0100
,
0100
0000
0000
0010
0010
0000
1000
0000
0000
0000
0001
0010
0010
0000
0100
0000
,
1000
0000
0010
0001
0010
0000
0100
1000
0100
0000
0001
0010
0100
0000
1000
0000
,
0001
0000
1000
0100
0010
0000
0100
0000
0001
0000
0100
0000
0010
0000
0000
0000
,
0001
0000
0100
0001
0100
0000
0010
0100
0010
0000
1000
0000
0010
0100
1000
0100
,
0010
0000
0000
1000
0100
0000
0001
0000
0100
0000
0010
0000
0001
0000
1000
0000
,
0010
0000
0100
0000
1000
0000
0100
0010
0100
0000
0010
0000
0100
0000
0001
0010
,
0100
0000
0000
1000
0100
0000
0001
0000
0100
0000
1000
0000
0100
0000
0010
0000
,
0001
0100
0010
0100
1000
0000
0100
0010
0100
0000
0001
0000
1000
0000
0100
0001
,
0100
0000
0000
0010
0100
0000
0001
0000
0100
0000
1000
0000
0001
0000
0100
0000
,
0010
0000
0100
1000
0100
0000
0010
0001
0010
0000
0100
0010
1000
0000
0001
0000
;
