#VERSION:0.83;
#TITLE:Love or Die;
#SUBTITLE:;
#ARTIST:Studio LAY-BACK;
#TITLETRANSLIT:;
#SUBTITLETRANSLIT:;
#ARTISTTRANSLIT:;
#GENRE:;
#CREDIT:;
#MUSIC:Love or Die.ogg;
#BANNER:bn.png;
#BACKGROUND:bg.png;
#JACKET:;
#DISCIMAGE:;
#CDIMAGE:;
#SELECTABLE:YES;
#LYRICSPATH:;
#CDTITLE:;
#SAMPLESTART:51.461;
#SAMPLELENGTH:14.328;
#OFFSET:0.929;
#BPMS:0.000000=134.000000;
#STOPS:;
#WARPS:;
#DELAYS:;
#SPEEDS:;
#SCROLLS:;
#TICKCOUNTS:;
#TIMESIGNATURES:;
#LABELS:;
#COMBOS:;
#FAKES:;
#BGCHANGES:;
#FGCHANGES:;
#ATTACKS:;

//---------------dance-single - ---------------
#NOTEDATA:;
#CHARTNAME:;
#CHARTSTYLE:;
#CREDIT:Talkion;
#STEPSTYPE:dance-single;
#DESCRIPTION:;
#DIFFICULTY:Beginner;
#METER:2;
#METERF:2;
#RADARVALUES:0,0,0,0,0;
#NOTES:
// measure 0
0000
0000
0000
0000
,  // measure 1
0000
0000
0000
0000
,  // measure 2
0000
0000
0000
0000
,  // measure 3
0000
0000
0000
0000
,  // measure 4
0000
0000
0000
0000
,  // measure 5
0000
0000
0000
0000
,  // measure 6
1000
0000
0000
0000
,  // measure 7
0000
1000
0000
0000
,  // measure 8
0001
0000
0000
0000
,  // measure 9
0000
0001
0000
0000
,  // measure 10
1000
0000
1000
0000
,  // measure 11
0001
0000
0001
0000
,  // measure 12
1000
0000
1000
0000
,  // measure 13
0001
0000
0000
0000
,  // measure 14
1000
0000
1000
0000
,  // measure 15
0100
0000
0000
0000
,  // measure 16
0001
0000
0001
0000
,  // measure 17
0100
0000
0000
0000
,  // measure 18
1000
0000
1000
0000
,  // measure 19
0010
0000
0000
0000
,  // measure 20
0001
0000
0001
0000
,  // measure 21
0010
0000
0000
0000
,  // measure 22
1000
0000
0000
0000
,  // measure 23
1000
0000
0000
0000
,  // measure 24
0000
0000
0000
0000
,  // measure 25
0001
0000
0000
0000
,  // measure 26
1000
0000
1000
0000
,  // measure 27
0001
0000
0001
0000
,  // measure 28
0000
1000
1000
1000
,  // measure 29
0000
0000
0000
0000
,  // measure 30
0001
0000
0010
0000
,  // measure 31
0100
0000
0010
0000
,  // measure 32
0001
0000
1000
0000
,  // measure 33
0000
0001
0001
0000
,  // measure 34
1000
0000
0010
0000
,  // measure 35
0100
0000
0010
0000
,  // measure 36
1000
0000
0001
0000
,  // measure 37
1000
1000
1000
0000
,  // measure 38
0001
0000
0001
0000
,  // measure 39
1000
0000
1000
0000
,  // measure 40
0001
0000
0001
0000
,  // measure 41
0010
0000
0100
0000
,  // measure 42
1000
0000
1000
0000
,  // measure 43
0001
0000
0001
0000
,  // measure 44
1000
0000
1000
0000
,  // measure 45
0000
0000
0000
0000
,  // measure 46
0000
0000
0000
0000
,  // measure 47
0000
0000
0000
0000
,  // measure 48
0000
0000
0000
0000
,  // measure 49
0000
0000
0000
0000
,  // measure 50
0001
0000
0001
0000
,  // measure 51
1000
0000
1000
0000
,  // measure 52
0000
0001
0001
0001
,  // measure 53
0000
0000
0000
0000
,  // measure 54
0000
0000
1000
0000
0000
1000
0000
0000
,  // measure 55
0001
0000
0000
0001
0000
0000
0000
0000
,  // measure 56
0010
0000
0010
0000
,  // measure 57
0100
0000
0100
0000
,  // measure 58
0000
1000
0000
0000
,  // measure 59
0001
0000
0001
0000
,  // measure 60
1000
0000
1000
0000
,  // measure 61
0001
0000
0001
0000
,  // measure 62
1000
0000
0010
0000
,  // measure 63
0100
0000
0010
0000
,  // measure 64
1000
0000
0001
0000
,  // measure 65
0000
1000
1000
0000
,  // measure 66
0001
0000
0010
0000
,  // measure 67
0100
0000
0010
0000
,  // measure 68
0001
0000
1000
0000
,  // measure 69
0001
0001
0001
0000
,  // measure 70
1000
0000
1000
0000
,  // measure 71
0001
0000
0001
0000
,  // measure 72
1000
0000
1000
0000
,  // measure 73
0001
0000
0001
0000
;

//---------------dance-single - ---------------
#NOTEDATA:;
#CHARTNAME:;
#CHARTSTYLE:;
#CREDIT:Talkion;
#STEPSTYPE:dance-single;
#DESCRIPTION:;
#DIFFICULTY:Easy;
#METER:6;
#METERF:6;
#RADARVALUES:0,0,0,0,0;
#NOTES:
// measure 0
0000
0000
0000
0000
,  // measure 1
0000
0000
0000
0000
,  // measure 2
0000
0000
0000
0000
,  // measure 3
0000
0000
0000
0000
,  // measure 4
0000
0000
0000
0000
,  // measure 5
0000
0000
0000
0000
,  // measure 6
0002
0103
0000
0100
,  // measure 7
0000
0000
0010
0000
0000
1000
0000
0000
,  // measure 8
0002
0013
0000
0010
,  // measure 9
0000
0001
0000
0000
1000
0000
0010
0000
,  // measure 10
2000
3001
0010
0001
,  // measure 11
0100
0000
0010
0010
,  // measure 12
2000
3001
0100
0001
,  // measure 13
0010
0100
0100
0000
,  // measure 14
0010
0000
0001
0001
,  // measure 15
1000
0010
1000
0010
,  // measure 16
0100
0000
0001
0001
,  // measure 17
0000
0100
0100
0000
,  // measure 18
0001
0001
1000
1000
,  // measure 19
0001
0010
0001
0010
,  // measure 20
0100
0000
0100
0000
,  // measure 21
1000
1000
0010
0100
,  // measure 22
0001
0000
0000
0000
,  // measure 23
1000
0000
0000
0000
,  // measure 24
0001
0000
0000
0001
0000
0000
0000
0000
,  // measure 25
1000
0000
0000
1000
0000
0000
0000
0000
,  // measure 26
0001
0010
0100
0000
,  // measure 27
1000
0010
0100
0000
,  // measure 28
0001
0010
0100
1000
,  // measure 29
0000
0000
0000
0001
,  // measure 30
1000
0010
0100
0010
,  // measure 31
1000
0100
0010
0010
,  // measure 32
0001
1000
0010
0100
,  // measure 33
0000
0002
0100
1003
,  // measure 34
0001
0010
0100
0010
,  // measure 35
0001
0100
0010
0010
,  // measure 36
1000
0001
0010
0001
,  // measure 37
0100
0100
0100
0010
,  // measure 38
0000
1000
1000
0100
,  // measure 39
1000
0001
0001
0100
,  // measure 40
0000
0001
0001
1000
,  // measure 41
0100
0010
0100
1000
,  // measure 42
0000
0001
0001
0100
,  // measure 43
0001
1000
1000
0100
,  // measure 44
0000
1000
1000
0010
,  // measure 45
0100
0000
0000
0000
,  // measure 46
0001
0000
0000
0000
,  // measure 47
1000
0000
0000
0000
,  // measure 48
0001
0000
0000
0001
0000
0000
0000
0000
,  // measure 49
1000
0000
0000
1000
0000
0000
0000
0000
,  // measure 50
0001
0010
0001
0000
,  // measure 51
1000
0010
1000
0000
,  // measure 52
0001
0010
0010
0020
,  // measure 53
0030
0000
0000
0001
,  // measure 54
0000
0000
2000
0000
0000
3010
0000
0000
,  // measure 55
0002
0000
0000
0013
0000
0000
0000
0000
,  // measure 56
1000
0000
1000
0000
0000
0100
0000
0000
,  // measure 57
0001
0000
0001
0000
0000
0100
0000
0000
,  // measure 58
0000
1000
0001
1000
,  // measure 59
0010
0100
0001
0000
,  // measure 60
0010
0100
1000
0000
,  // measure 61
0010
0100
0010
1000
,  // measure 62
0001
0010
0100
0010
,  // measure 63
0001
0100
0010
0010
,  // measure 64
1000
0001
0010
0100
,  // measure 65
0000
2000
0100
3001
,  // measure 66
1000
0010
0100
0010
,  // measure 67
1000
0100
0010
0010
,  // measure 68
0001
1000
0010
1000
,  // measure 69
0100
0100
0100
0010
,  // measure 70
0002
1003
0010
1000
,  // measure 71
0100
0010
0010
0000
,  // measure 72
0002
1003
0100
1000
,  // measure 73
0010
0100
0100
0002
,  // measure 74
0003
0000
0000
0000
;

//---------------dance-single - JA- XO----------------
#NOTEDATA:;
#CHARTNAME:;
#CHARTSTYLE:;
#CREDIT:Talkion;
#STEPSTYPE:dance-single;
#DESCRIPTION:JA- XO-;
#DIFFICULTY:Medium;
#METER:10;
#METERF:10;
#RADARVALUES:0,0,0,0,0;
#NOTES:
// measure 0
0000
0000
0000
0000
,  // measure 1
0000
0000
0000
0000
,  // measure 2
0000
0000
0000
0000
,  // measure 3
0000
0000
0000
0000
,  // measure 4
0000
0000
0000
0000
,  // measure 5
0000
0000
0000
0000
,  // measure 6
2001
0000
0000
0000
3100
0000
0000
1000
0000
0000
1000
0000
0000
0001
0000
0000
,  // measure 7
0000
0000
0100
0000
0010
0000
0000
0100
0000
0000
0001
0000
0000
0001
0000
0000
,  // measure 8
2000
0000
0000
0000
3100
0000
0000
1000
0000
0000
1000
0000
0000
0001
0000
0000
,  // measure 9
0000
0100
0100
0000
0001
1000
0100
1000
,  // measure 10
0002
0000
0000
0000
0103
0000
0010
0000
1000
0000
0001
0000
0000
0001
0000
0000
,  // measure 11
0010
0000
0010
0100
0000
0100
1000
0000
,  // measure 12
0002
0000
0000
0000
0103
0000
0000
0001
0000
0000
0001
0000
0000
1000
0000
0000
,  // measure 13
0000
0000
0100
0000
0100
0000
0000
0010
0000
0000
0100
0000
0000
0000
0000
0000
,  // measure 14
2000
0000
3001
0000
1000
0010
1000
0000
,  // measure 15
0001
0011
1000
1010
,  // measure 16
0002
0000
1003
0000
0001
0010
0001
1000
,  // measure 17
0000
0000
0010
0000
0010
0000
0000
0100
0000
0000
0010
0000
0000
0000
2000
0000
,  // measure 18
0001
3000
1100
0000
1000
0001
0100
0001
,  // measure 19
1000
0000
0100
1000
0010
0100
0001
0000
,  // measure 20
2000
0000
0000
3001
0000
0000
0010
0000
0002
0000
0000
1003
0000
0000
0010
0000
,  // measure 21
0100
0001
0100
0001
0020
0000
0130
0000
,  // measure 22
2000
0000
0000
0000
,  // measure 23
3002
0000
0000
0000
,  // measure 24
1003
0000
0000
0001
0000
0000
0010
0000
0000
0001
0000
0000
1000
0000
0000
0000
,  // measure 25
0010
0000
0000
0100
0000
0000
0001
0000
0000
0010
0000
0000
0000
0000
0000
0000
,  // measure 26
0002
0000
0010
0000
1003
0010
0100
0000
,  // measure 27
0002
0000
0100
0000
1003
0100
0010
0000
,  // measure 28
0001
1000
0010
0100
0010
1000
0200
0000
,  // measure 29
0300
0000
0000
1001
,  // measure 30
1000
0000
0010
0000
0100
0000
0000
2000
0000
0000
3100
0000
0010
0000
0000
0000
,  // measure 31
1000
0000
0001
0000
0010
0000
0000
0110
0000
0000
0010
0000
0001
0000
0000
0000
,  // measure 32
1000
0000
0010
0000
0100
0000
0000
0001
0000
0000
0010
0000
0100
0000
1000
0000
,  // measure 33
0001
0000
0100
0100
0010
0000
1100
0000
,  // measure 34
0001
0000
0010
0000
0100
0000
0000
0002
0000
0000
0103
0000
0010
0000
0000
0000
,  // measure 35
0001
0000
1000
0000
0100
0000
1000
0000
0010
0000
0000
0110
0000
0000
0100
0000
,  // measure 36
0001
0010
0001
0000
1000
0010
0100
0001
,  // measure 37
1000
0000
1100
0000
0011
0000
0001
1000
,  // measure 38
0010
0000
1000
0000
0001
0000
0000
0001
0000
0000
0010
0000
0100
0000
0000
0000
,  // measure 39
0010
0000
0001
0000
1000
0000
0000
1000
0000
0000
0010
0000
0100
0000
0000
0000
,  // measure 40
0010
0000
1000
0000
0001
0000
0000
0001
0000
0000
0010
0000
0100
0000
0000
0000
,  // measure 41
2000
0000
0000
0100
0000
0000
3002
0000
0000
0100
0000
0000
1003
0000
0000
0000
,  // measure 42
0100
0000
0010
0000
0001
0000
0000
0001
0000
0000
1000
0000
0010
0000
0000
0000
,  // measure 43
0100
0000
0010
0000
1000
0000
0000
1000
0000
0000
0001
0000
0010
0000
0000
0000
,  // measure 44
0100
0000
0010
0000
0001
0000
0000
0001
0000
0000
1000
0000
0020
0000
0000
0000
,  // measure 45
0130
0020
1030
0020
,  // measure 46
0230
0000
0000
0000
,  // measure 47
0302
0000
0000
0000
,  // measure 48
1003
0000
0000
0001
0000
0000
0010
0000
0000
0001
0000
0000
1000
0000
0000
0000
,  // measure 49
0001
0000
0000
0100
0000
0000
0001
0000
0000
0100
0000
0000
0000
0000
0000
0000
,  // measure 50
0001
0000
0001
0000
1000
0100
0010
0000
,  // measure 51
0001
0000
0001
0000
1000
0010
0100
0000
,  // measure 52
0001
2000
0100
0000
0001
0000
3010
0010
,  // measure 53
0100
0000
0000
0002
,  // measure 54
0003
0000
0000
0000
1000
0000
0000
0010
0000
0000
1000
0000
0000
0001
0000
0000
,  // measure 55
0010
0000
0000
0100
0000
0000
0010
0000
0000
0000
0001
0000
0001
0000
0000
0000
,  // measure 56
2000
0000
0000
0000
3010
0000
0000
0100
0000
0000
0010
0000
0000
1000
0000
0000
,  // measure 57
0200
0000
0000
0000
0310
0000
0000
0001
0000
0000
0100
0000
0200
0000
0000
0000
,  // measure 58
0300
0000
0001
1000
0001
0000
0010
0000
,  // measure 59
0100
0010
0001
0000
1000
0000
1000
0000
,  // measure 60
0001
0000
0100
0000
0010
0100
0001
0000
,  // measure 61
1000
0100
1000
0001
1000
0010
0100
0001
,  // measure 62
0010
0000
0000
0000
0020
0000
0000
2030
0000
0000
3010
0000
0100
0000
0000
0000
,  // measure 63
1000
0000
0001
0000
0100
0000
0000
0110
0000
0000
0100
0000
0001
0000
0000
0000
,  // measure 64
1000
0000
0100
0000
0010
0000
0000
0001
0000
0000
0100
0000
0010
0000
1000
0000
,  // measure 65
0001
0000
0010
0010
0100
0000
1010
0000
,  // measure 66
0001
0000
0100
0000
0010
0000
0000
0002
0000
0000
0013
0000
0100
0000
0000
0000
,  // measure 67
0001
0000
1000
0000
0010
0000
1000
0000
0100
0000
0000
0110
0000
0000
0010
0000
,  // measure 68
0001
0100
0001
0000
1000
0100
0010
0001
,  // measure 69
1000
0000
1010
0000
0101
0000
0001
1000
,  // measure 70
0200
0000
0000
0000
0310
0000
0100
0000
1000
0000
0001
0000
0000
0001
0000
0000
,  // measure 71
0100
0000
0100
0010
0000
0010
1000
0000
,  // measure 72
0002
0000
0000
0000
0013
0000
0000
0001
0000
0000
0001
0000
0000
1000
0000
0000
,  // measure 73
0000
0000
0010
0000
0010
0000
0000
0100
0000
0000
0010
0000
0000
0000
2000
0000
,  // measure 74
3000
0000
0000
0000
;

//---------------dance-single - DS- FS- XO----------------
#NOTEDATA:;
#CHARTNAME:;
#CHARTSTYLE:;
#CREDIT:Talkion;
#STEPSTYPE:dance-single;
#DESCRIPTION:DS- FS- XO-;
#DIFFICULTY:Hard;
#METER:13;
#METERF:13;
#RADARVALUES:0,0,0,0,0;
#NOTES:
// measure 0
0000
0000
0000
0000
,  // measure 1
0000
0000
0000
0000
,  // measure 2
0000
0000
0000
0000
,  // measure 3
0000
0000
0000
0000
,  // measure 4
0000
0000
0000
0000
,  // measure 5
2000
0000
0000
3020
0000
0000
0230
0000
0301
0000
0010
0000
0001
0000
0000
0000
,  // measure 6
1002
0000
0000
0000
0203
0000
0000
0310
0000
0000
0010
0000
0000
1000
0000
0000
,  // measure 7
0002
0000
0010
0000
1003
0000
0000
0001
0000
0000
0101
0000
0000
1010
0000
0000
,  // measure 8
2001
0000
0000
0000
3100
0000
0000
0010
0000
0000
0010
0000
0000
0001
0000
0000
,  // measure 9
1000
0000
0010
0000
0010
0100
0000
0000
0001
0000
0010
0000
0001
0000
0001
0000
,  // measure 10
2000
0000
0000
0000
3010
0000
1000
0000
0100
0000
0010
0000
0000
0001
0000
0000
,  // measure 11
2000
0000
0010
0000
3001
0000
0100
0010
0000
0000
1000
0000
0100
0000
1000
0000
,  // measure 12
0002
0000
0000
0000
0103
0000
0000
0010
0000
0000
0010
0000
0000
1000
0000
0000
,  // measure 13
0002
0000
0010
0000
1003
0100
0000
0100
0000
0100
0010
0000
0000
0000
0001
0000
,  // measure 14
1002
0000
0103
0000
0001
1000
0100
1000
,  // measure 15
0001
0000
0000
0100
0010
0000
1000
0000
0001
0000
0000
0010
0100
0000
1000
0000
,  // measure 16
2001
0000
3010
0000
1000
0001
0010
0100
,  // measure 17
0010
0000
0001
0000
1000
0010
0000
0010
0000
0010
0100
0000
0001
0000
1000
0000
,  // measure 18
0200
0000
0000
0000
0000
0000
0300
00M0
0101
0000
0000
0000
0000
0000
0000
0000
0001
0000
0000
0000
1000
0000
0000
0000
0100
0000
0000
0000
1000
0000
0000
0000
,  // measure 19
0002
0000
0000
0103
0010
0000
2000
0000
0010
0000
3200
0300
0010
0000
0001
0000
,  // measure 20
2000
0000
0000
3010
0100
0000
0001
0000
2000
0000
0000
3100
0010
0000
0001
0000
,  // measure 21
1000
0000
0010
0100
0010
0000
1000
0000
0100
0000
1000
0000
0001
0000
0000
0000
,  // measure 22
1000
0000
0000
1000
0000
0000
2000
0000
0000
0000
3010
0000
0000
0000
1000
0000
,  // measure 23
0001
0000
0000
0001
0000
0000
0002
0000
0000
0000
0013
0000
0000
0000
0001
0000
,  // measure 24
1000
0000
0000
0010
0000
0000
0100
0000
0000
0010
0000
0000
1000
0000
0000
0000
,  // measure 25
0002
0000
0000
0023
0000
0000
0230
0000
0000
0302
0000
0000
0003
0000
0000
0000
,  // measure 26
0100
0010
0100
1000
0010
0100
1000
0000
,  // measure 27
0100
0010
0100
0001
0010
0100
0001
0000
,  // measure 28
0100
0000
0010
0000
0001
1000
0000
0000
0010
0100
0000
0000
0002
0000
0000
0000
,  // measure 29
0003
0000
0000
0000
0000
0000
0000
0000
1000
0000
0000
0000
1000
0000
0000
0000
0100
0000
0020
0000
0000
0000
0030
000M
1010
0000
0000
0000
0000
0000
0000
0000
,  // measure 30
0101
0000
0100
0000
0010
0100
0000
1000
0000
0100
0010
0000
2000
0000
0000
0000
,  // measure 31
3002
0000
0010
0000
1003
0001
0000
0010
0000
0100
0000
0100
0000
0000
1000
0000
,  // measure 32
0001
0000
0100
0000
0100
0000
0010
1000
0000
0010
1000
0000
0100
0000
0010
0000
,  // measure 33
0100
0000
0000
0000
0000
0000
1000
0000
0001
0000
0000
0000
0001
0000
0000
0000
0100
0000
0020
0000
0000
0000
0030
M000
0011
0000
0000
0000
0000
0000
0000
0000
,  // measure 34
1100
0000
0100
0000
0010
0100
0000
0001
0000
0100
0010
0000
0002
0000
0000
0000
,  // measure 35
2003
0000
0010
0000
3002
0000
0010
0000
1003
0000
0010
0100
0000
0100
0001
0000
,  // measure 36
1000
0000
0100
0000
0100
0000
0000
0010
0002
0000
0203
0000
2300
0000
3002
0000
,  // measure 37
0013
0100
0000
0000
0001
1000
0000
0000
0100
0010
0000
0000
0002
0000
0010
0000
,  // measure 38
1003
0000
0001
0000
0001
0000
0100
0020
0000
0100
0000
2030
0000
0000
3000
0000
,  // measure 39
0001
0000
1000
0000
1000
0000
0100
0020
0000
0100
0000
0032
0000
0000
0003
0000
,  // measure 40
1000
0000
0010
0100
0000
0001
0000
0002
0000
0000
1003
0000
0100
0010
0000
0000
,  // measure 41
0002
0000
0000
0100
0000
0000
2003
0000
0000
0100
0000
0000
3010
0000
0100
0000
,  // measure 42
0001
0000
1000
0000
1000
0000
0100
0020
0000
0000
0031
0000
0001
0000
0000
0000
,  // measure 43
1000
0000
0001
0000
0001
0000
0100
0020
0000
0100
0000
2030
0000
0000
3001
0000
,  // measure 44
0000
0000
1000
0000
1000
0000
0100
0020
0000
0100
0000
0032
0000
0000
1003
0000
,  // measure 45
0010
0200
0310
0200
,  // measure 46
0302
0000
0000
0000
,  // measure 47
2003
0000
0000
0000
,  // measure 48
3001
0000
0000
0010
0000
0000
0100
0000
0000
0010
0000
0000
0001
0000
0000
0000
,  // measure 49
1000
0000
0020
0100
0000
0000
2030
0000
0000
3010
0100
0000
0000
0000
0000
0000
,  // measure 50
0001
0100
0010
0001
0010
0100
0001
0000
,  // measure 51
1000
0100
0010
1000
0010
0100
1000
0000
,  // measure 52
0100
0000
0010
0000
0001
1000
0000
0000
0010
0100
0000
0000
0002
0000
0100
0000
,  // measure 53
1003
0000
0000
0000
0000
0000
0000
0000
0000
0000
0000
0000
0001
1000
0001
0000
,  // measure 54
0010
0000
0000
0000
0002
0000
0000
0010
0000
0000
2003
0000
0000
0010
0000
0000
,  // measure 55
3200
0000
0000
0010
0000
0000
2300
0000
0000
0000
3010
0000
0100
0000
0001
0000
,  // measure 56
0020
0000
0000
0000
0230
0000
0000
0001
0000
0000
0320
0000
0000
1000
0000
0000
,  // measure 57
0130
0000
1000
0000
0020
0000
0000
0001
0000
0000
0230
0000
0302
0000
0000
0000
,  // measure 58
0003
0000
1000
0100
1000
0001
0010
0001
,  // measure 59
0100
0010
1000
0001
0010
0100
1000
0000
,  // measure 60
0001
0100
0001
1000
0010
1000
0100
0010
,  // measure 61
0001
0010
0100
0001
1000
0010
0100
1000
,  // measure 62
1010
0000
0000
0000
0021
0000
0000
1030
0000
0010
0100
0000
2000
0000
0000
0000
,  // measure 63
3002
0000
0100
0000
1003
0001
0000
0100
0000
0010
0000
0010
0000
0000
1000
0000
,  // measure 64
0001
0000
0010
0000
0010
0000
0100
1000
0000
0100
1000
0000
0010
0000
0100
0000
,  // measure 65
0010
0000
0000
0000
0000
0000
1000
0000
0001
0000
0000
0000
0001
0000
0000
0000
0010
0000
0200
0000
0000
0000
0300
M000
0101
0000
0000
0000
0000
0000
0000
0000
,  // measure 66
1010
0000
0010
0000
0100
0010
0000
0001
0000
0010
0100
0000
0002
0000
0000
0000
,  // measure 67
2003
0000
0100
0000
3020
0000
0100
0000
1030
0000
0001
0010
0000
0010
0100
0000
,  // measure 68
1000
0000
0010
0000
0010
0000
0000
0100
0002
0000
0023
0000
2030
0000
3002
0000
,  // measure 69
0103
0010
0000
0000
0001
1000
0000
0000
0010
0100
0000
0000
0002
0000
0100
0000
,  // measure 70
2003
0000
0000
0000
3100
0000
1000
0000
0010
0000
0100
0000
0000
0001
0000
0000
,  // measure 71
2000
0100
3002
0203
2300
3100
0001
1000
,  // measure 72
0002
0000
0000
0000
0013
0000
0000
0100
0000
0000
0100
0000
0000
1000
0000
0000
,  // measure 73
0002
0000
0100
0000
1003
0010
0000
0010
0000
0010
0100
0000
0001
0000
0020
0000
,  // measure 74
0030
0000
0000
0000
;

//---------------dance-single - DS- KS- XO----------------
#NOTEDATA:;
#CHARTNAME:;
#CHARTSTYLE:;
#CREDIT:Talkion;
#STEPSTYPE:dance-single;
#DESCRIPTION:DS- KS- XO-;
#DIFFICULTY:Challenge;
#METER:15;
#METERF:15;
#RADARVALUES:0,0,0,0,0;
#NOTES:
// measure 0
0000
0000
0000
0000
,  // measure 1
0000
0000
0000
0000
,  // measure 2
0000
0000
0000
0000
,  // measure 3
0000
0000
0000
0000
,  // measure 4
0000
0000
0000
0000
,  // measure 5
2000
0000
0000
3020
0000
0000
0230
0000
0301
0010
0100
0010
0001
0000
0000
0000
,  // measure 6
1002
0000
0000
0000
0203
0000
0000
0310
0000
0100
0010
0000
1000
0001
0010
0100
,  // measure 7
2000
0000
0100
0000
3001
1000
0000
0010
0100
0000
0101
0000
0000
1010
0000
0000
,  // measure 8
2001
0000
0000
0000
3200
0000
0000
0310
0000
0000
0010
0001
1000
0001
0100
0010
,  // measure 9
1000
0000
0100
0010
0100
0010
0000
0001
0100
0010
1000
0000
0010
0100
0001
0000
,  // measure 10
2001
0000
0000
0000
3100
0010
0001
0010
0100
0000
1000
0000
0001
1000
0010
0100
,  // measure 11
0002
0000
0100
0000
1003
0000
0001
0010
0001
0000
1000
0010
1000
0100
0010
0002
,  // measure 12
1000
0000
0000
0000
0103
0000
0000
0010
0100
0010
1000
0000
0001
0010
0000
0100
,  // measure 13
0010
0000
0001
1000
0020
0100
0000
1000
0000
0130
0010
0000
0000
0000
1000
0000
,  // measure 14
2001
0000
3100
0100
1000
0010
0100
0010
,  // measure 15
1000
0001
0000
0010
0100
0000
0010
0000
0001
1000
0000
0010
0100
0010
1000
0000
,  // measure 16
2001
0000
3100
0100
1000
0010
0100
0010
,  // measure 17
1000
0000
0001
0010
0200
0010
0000
1000
0000
0310
0100
0000
1000
0000
0001
0000
,  // measure 18
0200
0000
0000
0000
0000
0000
0300
00M0
1100
0000
0000
0000
0000
0000
0000
0000
0001
0000
0000
0000
1000
0000
0000
0000
0100
0000
0000
0000
1000
0000
0000
0000
,  // measure 19
0002
0000
0000
0103
0010
0000
1000
0010
0100
0001
0010
0001
0100
0010
1000
0000
,  // measure 20
0002
0000
0000
0013
0100
0000
2000
0000
0100
0000
3001
0000
1000
0000
0001
0000
,  // measure 21
0100
0000
0010
0100
0001
0000
0100
0010
1000
0100
0010
0001
1000
0000
0000
0000
,  // measure 22
0001
0100
0000
0001
0100
0000
0001
0200
0000
0000
0310
0000
0000
0000
1000
0000
,  // measure 23
0001
0010
0000
0001
0010
0000
0001
0020
0000
0000
0130
0000
0000
0000
1000
0001
,  // measure 24
1000
0000
0000
0010
0000
0000
0100
0000
0000
0010
0000
0000
1000
0000
0001
0010
,  // measure 25
0200
0000
0000
2300
0000
0000
3020
0000
0000
0032
0000
0000
0003
0000
0000
0000
,  // measure 26
0010
0100
0000
0001
0000
0010
0000
0002
0000
0100
0000
2003
0000
0000
3001
0000
,  // measure 27
0010
0100
0000
1000
0000
0010
0000
2000
0000
0100
0000
3002
0000
0000
1003
0000
,  // measure 28
0010
0000
0010
0000
0100
0000
0100
0000
0001
1000
0100
0010
0001
1000
0010
0100
,  // measure 29
0000
0000
0000
0000
0000
0000
0000
0000
0001
0000
0000
0000
1000
0000
0000
0000
0200
0000
0010
0000
0000
0000
0300
00M0
0101
0000
0000
0000
0000
0000
0000
0000
,  // measure 30
1001
0000
1000
0010
0200
0010
0000
1000
0000
0310
0100
0000
0001
1000
0100
0010
,  // measure 31
0002
0000
0010
0000
1003
0001
0000
0100
0000
0010
0000
0010
0000
1000
0100
1000
,  // measure 32
0001
0000
0100
0001
0100
0001
0000
0010
0000
0100
0010
0001
0100
0010
1000
0000
,  // measure 33
0001
0000
0000
0000
0000
0000
1000
0000
0100
0000
1000
0000
0001
0000
0000
0000
0200
0000
0010
0000
0000
0000
0300
00M0
1100
0000
0000
0000
0000
0000
0000
0000
,  // measure 34
1001
0000
0001
0010
0200
0010
0000
0001
0000
0310
0100
0000
1000
0001
0100
0010
,  // measure 35
2000
0000
0010
0000
3002
0000
0010
0000
1003
0000
0010
0100
0000
0001
0020
0000
,  // measure 36
0001
0000
0130
1000
0100
1000
0000
0010
0100
0001
1000
0001
0010
0100
0010
0001
,  // measure 37
0200
0000
0010
0000
0000
0000
0300
00M0
0200
0000
1000
0000
0000
0000
0300
M000
0200
0000
0010
0000
0000
0000
0300
0000
0002
0000
0000
0000
0100
0000
0000
0000
,  // measure 38
1003
0000
0001
0010
0001
0000
0010
0200
0000
0010
0000
0302
0000
0000
0103
0010
,  // measure 39
0001
0000
1000
0010
1000
0000
0010
0200
0000
0010
0000
2300
0000
0000
3100
0010
,  // measure 40
1000
0000
0001
0010
0000
0100
0000
0100
0000
1000
0001
0000
0100
0010
0000
0000
,  // measure 41
2000
0000
3010
0002
0000
0013
2000
0000
3100
0002
0000
0103
2000
0000
3000
0000
,  // measure 42
1001
0000
0001
0100
0001
0000
0100
0020
0000
0000
0032
0000
0013
0100
0000
0100
,  // measure 43
0001
0000
1000
0100
1000
0000
0100
0020
0000
0100
0000
2030
0000
0000
3010
0100
,  // measure 44
1000
0000
0001
0100
0001
0000
0100
0020
0000
0100
0000
0032
0000
0000
0013
0000
,  // measure 45
2000
0010
3002
0010
,  // measure 46
2003
0000
0000
0000
,  // measure 47
3002
0000
0000
0000
,  // measure 48
1003
0000
0000
0010
0000
0000
0100
0000
0000
0010
0000
0000
2000
0000
0000
0000
,  // measure 49
3001
0000
0020
0100
0000
0000
0032
0000
0000
0013
0100
0000
0000
0000
0000
0000
,  // measure 50
1000
0000
0010
0100
0000
0010
0000
2000
0000
0100
0000
3001
0000
0100
0010
1000
,  // measure 51
0001
0000
0010
0100
0000
0010
0000
0002
0000
0100
0000
1003
0000
0100
0010
0001
,  // measure 52
1000
0000
0010
0000
1000
0000
0001
0000
0020
0000
0100
0000
0000
0000
0030
0M00
0020
0000
1000
0000
0000
0000
0030
M000
0010
0000
0100
0000
0010
0000
0001
0000
,  // measure 53
0100
0000
0000
0000
0000
0000
0001
0100
0000
0100
0010
0000
1000
0100
0010
0000
,  // measure 54
0001
0000
0000
0000
0201
0000
0000
1000
0000
0000
0320
0000
0000
0001
0000
0000
,  // measure 55
2030
0000
0000
3100
0000
0100
0010
0000
0000
0001
0100
0010
0000
1000
0100
1000
,  // measure 56
0002
0000
0000
0000
0023
0000
0000
1000
0000
0000
0230
0000
0000
0001
0000
0000
,  // measure 57
1300
0100
1000
0010
0200
0000
0000
1000
0000
0000
0302
0000
0023
0000
0000
0000
,  // measure 58
0030
0000
0000
0000
0001
1000
0010
0100
0010
0000
1000
0000
0001
1000
0100
0010
,  // measure 59
0001
1000
0001
0100
0010
0000
1000
0100
0000
0100
0010
0000
0001
0100
0000
0000
,  // measure 60
0001
0000
1000
0100
1000
0100
0000
0010
0100
1000
0001
1000
0010
0100
0001
0000
,  // measure 61
1000
0001
0010
0100
1000
0001
0100
0001
0010
0100
0010
0001
0100
0010
0100
0001
,  // measure 62
0010
0000
0001
0000
0020
0100
0000
1000
0000
0130
0010
0000
0001
1000
0010
0100
,  // measure 63
0002
0000
0100
0000
1003
0001
0000
0010
0000
0100
0000
0100
0000
1000
0010
1000
,  // measure 64
0001
0000
0010
0001
0010
0001
0000
0100
0000
0010
0100
0001
0010
0100
1000
0000
,  // measure 65
0001
0000
0000
0000
0000
0000
1000
0000
0010
0000
1000
0000
0001
0000
0000
0000
0020
0000
0100
0000
0000
0000
0030
0M00
1010
0000
0000
0000
0000
0000
0000
0000
,  // measure 66
1001
0000
0001
0100
0020
0100
0000
0001
0000
0130
0010
0000
1000
0001
0010
0100
,  // measure 67
2000
0000
0100
0000
3020
0000
0100
0000
1030
0000
0100
0010
0000
0001
0200
0000
,  // measure 68
0001
0000
0310
1000
0010
1000
0000
0100
0010
0001
1000
0001
0100
0010
0100
0001
,  // measure 69
0020
0000
0100
0000
0000
0000
0030
0M00
0020
0000
1000
0000
0000
0000
0030
M000
0020
0000
0100
0000
0000
0000
0030
0000
0002
0000
0000
0000
0010
0000
0000
0000
,  // measure 70
2003
0000
0000
0000
3010
0100
0001
0100
0010
0000
1000
0000
0001
1000
0100
0010
,  // measure 71
0002
0000
0010
0000
1003
0010
1000
0100
0010
0000
0001
0010
0001
0100
0010
2000
,  // measure 72
0001
0000
0000
0000
3100
0000
0000
0010
0100
0010
0001
0000
1000
0010
0000
0100
,  // measure 73
0010
0000
1000
0001
0020
0100
0000
0001
0000
0130
0010
0000
0001
0000
0200
0000
,  // measure 74
0300
0000
0000
0000
;

//---------------dance-double - DS- KS- XO----------------
#NOTEDATA:;
#CHARTNAME:;
#CHARTSTYLE:;
#CREDIT:Talkion;
#STEPSTYPE:dance-double;
#DESCRIPTION:DS- KS- XO-;
#DIFFICULTY:Challenge;
#METER:15;
#METERF:15;
#RADARVALUES:0,0,0,0,0;
#NOTES:
// measure 0
00000000
00000000
00000000
00000000
,  // measure 1
00000000
00000000
00000000
00000000
,  // measure 2
00000000
00000000
00000000
00000000
,  // measure 3
00000000
00000000
00000000
00000000
,  // measure 4
00000000
00000000
00000000
00000000
,  // measure 5
00020000
00000000
00000000
00030200
00000000
00000000
00002300
00000000
00003010
00010000
00001000
00010000
00000100
00000000
00000000
00000000
,  // measure 6
00012000
00000000
00000000
00000000
02003000
00000000
00000000
03010000
00000000
01000000
00100000
00000000
10000000
00100000
01000000
00010000
,  // measure 7
20000000
00000000
01000000
00000000
30010000
00100000
00000000
00001000
00010000
00000000
00010010
00000000
00000000
00010010
00000000
00000000
,  // measure 8
00021000
00000000
00000000
00000000
00030200
00000000
00000000
00000310
00000000
00000000
00000010
00000001
00001000
00000001
00000100
00000010
,  // measure 9
00001000
00000000
00000100
00010000
00000100
00010000
00000000
00001000
00100000
00001000
00010000
00000000
00001000
00010000
00000010
00000000
,  // measure 10
00002010
00000000
00000000
00000000
00003100
00010000
00001000
00010000
00000010
00000000
00001000
00000000
00000001
00000100
00000010
00001000
,  // measure 11
00000002
00000000
00000010
00000000
00001003
00000000
00000100
00010000
00001000
00000000
00010000
00001000
00010000
00001000
00100000
00000000
,  // measure 12
00120000
00000000
00000000
00000000
10030000
00000000
00000000
00010000
01000000
00100000
01000000
00000000
00010000
00100000
00000000
00010000
,  // measure 13
00100000
00000000
00001000
00000000
00020000
00001000
00000000
00000100
00000000
00031000
00010000
00000000
00000000
00000000
00001000
00000000
,  // measure 14
00021000
00000000
00030010
00000010
00001000
00000001
00001000
00000100
,  // measure 15
00000010
00000100
00000000
00001000
00000001
00000000
00000100
00000000
00000010
00000100
00000000
00000001
00001000
00000100
00010000
00000000
,  // measure 16
00002000
00000000
00103000
00100000
00010000
10000000
00010000
01000000
,  // measure 17
00100000
00000000
01000000
00000000
00002000
00010000
00000000
01000000
00000000
00013000
00001000
00000000
00010000
00000000
00000010
00000000
,  // measure 18
00002000
00000000
00000000
00000000
00000000
00000000
00003000
00000M00
00011000
00000000
00000000
00000000
00000000
00000000
00000000
00000000
00001000
00000000
00000000
00000000
00100000
00000000
00000000
00000000
00010000
00000000
00000000
00000000
00100000
00000000
00000000
00000000
,  // measure 19
00002000
00000000
00000000
00013000
00001000
00000000
02000000
00000000
03010000
01000000
00100000
01000000
00010000
00100000
00001000
00000000
,  // measure 20
00020000
00000000
00000000
00030100
00001000
00000000
00000200
00000000
00001000
00000000
00010300
00000000
00000100
00000000
00001000
00000000
,  // measure 21
00000001
00000000
00000010
00000100
00001000
00000000
00000100
00010000
00001000
01000000
00010000
01000000
00001000
00000000
00000000
00000000
,  // measure 22
00010000
00001000
00000000
00010000
00001000
00000000
00010000
00002000
00000000
00000000
01003000
00000000
00000000
00000000
00000000
00000000
,  // measure 23
00001000
00010000
00000000
00001000
00010000
00000000
00001000
00020000
00000000
00000000
00030100
00000000
00000000
00000000
00010000
00001000
,  // measure 24
00010000
00000000
00000000
00000010
00000000
00000000
00001000
00000000
00000000
00000010
00000000
00000000
00010000
00000000
00001000
00010000
,  // measure 25
00002000
00000000
00000000
00203000
00000000
00000000
02300000
00000000
00000000
03020000
00000000
00000000
00030000
00000000
00000000
00000000
,  // measure 26
00001000
00010000
00000000
00000010
00000000
00001000
00000000
00000020
00000000
00000100
00000000
00002030
00000000
00000000
00003100
00000000
,  // measure 27
00010000
00001000
00000000
00100000
00000000
00010000
00000000
00200000
00000000
01000000
00000000
00320000
00000000
00000000
01030000
00000000
,  // measure 28
00001000
00000000
00001000
00000000
00010000
00000000
00010000
00000000
00000100
00001000
00000100
00010000
00001000
01000000
00010000
01000000
,  // measure 29
00000000
00000000
00000000
00000000
00000000
00000000
00000000
00000000
00100000
00000000
00000000
00000000
01000000
00000000
00000000
00000000
00020000
00000000
10000000
00000000
00000000
00000000
00030000
M0000000
00011000
00000000
00000000
00000000
00000000
00000000
00000000
00000000
,  // measure 30
00001000
00000000
00010000
00000010
00010000
00002000
00000000
00000010
00000000
00013000
00001000
00000000
00010000
00000100
00001000
00000000
,  // measure 31
00000002
00000000
00000100
00000000
00001003
00000001
00000000
00000100
00000000
00000010
00000000
00000010
00000000
00010000
00000000
00000000
,  // measure 32
00001000
00000000
00100000
00010000
00100000
00001000
00000000
00010000
00000000
00001000
01000000
00010000
00100000
01000000
10000000
00000000
,  // measure 33
00010000
00000000
00000000
00000000
00000000
00000000
00100000
00000000
00001000
00000000
00010000
00000000
00000100
00000000
00000000
00000000
00002000
00000000
00000001
00000000
00000000
00000000
00003000
0000000M
00011000
00000000
00000000
00000000
00000000
00000000
00000000
00000000
,  // measure 34
00010000
00000000
00001000
00100000
00001000
00020000
00000000
00100000
00000000
00031000
00010000
00000000
00001000
01000000
00010000
00000000
,  // measure 35
20000000
00000000
01000000
00000000
30020000
00000000
01000000
00000000
10030000
00000000
01000000
00100000
00000000
00001000
00020000
00000000
,  // measure 36
00001000
00000000
00030010
00010000
00001000
00010000
00000000
00000100
00020000
00000000
00032000
00000000
00003200
00000000
00020300
00000000
,  // measure 37
00032000
00000000
00000010
00000000
00000000
00000000
00003000
000000M0
00002000
00000000
00010000
00000000
00000000
00000000
00003000
000M0000
00002000
00000000
00000010
00000000
00000000
00000000
00003000
00000000
00000002
00000000
00000000
00000000
00000010
00000000
00000000
00000000
,  // measure 38
00001003
00000000
00000100
00010000
00000100
00000000
00010000
00002000
00000000
00010000
00000000
00003200
00000000
00000000
00000310
00000100
,  // measure 39
00001000
00000000
00010000
00001000
01000000
00000000
00001000
00020000
00000000
00001000
00000000
02030000
00000000
00000000
03100000
01000000
,  // measure 40
00010000
00000000
00001000
00010000
00000000
00000100
00000000
00000100
00000000
00010000
00001000
00000000
01000000
00100000
00000000
00000000
,  // measure 41
00020000
00000000
00031000
00200000
00000000
01300000
00020000
00000000
00031000
02000000
00000000
03100000
00020000
00000000
00030000
00000000
,  // measure 42
00011000
00000000
00001000
00100000
00001000
00000000
00010000
00002000
00000000
00000000
00003020
00000000
00000130
00000010
00000000
00000010
,  // measure 43
00001000
00000000
00010000
00001000
00100000
00000000
00001000
00020000
00000000
00001000
00000000
00230000
00000000
00000000
01300000
00100000
,  // measure 44
00010000
00000000
00001000
00010000
00000010
00000000
00010000
00002000
00000000
00010000
00000000
00003020
00000000
00000000
00001030
00000000
,  // measure 45
00020000
00000100
00032000
01000000
,  // measure 46
00023000
00000000
00000000
00000000
,  // measure 47
00032000
00000000
00000000
00000000
,  // measure 48
00013000
00000000
00000000
00000100
00000000
00000000
00001000
00000000
00000000
00000100
00000000
00000000
00010000
00000000
00000000
00000000
,  // measure 49
00001000
00000000
02000000
00010000
00000000
00000000
03002000
00000000
00000000
01003000
00010000
00000000
00000000
00000000
00000000
00000000
,  // measure 50
10000000
00000000
01000000
00100000
00000000
00001000
00000000
00020000
00000000
00001000
00000000
00030100
00000000
00001000
00000100
00001000
,  // measure 51
00000001
00000000
00000100
00000010
00000000
00010000
00000000
00002000
00000000
00010000
00000000
01003000
00000000
00010000
01000000
00010000
,  // measure 52
10000000
00000000
01000000
00000000
00100000
00000000
00000000
00000000
00020000
00000000
01000000
00000000
00000000
00000000
00030000
0M000000
00020000
00000000
00001000
00000000
00000000
00000000
00030000
0000M000
00010000
00000000
01000000
00000000
00010000
00000000
01000000
00000000
,  // measure 53
00001000
00000000
00000000
00000000
00000000
00000000
00010000
00001000
00000000
00001000
00010000
00000000
00000100
00001000
00000100
00000000
,  // measure 54
00010000
00000000
00000000
00000000
00012000
00000000
00000000
00000100
00000000
00000000
00023000
00000000
00000000
00100000
00000000
00000000
,  // measure 55
00032000
00000000
00000000
00003010
00000000
00000010
00000100
00000000
00000000
00001000
00000010
00000100
00000000
00001000
00010000
00001000
,  // measure 56
00200000
00000000
00000000
00000000
00320000
00000000
00000000
00001000
00000000
00000000
00230000
00000000
00000000
10000000
00000000
00000000
,  // measure 57
01300000
00100000
00010000
01000000
00020000
00000000
00000000
00001000
00000000
00000000
02030000
00000000
03002000
00000000
00000000
00000000
,  // measure 58
00003000
00000000
00000000
00000000
00010000
00000010
00001000
00000001
00001000
00000000
00000100
00000000
00001000
00000001
00001000
00000010
,  // measure 59
00000100
00000001
00001000
00000100
00010000
00000000
00001000
01000000
00000000
01000000
00100000
00000000
01000000
00010000
00000000
00000000
,  // measure 60
10000000
00000000
01000000
00100000
01000000
00100000
00000000
00010000
00100000
01000000
10000000
00010000
01000000
00001000
00010000
00000000
,  // measure 61
00001000
01000000
00001000
00010000
00000100
00001000
00000001
00001000
00000010
00000100
00000010
00001000
00000100
00000010
00000100
00001000
,  // measure 62
00000010
00000000
00010000
00000000
00000010
00002000
00000000
00010000
00000000
00003010
00001000
00000000
00000010
00010000
00001000
00000000
,  // measure 63
00200000
00000000
00010000
00000000
01300000
10000000
00000000
00010000
00000000
00100000
00000000
00100000
00000000
00001000
00000000
00000000
,  // measure 64
00010000
00000000
00000010
00001000
00000010
00010000
00000000
00001000
00000000
00010000
00000100
00001000
00000010
00000100
00000001
00000000
,  // measure 65
00001000
00000000
00000000
00000000
00000000
00000000
00000010
00000000
00010000
00000000
00001000
00000000
01000000
00000000
00000000
00000000
00020000
00000000
10000000
00000000
00000000
00000000
00030000
M0000000
00011000
00000000
00000000
00000000
00000000
00000000
00000000
00000000
,  // measure 66
00001000
00000000
00010000
00001000
00100000
00020000
00000000
00001000
00000000
00130000
00010000
00000000
00100000
00001000
00010000
00000000
,  // measure 67
00000020
00000000
00000100
00000000
00002030
00000000
00000100
00000000
00003010
00000000
00000100
00000010
00000000
00010000
00002000
00000000
,  // measure 68
00010000
00000000
00103000
00001000
00010000
00001000
00000000
01000000
00002000
00000000
00023000
00000000
02030000
00000000
03002000
00000000
,  // measure 69
00023000
00000000
00100000
00000000
00000000
00000000
00030000
0M000000
00020000
00000000
00001000
00000000
00000000
00000000
00030000
0000M000
00020000
00000000
00100000
00000000
00000000
00000000
00030000
00000000
20000000
00000000
00000000
00000000
00100000
00000000
00000000
00000000
,  // measure 70
30020000
00000000
00000000
00000000
01030000
00001000
00010000
00001000
00100000
00000000
00010000
00000000
10000000
00100000
01000000
00010000
,  // measure 71
20000000
00000000
00100000
00000000
30010000
00100000
00010000
01000000
00001000
00000000
00010000
00000010
00001000
00000100
00001000
00000000
,  // measure 72
00002010
00000000
00000000
00000000
00003001
00000000
00000000
00001000
00000100
00000010
00000100
00000000
00001000
00000010
00000000
00001000
,  // measure 73
00000010
00000000
00010000
00000000
00002000
00010000
00000000
01000000
00000000
00013000
00001000
00000000
00010000
00000000
02000000
00000000
,  // measure 74
03000000
00000000
00000000
00000000
;
