#TITLE:Lost wing at.0;
#SUBTITLE:;
#ARTIST:猫叉Master+;
#TITLETRANSLIT:;
#SUBTITLETRANSLIT:;
#ARTISTTRANSLIT:Nekomata Master+;
#GENRE:;
#CREDIT:;
#MUSIC:Lost wing at.0.ogg;
#BANNER:;
#BACKGROUND:;
#CDTITLE:;
#SAMPLESTART:80.932;
#SAMPLELENGTH:15.000;
#SELECTABLE:YES;
#OFFSET:0.798;
#BPMS:0.000=185.000;
#STOPS:;
#BGCHANGES:0.000=Lost wing at.0.mp4=1.000=0=0=0=StretchNoLoop====,
99999.000=-nosongbg-=1.000=0=0=0=StretchNoLoop====
;
#FGCHANGES:;

//--------------- dance-single - Princess Pamela ----------------
#NOTES:
     dance-single:
     Princess Pamela:
     Easy:
     7:
     0,0,0,0,0:
0000
0000
0000
0000
,
0000
0000
0000
0000
,
0000
0000
0000
0000
,
0000
0000
0000
0000
,
0000
0000
0000
0000
,
0000
0000
0000
0000
,
0000
0000
0000
0000
,
0000
0000
0000
0000
,
1000
0000
0000
0001
0000
0000
1000
0000
,
0000
0020
0000
0000
0000
0000
0000
0000
,
0000
0000
0030
0000
,
0001
0000
0000
1000
0000
0000
0001
0000
,
0000
0020
0000
0000
0000
0000
0030
0000
,
0200
0000
0000
0300
,
2002
0000
0000
0000
,
0000
0000
0000
0000
,
3003
0000
0000
0000
,
1000
0100
0000
0100
,
1000
0001
0000
0001
,
1000
0010
0000
0010
,
0100
0100
0001
0000
,
2002
3003
1000
0001
,
2000
3000
0010
0000
,
0200
0300
0001
0100
,
0001
0001
0010
0000
,
1001
0000
1000
0200
,
0300
1000
0001
2000
,
3000
0010
0100
0020
,
0030
0100
0100
0001
,
0000
1000
0001
2000
,
3000
0001
0010
0200
,
0000
1300
0001
2000
,
3000
0010
0010
0100
,
0002
0000
0000
0013
,
0200
0000
0000
1300
,
0020
0000
0000
0130
,
0001
0001
0100
0010
,
1000
0200
0000
1300
,
0002
0000
0000
0103
,
0020
0000
0000
1030
,
0001
0001
1000
0001
,
0020
0000
0000
0000
,
0100
0100
0130
0000
,
1000
0000
0000
1001
0000
0000
0001
0000
,
0000
0001
0000
0000
0100
0000
0000
0000
,
0020
0000
0000
0030
0000
0000
0020
0000
,
0000
0030
0000
0000
0000
0000
0000
0000
,
2000
0000
0000
3000
0000
0000
2000
0000
,
0000
3000
0000
0000
0000
0000
0000
0000
,
0002
0000
0000
0003
0000
0000
0002
0000
,
0000
0003
0000
0000
0000
0000
0000
0000
,
0200
0000
0000
0300
0000
0000
0200
0000
,
0000
0300
0000
0000
0001
0000
1000
0000
,
0200
0000
1000
0000
,
1000
0000
0310
0000
,
0002
0000
0010
0000
,
0010
0000
1003
0000
,
1001
0000
0110
0000
,
0001
0000
1001
0000
,
1000
0000
0000
1000
0000
0000
0001
0000
,
0000
0001
0000
0000
0100
0000
0010
0000
,
0100
0000
0000
0100
0000
0000
0100
0000
0000
0000
0000
0000
0010
0000
0000
0010
,
0000
0010
0000
0000
0000
0000
0000
0000
,
2000
0100
0100
3002
,
0100
0100
2003
0100
,
0100
3002
0100
0100
,
1003
0100
0010
0001
,
2000
0000
0000
3000
,
0010
1000
0001
0020
,
0000
0001
0000
0031
,
0000
1000
0001
1000
,
0002
0100
0100
2003
,
0100
0100
3002
0100
,
0103
0010
1000
0010
,
0100
0001
1000
0200
,
0000
1000
0000
1300
,
0100
0010
0001
0020
,
0000
0001
0000
0031
,
2000
0000
3002
0000
,
0103
0000
0000
0010
0000
0000
1000
0000
,
0000
2002
0000
0000
0000
0000
0000
0000
,
0000
0000
3003
0000
,
0001
0000
0000
0010
0000
0000
0100
0000
,
0000
2002
0000
0000
0000
0000
0000
0000
,
0000
0000
3003
0000
,
1000
0000
0000
0001
0000
0000
1000
0000
,
0000
0220
0000
0000
0000
0000
0000
0000
,
0000
0000
0330
0000
,
0001
0000
0000
1000
0000
0000
0001
0000
,
0000
0220
0000
0000
0000
0330
0000
0000
,
2002
0000
0000
3003
,
0220
0000
0000
0000
,
0000
0000
0000
0000
,
0000
0000
0000
0000
,
0330
0000
0000
0000
;

//--------------- dance-single - Princess Pamela ----------------
#NOTES:
     dance-single:
     Princess Pamela:
     Medium:
     11:
     0,0,0,0,0:
0000
0000
0000
0000
,
0000
0000
0000
0000
,
0000
0000
0000
0000
,
0000
0000
0000
0000
,
0000
0000
0000
0000
,
0000
0000
0000
0000
,
0000
0000
0000
0000
,
0000
0000
0000
0000
,
0002
0000
0003
0020
0000
0030
0200
0000
,
0300
2002
0000
0000
0000
0000
0000
0000
,
0000
0000
3003
0000
,
2000
0000
3000
0020
0000
0030
0200
0000
,
0300
2002
0000
0000
0000
0000
3003
0000
,
0220
0000
0000
0000
0000
0330
0000
0001
,
2000
0000
0000
0000
0000
0000
0000
0001
,
0000
0000
0001
0000
0000
3010
0000
0010
,
0100
0000
0100
0000
0010
0100
0010
0000
,
1000
0000
0100
0000
0000
1000
0100
0000
,
0010
0000
0001
0000
0000
0010
0001
0000
,
0100
0000
0010
0000
0000
0100
0000
0001
,
0000
0001
0000
0010
0000
0100
0000
1000
,
0001
0000
0200
0000
0300
0001
0100
0000
,
0010
0000
2000
0000
3000
0010
1000
0000
,
0100
0000
0020
0000
0030
0100
0000
0010
,
0000
0001
0000
1000
0000
0001
1000
0000
,
1001
0000
0001
0000
0010
0100
0020
0000
,
0030
0000
0001
0000
0100
0010
0200
0000
,
0300
0000
0001
0000
1000
0100
0000
0100
,
0000
1000
0000
0010
0000
0100
0001
0000
,
1001
0000
1000
0000
0010
0100
0020
0000
,
0030
0000
1000
0000
0100
0010
0200
0000
,
0000
0000
1300
0000
0001
0000
0100
0010
,
0000
0010
0000
0100
0000
0010
0100
0000
,
1002
0000
0100
0100
,
1000
1000
0010
0010
,
1000
0000
1000
0003
0100
0001
0000
0001
,
0000
0010
0000
0100
0000
1000
0001
0000
,
2001
0000
0100
0100
,
0001
0001
0010
0010
,
0001
0000
0001
3000
0100
1000
0000
1000
,
0000
0010
0000
0100
0000
0001
0000
1000
,
0001
0000
0001
1000
0000
1000
0001
0000
,
0001
0100
0000
0100
0000
0100
0000
0000
,
0001
0000
0000
0001
0000
0000
0010
0000
0000
0000
0000
0000
0100
0000
0000
0100
,
0000
1000
0000
0000
0020
0000
0030
0000
,
2000
0000
0000
0001
0000
0000
3001
0000
0000
0000
0000
0000
2000
0000
0000
0001
,
0000
3001
0000
0000
1000
0000
0001
0000
,
0100
0000
0000
0010
0000
0000
2000
0000
0000
0000
3000
0000
0100
0000
0000
0010
,
0000
0002
0000
0003
0100
0000
0100
0000
,
0001
0000
0000
1000
0000
0000
2000
0000
0000
0000
3000
0000
0001
0000
0000
1000
,
0000
2000
0000
3000
0100
0000
0010
0000
,
0001
0000
0000
0100
0000
0000
0020
0000
0000
0000
0030
0000
1000
0000
0000
0100
,
0000
0020
0000
0030
0002
0000
2003
0000
,
3010
0000
0000
0100
0000
0000
0010
0000
0000
0000
0000
0000
0010
0000
0000
0100
,
0000
0010
0000
1000
0002
0000
2003
0000
,
3100
0000
0000
0010
0000
0000
0100
0000
0000
0000
0000
0000
0100
0000
0000
0010
,
0000
0100
0000
0000
1000
0000
0001
0000
,
0101
1000
1100
0000
,
1010
0001
0011
1000
,
0010
0000
0000
0100
0000
0000
0110
0000
0000
0000
0000
0000
0010
0000
0000
0100
,
0000
0110
0000
0000
1000
0001
1000
0001
,
2000
0000
0000
0100
0000
0000
3100
0000
0000
0000
0000
0000
0002
0000
0000
0100
,
0000
0103
0000
0000
0000
0000
0000
0000
,
2000
0000
3100
0010
0100
0000
0002
0000
,
0103
0010
0100
0000
2000
0000
3100
0010
,
0100
0000
0002
0000
0103
0010
0100
0000
,
2000
3002
0203
0320
,
2030
0000
0000
0000
0000
0000
3000
0001
,
0020
0230
2300
3020
,
0100
0000
0100
0000
0000
1000
0000
1030
,
0000
0010
0100
0000
0010
0000
1001
0000
,
0002
0000
0103
0010
0100
0000
2000
0000
,
3100
0010
0100
0000
0002
0000
0103
0010
,
0200
0302
0023
0230
,
2300
3002
0103
0220
,
0000
0000
0000
0000
0330
0000
0000
0001
,
2000
3200
0320
0032
,
0000
0000
0100
0000
0103
0000
0001
1000
,
0002
0010
0100
0103
,
1000
0000
1000
0100
0000
0100
0010
0000
,
0010
0002
0000
0000
0000
0000
0000
0000
,
0100
0103
0001
0100
,
0001
0000
0001
0010
0000
0010
0100
0000
,
0100
2000
0000
0000
0010
0000
0000
0000
,
0001
0000
3001
0000
1000
0001
1000
0000
,
0001
0000
0001
0100
0000
0100
0010
0000
,
0010
2000
0000
0000
0000
0000
0000
0000
,
0100
0000
3100
0000
1000
0001
1000
0001
,
1000
0000
1000
0010
0000
0010
0100
0000
,
0100
0002
0000
0000
0000
0000
0003
0000
,
0220
0000
0000
0330
0100
0000
0001
1000
,
0200
0000
0000
0000
,
0000
0000
0000
0000
,
0000
0000
0000
0000
,
0300
0000
0000
0000
;

//--------------- dance-single - Princess Pamela ----------------
#NOTES:
     dance-single:
     Princess Pamela:
     Hard:
     15:
     0,0,0,0,0:
0000
0000
0000
0000
,
0000
0000
0000
0000
,
0000
0000
0000
0000
,
0000
0000
0000
0000
,
0000
0000
0000
0000
,
0000
0000
0000
0000
,
0000
0000
0000
0000
,
0000
0000
0000
0000
0000
0000
0000
0000
0000
0000
0000
0000
0000
0000
1000
0100
,
0020
0000
0031
0200
0000
0310
2000
0000
,
3100
1002
0000
0000
0010
0000
0010
0000
,
0010
0000
0000
0000
0013
0000
0000
0000
0001
1000
0001
1000
0001
0000
0100
0010
,
2000
0000
3100
0020
0000
0031
0200
0000
,
0310
1002
0000
0000
0010
0000
0013
0000
,
1200
0000
0000
1000
0000
0000
0310
0000
0000
1000
0100
0010
,
0002
0000
0000
0010
0000
0000
0000
1000
,
0000
0000
1000
0000
0000
0103
0000
0000
,
0110
0000
0110
0000
0010
1000
0001
0000
,
1001
0000
1000
0100
0010
0100
1100
0000
,
0011
0000
0001
0100
0001
0100
0110
0000
,
1010
0000
0001
1000
0100
1100
0000
0011
,
0000
0100
0001
0100
0000
0010
1010
0000
,
1000
0100
0002
0000
0103
1000
0001
0100
,
0010
0100
2000
0000
3100
0001
0100
0000
,
0010
0001
0020
0000
1030
0010
1000
0001
,
0000
0011
0000
1100
0000
0100
0110
0000
,
1001
0000
0000
0000
0001
0000
0010
0000
0100
1000
0100
0000
0010
0000
0000
0000
,
1100
0000
0000
0000
1000
0000
0001
0000
0100
0001
0100
0000
0010
0000
0000
0000
,
0101
0000
0100
0010
0100
0001
0010
0200
,
0000
0000
1300
0001
1000
0000
0100
0000
0000
0000
0010
0000
1001
0000
0000
0000
,
0110
0000
0000
0000
0001
0000
0100
0000
0010
1000
0010
0000
0100
0000
0000
0000
,
1001
0000
0000
0000
1000
0000
0100
0000
0010
0001
0010
0000
0200
0000
0000
0000
,
1000
0000
0310
0001
0100
0010
1000
0200
,
0000
0000
1300
0001
1000
0000
0010
0000
0000
0000
0110
0000
0000
0000
0001
0000
,
0010
0000
0100
0000
0010
0000
0100
0000
1000
0000
0100
0000
0010
0000
0001
1000
,
0001
0000
0100
0000
0010
0000
0100
0000
0001
0000
0010
0000
0100
0000
1000
0100
,
1000
0001
0100
0001
1000
0100
0000
1100
,
0000
0001
0010
0011
0000
0100
0110
0000
,
1000
0000
0001
0000
0100
0000
0001
0000
0100
0000
0010
0000
1000
0000
0001
1000
,
0001
0000
0010
0000
0100
0000
1000
0000
0010
0000
0100
0000
0001
0000
0100
0001
,
0100
0010
1000
0001
1000
0100
0000
1100
,
0000
0001
0010
0110
0000
1100
0000
0001
,
0100
0000
0010
0100
0010
0000
1000
0000
0010
0100
0010
0000
1000
0000
0001
0000
,
0010
0000
0100
1000
0100
0000
0010
0000
0001
1000
0001
0000
0010
0000
0000
0000
,
0011
0000
0000
0110
0000
0000
1100
0000
0000
0000
0000
0000
1010
0000
0000
0110
,
0000
0000
0101
0000
0000
0000
0000
0000
1000
0001
1000
0001
1000
0000
0001
0000
,
2000
0000
0000
0100
0000
0000
3002
0000
0000
0000
0003
0000
2000
0000
0000
0100
,
0000
3002
0000
0003
1000
0100
0010
0001
,
0200
0000
0000
0010
0000
0000
0302
0000
0000
0000
0003
0000
0200
0000
0000
0010
,
0000
0302
0000
0003
0001
0100
0001
0100
,
0002
0000
0000
1000
0000
0000
0023
0000
0000
0000
0030
0000
0002
0000
0000
1000
,
0000
0023
0000
0030
0001
0010
0100
1000
,
0200
0000
0000
0010
0000
0000
2300
0000
0000
0000
3000
0000
0200
0000
0000
0010
,
0000
2300
0000
3001
0010
0100
1000
0010
,
0100
0000
0001
0100
0001
0000
0100
0000
0010
0100
0010
0000
1000
0000
0001
0000
,
0010
0100
1000
0010
0200
0000
0302
0000
,
1003
0000
0100
1000
0100
0000
0010
0000
0100
1000
0100
0000
0010
0000
0001
0000
,
1000
0010
0200
0000
0301
0000
0100
0010
,
0110
0000
0000
0100
0001
0000
0100
0000
0010
0000
0000
0000
0110
0000
0000
0010
,
1000
0000
0010
0000
0100
0000
0001
1000
0002
0000
0000
0000
0013
0000
0000
0000
,
1100
0000
0000
1001
0000
0000
1010
0000
0000
0000
0001
0100
0001
0000
0000
1001
,
0000
0000
0011
0000
0000
0000
0010
0000
0100
1000
0100
1000
0001
0000
0100
0000
,
0110
0000
0000
1010
0000
0000
0101
0000
0000
0000
0001
1000
0001
0000
0000
0011
,
0000
1100
0000
0000
0000
0000
0000
0000
,
1000
0000
0100
0010
0100
0000
0001
0000
0100
0000
1000
0000
0001
0000
0100
0010
,
0100
0000
1000
0000
0100
0000
0001
0000
1000
0000
0100
0010
0100
0000
0001
0000
,
0100
0000
1000
0000
0001
0000
0100
0010
0100
0000
1000
0000
0100
0000
0001
0000
,
0010
0100
1000
0010
0001
1000
0100
0001
,
0020
0000
0000
0000
0100
0000
0000
0000
0001
0000
0000
0000
0130
0000
0010
0100
,
1000
0001
1000
0010
0001
0010
2000
0000
,
0001
0000
0010
0000
3001
1000
0100
1000
,
0000
0000
0001
0100
0001
0000
1000
0000
0010
0000
0000
0000
1001
0000
0000
0000
,
0001
0000
0010
0100
0010
0000
1000
0000
0010
0000
0001
0000
1000
0000
0010
0100
,
0010
0000
0001
0000
0010
0000
1000
0000
0001
0000
0010
0100
0010
0000
1000
0000
,
0010
0000
0001
0000
0100
0000
0010
0000
1000
0001
1000
0001
1000
0000
0100
0000
,
0001
0000
0100
0000
1000
0000
0001
0000
0010
0001
0010
0100
2000
0000
0000
0000
,
0100
0000
0000
0000
0001
0000
0000
0000
3100
0000
1000
0000
0001
0000
0100
0010
,
1000
0001
1000
0100
0001
0100
0020
0000
,
0001
0000
0000
0000
0100
0000
0000
0000
0031
0000
1000
0000
0100
0000
1000
0001
,
1000
0000
0010
0000
0100
0000
0001
1000
0001
1000
0001
1000
0001
0000
0000
0000
,
2000
0000
3100
0120
0000
0031
0201
0000
,
0310
1002
0000
0000
0010
0000
0010
0000
,
0010
0000
0000
0000
0010
0000
0000
0000
0010
0000
0000
0000
1003
0000
0001
0010
,
0200
0000
1300
1020
0000
0130
1002
0000
,
0013
0021
0000
0000
0100
0000
0100
0000
,
0100
0000
0000
0000
0130
0000
1000
0000
0001
1000
0001
1000
0001
0000
0100
0000
,
0020
0000
1030
1200
0000
0310
0012
0000
,
0103
2001
0000
0000
0010
0000
0010
0000
,
0010
0000
0000
0000
3010
0000
1000
0000
0001
0100
0001
0100
0010
0000
0100
0000
,
0020
0000
1030
1200
0000
0310
0012
0000
,
0103
2001
0000
0000
0010
0000
3010
0000
,
0201
0000
0000
0001
0000
0000
0310
0000
0000
0001
0010
0100
,
2000
0000
0000
0000
,
0000
0000
0000
0000
,
0000
0000
0000
0000
,
3000
0000
0000
0000
;

//--------------- dance-double - Princess Pamela ----------------
#NOTES:
     dance-double:
     Princess Pamela:
     Hard:
     15:
     0,0,0,0,0:
00000000
00000000
00000000
00000000
,
00000000
00000000
00000000
00000000
,
00000000
00000000
00000000
00000000
,
00000000
00000000
00000000
00000000
,
00000000
00000000
00000000
00000000
,
00000000
00000000
00000000
00000000
,
00000000
00000000
00000000
00000000
,
00000000
00000000
00000000
00000000
00000000
00000000
00000000
00000000
00000000
00000000
00000000
00000000
00000000
00000000
00010000
00001000
,
00020000
00000000
00030100
00000020
00000000
00000130
00002000
00000000
,
00003010
00021000
00000000
00000000
00100000
00000000
00100000
00000000
,
00100000
00000000
00000000
00000000
00130000
00000000
00000000
00000000
00010000
00001000
00010000
00001000
00010000
00000000
00001000
00010000
,
00002000
00000000
01003000
00200000
00000000
01300000
00020000
00000000
,
00130000
00012000
00000000
00000000
00000010
00000000
00003010
00000000
,
00000012
00000000
00000000
00001000
00000000
00000000
00001003
00000000
00000000
00000001
00000100
00000010
,
00002000
00000000
00000000
00000100
00000000
00000000
00000000
00000001
,
00000000
00000000
00000001
00003000
00000000
00001000
00000010
00000000
,
00011000
00000000
00011000
00000000
00010000
00100000
10000000
00000000
,
10000000
01000000
00100000
01000000
00100000
01000000
11000000
00000000
,
00110000
00000000
00001000
00010000
00001000
00010000
00000010
00000000
,
00000100
00000001
00000100
00000001
00000010
00000110
00000000
00001100
,
00000000
00001000
00000010
00010000
00000000
00001000
00011000
00000000
,
00010000
01000000
20000000
00000000
31000000
00010000
00001000
00000000
,
00010000
00100000
20000000
00000000
30100000
00010000
00001000
00000000
,
00000100
00000001
00000200
00000000
00000310
00010000
00001000
00010000
,
00000000
00011000
00000000
00101000
00000000
00010000
01010000
00000000
,
10100000
00000000
00000000
00000000
10000000
00000000
01000000
00000000
00100000
00010000
00100000
00000000
00001000
00000000
00000000
00000000
,
00011000
00000000
00000000
00000000
00000010
00000000
00001000
00000000
00000100
00001000
00000100
00000000
00000010
00000000
00000000
00000000
,
00000011
00000000
00000001
00000100
00000001
00000010
00000100
00020000
,
00000000
00000000
00031000
00100000
00001000
00000000
00010000
00000000
00000000
00000000
00001000
00000000
00000000
00000000
01000000
00000000
,
01100000
00000000
00000000
00000000
00100000
00000000
10000000
00000000
01000000
10000000
01000000
00000000
00100000
00000000
00000000
00000000
,
00011000
00000000
00000000
00000000
00000100
00000000
00010000
00000000
00001000
00010000
00001000
00000000
00000020
00000000
00000000
00000000
,
00000000
00000000
00000031
00001000
00000001
00000100
00001000
00020000
,
00000000
00000000
00030010
00001000
00000010
00000000
00010000
00000000
00000000
00000000
00011000
00000000
00000000
00000000
00001000
00000000
,
01000000
00000000
00010000
00000000
01000000
00000000
00010000
00000000
00100000
00000000
01000000
00000000
10000000
00000000
00100000
10000000
,
00100000
00000000
01000000
00000000
00010000
00000000
01000000
00000000
00001000
00000000
00010000
00000000
00001000
00000000
00100000
00010000
,
00100000
01000000
10000000
01000000
00010000
00001000
00000000
00011000
,
00000000
00000010
00001000
00001100
00000000
00000001
00000010
00000100
,
00001000
00000000
00000100
00000000
00000001
00000000
00000100
00000000
00000010
00000000
00001000
00000000
00010000
00000000
00001000
00010000
,
00001000
00000000
00100000
00000000
00010000
00000000
10000000
00000000
00100000
00000000
01000000
00000000
10000000
00000000
01000000
10000000
,
01000000
00100000
01000000
00100000
00010000
00001000
00000000
00011000
,
00000000
00000000
00010000
00000000
00100000
00000000
00010000
00000000
00001000
00000000
00010000
00001000
00010000
00000000
00000010
00000000
,
00001000
00000000
00000100
00001000
00000100
00000000
00000010
00000000
00000001
00000010
00000001
00000000
00000100
00000000
00001000
00000000
,
00010000
00000000
00001000
00010000
00001000
00000000
01000000
00000000
00010000
01000000
00010000
00000000
00100000
00000000
00000000
00000000
,
10000000
00000000
00000000
00010000
00000000
00000000
00011000
00000000
00000000
00000000
00000000
00000000
00000001
00000000
00000000
00001000
,
00000000
00000000
00011000
00000000
00000000
00000000
00000000
00000000
00010000
00001000
00010000
00001000
00010000
00000000
00001000
00000000
,
01000000
00000000
00000000
00100000
00000000
00000000
00020000
00000000
00000000
00000000
00030000
00000000
00001000
00000000
00000000
00000100
,
00000000
00000020
00000000
00000030
00001000
00001000
00000001
00001000
,
00000001
00000000
00000000
00000010
00000000
00000000
00002000
00000000
00000000
00000000
00003000
00000000
00010000
00000000
00000000
00100000
,
00000000
20000000
00000000
30000000
00010000
00010000
10000000
00010000
,
00100000
00000000
00000000
01000000
00000000
00000000
00020000
00000000
00000000
00000000
00030000
00000000
00001000
00000000
00000000
00000010
,
00000000
00000200
00000000
00000300
00001000
00001000
00000001
00001000
,
00000001
00000000
00000000
00000100
00000000
00000000
00002000
00000000
00000000
00000000
00003000
00000000
00010000
00000000
00000000
01000000
,
00000000
20000000
00000000
30000000
00100000
01000000
00100000
01000000
,
10000000
01000000
00100000
00010000
00001000
00000010
00000100
00000001
,
00000100
00000010
00000001
00000100
00002000
00000000
00023000
00000000
,
00031000
00000100
00000010
00000100
00000001
00000010
00000100
00000010
,
00001000
00010000
00100000
01000000
00100000
00000000
10000000
00010000
,
10000000
00000000
00000000
01000000
00000000
00000000
00010000
00000000
00011000
00000000
00000000
00000000
00001000
00000000
00000000
00000010
,
00000000
00000000
00000001
00000000
00000100
00000000
00000010
00000100
00000020
00000000
00000000
00000000
00001030
00000000
00000000
00000000
,
00010100
00000000
00000000
00011000
00000000
00000000
00000010
00000000
00000000
00000000
00010000
00001000
00010000
00000000
00000000
00011000
,
00000000
00000000
00100000
00000000
00000000
00000000
00010000
00000000
01000000
00010000
01000000
00010000
01000000
00000000
00100000
00000000
,
10000000
00000000
00000000
11000000
00000000
00000000
00110000
00000000
00000000
00000000
00001000
00010000
00001000
00000000
00000000
00010010
,
00000000
00001010
00000000
00000000
00000000
00000000
00000000
00000000
,
00000001
00000000
00000100
00000010
00000100
00000000
00001000
00000000
00010000
00000000
00100000
00000000
10000000
00000000
01000000
00100000
,
01000000
00000000
00010000
00000000
00001000
00000000
00000010
00000000
00000001
00000000
00000100
00000010
00000100
00000000
00001000
00000000
,
00010000
00000000
00100000
00000000
10000000
00000000
01000000
00100000
01000000
00000000
00010000
00000000
00001000
00000000
00000010
00000000
,
00000100
00000001
00000100
00000010
00001000
00010000
00100000
10000000
,
00200000
00000000
00000000
00000000
01000000
00000000
00000000
00000000
00010000
00000000
00000000
00000000
01300000
00000000
00100000
01000000
,
10000000
01000000
00100000
00010000
00001000
00000010
00000200
00000000
,
00000001
00000000
00000010
00000000
00001300
00000100
00000010
00000100
,
00000000
00000000
00010000
00001000
00010000
00000000
00001000
00000000
00100000
00000000
00000000
00000000
10010000
00000000
00000000
00000000
,
10000000
00000000
01000000
00100000
01000000
00000000
00010000
00000000
00001000
00000000
00000010
00000000
00000001
00000000
00000100
00000010
,
00000100
00000000
00001000
00000000
00010000
00000000
00100000
00000000
10000000
00000000
01000000
00100000
01000000
00000000
00010000
00000000
,
00001000
00000000
00000100
00000000
00000001
00000000
00000100
00000000
00000010
00000100
00000010
00000100
00000010
00000000
00001000
00000000
,
00000100
00000000
00000001
00000000
00000100
00000000
00010000
00000000
00001000
00000000
00010000
00000010
00002000
00000000
00000000
00000000
,
00000001
00000000
00000000
00000000
00010000
00000000
00000000
00000000
00003001
00000000
00001000
00000000
00000010
00000000
00010000
00001000
,
00010000
01000000
00100000
10000000
00100000
01000000
00020000
00000000
,
00001000
00000000
00000000
00000000
00000100
00000000
00000000
00000000
00031000
00000000
00010000
00000000
00000010
00000000
00001000
00000010
,
00001000
00000000
00000100
00000000
00010000
00000000
00001000
00010000
00001000
00010000
00001000
00010000
00001000
00000000
00000000
00000000
,
00100000
10000000
00100000
00010000
00001000
00000100
00000001
00000100
,
00000010
00002001
00000000
00000000
00000010
00000000
00010000
00000000
,
00000010
00000000
00000001
00000000
00003010
00000000
00010000
00001000
,
00000010
00000001
00000010
00001000
00010000
01000000
10000000
01000000
,
00100000
10020000
00000000
00000000
00100000
00000000
00001000
00000000
,
00100000
00000000
00000000
00000000
10000000
00000000
00000000
00000000
00130000
00000000
00000000
00000000
00001000
00000000
00010000
00001000
,
00010000
00000010
00000100
00001000
00000100
00000010
00010000
00000100
,
00000010
00002001
00000000
00000000
00000100
00000000
00010000
00000000
,
00000100
00000000
00000000
00000000
00003001
00000000
00001000
00000000
00000100
00010000
00000100
00010000
00001000
00000000
00010000
00000000
,
00001000
01000000
00100000
00010000
00100000
01000000
00001000
00100000
,
01000000
10020000
00000000
00000000
00100000
00000000
00031000
00000000
,
00012000
00000000
00000000
00000000
00000000
00000000
00003100
00000000
00000000
00001000
00000001
00001000
,
00000020
00000230
00002300
00023000
,
00230000
00320000
00032000
00003200
,
00001300
00010000
00100000
01000000
00100000
00010000
00001000
00000100
;
