#TITLE:Lose My Mind;
#SUBTITLE:i lost my mind charting this;
#ARTIST:KNOWER;
#TITLETRANSLIT:;
#SUBTITLETRANSLIT:;
#ARTISTTRANSLIT:;
#GENRE:;
#CREDIT:SPACE GOBLIN!!!;
#MUSIC:KNOWER - LOSE MY MIND - 2min cut.mp3;
#BANNER:losemymind-banner.png;
#BACKGROUND:losemymind-bg.png;
#CDTITLE:losemymind-jacket.png;
#SAMPLESTART:52.642;
#SAMPLELENGTH:12.945;
#SELECTABLE:YES;
#OFFSET:-0.029;
#BPMS:0.000=145.962
,96.000=146.000
;
#STOPS:;
#BGCHANGES:;
#FGCHANGES:;

//--------------- dance-single - 10, but no jumps ----------------
#NOTES:
     dance-single:
     10, but no jumps:
     Easy:
     9:
     0,0,0,0,0:
0000
0000
0000
0000
,
0000
0000
0000
0000
,
0000
0000
0000
0000
,
0000
0000
0000
0000
0000
0000
0000
1000
,
0002
0000
0000
0000
0000
0000
0000
0000
0000
0000
0000
0000
0000
0003
0000
0000
,
0020
0000
0000
0000
0100
0000
0000
0000
0100
0000
0000
0000
0000
0030
0000
0000
,
0002
1000
1000
1003
,
0001
1000
0001
0002
,
1003
0100
0010
0001
0000
1000
0010
0100
,
0001
0000
1000
0000
0001
0100
0001
0000
,
1000
0100
0010
0001
0000
1000
0010
1000
,
0002
0000
0000
0000
0000
0000
0000
0000
0000
0000
0000
0000
0000
0000
0000
0003
,
1000
0100
0010
0001
0000
1000
0010
0100
,
0001
0000
1000
0000
0001
0100
0001
0000
,
1000
0100
0010
0001
1000
0000
0010
0100
,
0020
0000
0000
0000
0000
0000
0000
0030
0000
0000
0000
0000
0002
0003
0000
0000
,
1000
0100
0010
0001
0000
1000
0010
0100
,
0001
0000
1000
0000
0001
0100
0001
0000
,
1000
0100
0010
0001
0000
1000
0010
0100
,
0002
0000
0000
0000
0100
0000
0000
0000
0100
0000
0000
0003
0100
0000
0000
0000
,
1000
0000
0100
0000
0010
0000
0002
0003
0000
0000
1000
0000
0100
0000
0010
0000
,
0002
0003
0000
0000
1000
0000
0000
0000
0001
0000
0100
0000
0002
0003
0000
0000
,
1000
0100
0010
0100
2000
0000
3001
0100
,
0020
0000
0000
0000
0000
0000
0000
0030
1000
0000
0100
0000
0010
0000
0001
0000
,
2000
0001
0001
0001
,
0001
0000
0000
0000
3002
0000
0000
0003
2000
0000
0000
0000
0000
0000
0000
0000
,
0000
3002
1000
1000
,
1000
0000
0000
0000
1000
0000
0000
0000
1000
0000
0000
0003
0000
0000
0001
0000
,
2000
0000
0010
0000
0010
0000
0010
3000
,
2000
0000
0000
3000
0200
0000
0300
0000
0020
0000
0000
0030
0000
0000
0000
0000
,
0001
0000
0000
0000
0002
0003
0000
0000
0100
0000
0000
0000
0010
0000
0000
0000
,
0002
0100
0103
0001
,
1000
0000
0000
0100
0000
0000
0010
0000
0001
0000
0000
0000
0002
0000
0000
0000
,
1003
0000
0000
0100
0000
0000
0010
0000
0001
0000
0000
0000
0002
0000
0000
0000
,
1003
0000
0000
0010
0000
0000
0100
0000
0001
0000
0000
0000
0200
0000
0000
0000
,
0310
0000
0010
0000
1000
0001
2000
0000
,
3001
0000
0000
0100
0000
0000
0010
0000
1000
0000
0000
0000
0020
0000
0000
0000
,
0130
0000
0000
0001
0000
0000
0010
0000
0100
0000
2000
0000
3001
0000
0000
0000
,
1000
0000
0000
0010
0000
0000
0100
0000
1000
0000
0001
0000
0100
0000
0000
0000
,
0002
0000
0003
0000
1000
0100
0010
0000
,
2000
3000
0000
0000
0002
0003
0000
0000
1000
0000
0001
0000
1000
0000
0000
0000
,
0010
0100
0001
1000
0100
0010
0001
0000
,
2000
3000
0000
0000
0002
0003
0000
0000
1000
0000
0001
0000
0100
0000
0000
0000
,
0010
1000
0100
0010
0002
0000
1003
0000
,
0100
0000
0000
0010
0000
0000
0200
0000
1300
0000
0001
0000
0100
0000
0000
0000
,
0010
0000
0000
0100
0000
0000
0020
0000
1030
0000
0100
0000
0020
0000
0000
0000
,
1030
0000
0000
0001
0000
0000
0100
0000
0010
0000
2000
0000
3001
0000
0000
0000
,
0010
0000
0000
0100
0000
0000
0010
0000
0001
0000
1000
0000
0001
0000
0000
0000
,
2000
3000
0000
0000
0002
0003
0000
0000
1000
0000
0010
0000
1000
0000
0000
0000
,
0001
0100
0010
1000
0100
0010
0001
0000
,
2000
3000
0000
0000
0002
0003
0000
0000
1000
0000
0100
0000
0010
0000
0000
0000
,
2000
3000
0000
0000
0001
0000
1000
0000
0020
0030
0000
0000
0200
0300
0000
0000
,
0001
0000
0000
1000
0000
0000
0100
0000
0010
0000
0002
0000
1003
0000
0000
0000
,
0001
0000
0000
0100
0000
0000
0010
0000
1000
0000
0100
0000
0020
0000
0000
0000
,
0031
0000
0000
1000
0000
0000
0010
0000
0100
0000
0010
0000
2000
0000
0000
0000
,
3001
0000
0010
0000
0100
0000
1000
0000
0001
0000
1000
0000
0002
0003
0000
0000
,
2000
3000
0000
0000
0001
0000
0000
0000
1000
0000
0100
0000
0010
0000
0001
0000
,
1000
0010
0100
0001
1000
0100
1000
0001
,
0100
0000
0001
0000
1000
0000
0100
0000
0010
0000
0001
0000
2000
3000
0000
0000
,
0001
0000
0000
0100
0000
0000
0020
0000
0000
0000
0000
0000
1030
0000
0000
0000
,
0001
0000
0000
0000
1000
0000
0010
0000
0100
0000
0001
0000
2000
3000
0000
0000
,
0002
0003
0000
0000
1000
0000
0100
0000
1000
0000
0001
0000
0100
0000
0001
0000
,
2000
0000
0000
0000
3001
0000
1000
0000
0020
0000
0000
0030
0200
0000
0000
0300
,
0002
0000
1003
0100
0010
0001
2000
0000
,
0000
0000
0000
0000
0000
0000
0000
0000
0000
0000
0000
3000
0000
0000
0000
0000
,
0000
0000
0000
0000
0001
1000
0020
0000
,
0000
0000
0000
0030
0000
0000
0000
0000
1000
0000
0001
0000
0200
0000
0000
0000
,
0000
0000
0000
0300
0001
0010
0100
0000
,
0000
0000
0000
0000
1000
0001
0200
0000
,
0001
0000
0000
0300
0001
1000
0100
0000
,
0020
0000
0000
0000
0031
0100
0010
0000
,
2000
0000
0000
0000
0000
0000
0000
0000
3001
0000
0100
0000
0020
0030
0000
0000
,
2000
0000
0000
3000
0001
1000
0002
0000
,
0000
0000
0000
0000
0000
0000
0000
0003
0000
0000
0000
0000
0000
0000
0000
0000
;

//--------------- dance-single - SPACE GOBLIN!!! ----------------
#NOTES:
     dance-single:
     SPACE GOBLIN!!!:
     Medium:
     10:
     0,0,0,0,0:
0000
0000
0000
0000
,
0000
0000
0000
0000
,
0000
0000
0000
0000
,
0000
0000
0000
0000
0000
0000
0000
1000
,
0002
0000
0000
0000
0000
0000
0000
0000
0000
0000
0000
0000
0000
0003
0000
0000
,
0020
0000
0000
0000
0100
0000
0000
0000
0001
0000
0000
0000
0000
0030
0000
0000
,
0002
0000
0000
0000
1000
0000
0000
0000
0010
0000
0000
0000
1000
0000
0000
0003
,
0100
0000
1000
0000
0001
0100
0002
0000
,
1003
0100
0010
0001
0000
1000
0010
0100
,
0001
0000
1000
0000
0001
0100
0001
0000
,
1000
0100
0010
0001
0000
1000
0010
1000
,
0002
0000
0000
0000
0000
0000
0000
0000
0000
0000
0000
0000
0000
0000
0000
0003
,
1000
0100
0010
0001
0000
1000
0010
0100
,
0001
0000
1000
0000
0001
0100
0001
0000
,
1000
0100
0010
0001
1000
0000
0010
0100
,
0020
0000
0000
0000
0000
0000
0000
0030
0000
0000
0000
0000
2002
3003
0000
0000
,
1000
0100
0010
0001
0000
1000
0010
0100
,
0001
0000
1000
0000
0001
0100
0001
0000
,
1000
0100
0010
0001
0000
1000
0010
0100
,
0002
0000
0000
0000
0100
0000
0000
0000
1000
0000
0000
0003
0100
0000
0000
0000
,
1000
0000
0100
0000
0010
0000
0002
0003
0000
0000
1000
0000
0010
0000
0100
0000
,
0002
0003
0000
0000
1000
0000
0000
0000
0001
0000
0100
0000
0002
0003
0000
0000
,
1000
0100
0010
0100
2000
0000
3001
0100
,
0020
0000
0000
0000
0000
0000
0000
0030
1000
0000
0100
0000
0010
0000
0001
0000
,
2000
0000
0000
0000
0002
0003
0000
0000
0020
0030
0000
0000
0002
0003
0000
0000
,
0200
0300
0000
0000
3002
0000
0000
0003
2000
0000
0000
0000
0000
0000
0000
0000
,
0000
0000
0000
0000
3002
0000
0000
0000
0020
0030
0000
0000
2000
3000
0000
0000
,
0020
0030
0000
0000
2000
3000
0000
0000
0200
0300
0000
0003
0000
0000
0001
0000
,
2000
0000
0000
0000
0020
0030
0000
0000
0002
0003
0000
0000
0020
0030
3000
0000
,
0002
0000
0000
0003
0200
0000
0300
0000
0020
0000
0000
0030
0000
0000
0000
0000
,
2000
0000
0000
0000
0002
0003
0000
0000
3020
0030
0000
0000
0200
0300
0000
0000
,
0002
0000
0000
0000
0200
0300
0000
0000
2003
3000
0000
0000
1001
0000
0000
0000
,
1000
0000
0000
0100
0000
0000
0010
0000
0001
0000
1000
0000
0002
0000
0000
0000
,
1003
0000
0000
0100
0000
0000
0010
0000
0001
0000
0100
0000
0020
0000
0000
0000
,
1030
0000
0000
0010
0000
0000
0100
0000
0001
0000
1000
0000
0200
0000
0000
0000
,
0310
0100
0010
0100
1000
0001
2000
0000
,
3001
0000
0000
0100
0000
0000
0010
0000
1000
0000
0001
0000
0020
0000
0000
0000
,
0130
0000
0000
1000
0000
0000
0010
0000
0100
0000
0002
0000
1003
0000
0000
0000
,
0001
0000
0000
0010
0000
0000
0100
0000
1000
0000
0001
0000
0100
0000
0000
0000
,
2002
0000
3003
0000
1000
0100
0010
0000
,
2002
3003
0000
0000
0220
0330
0000
0000
1000
0000
0001
0000
1000
0000
0000
0000
,
0010
0100
0001
1000
0100
0010
0001
0000
,
2200
3300
0000
0000
0202
0303
0000
0000
1000
0000
0001
0000
0100
0000
0000
0000
,
0010
1000
0100
0010
0002
0000
1003
0000
,
0100
0000
0000
0010
0000
0000
0200
0000
1300
0000
0001
0000
0100
0000
0000
0000
,
0010
0000
0000
0100
0000
0000
0020
0000
1030
0000
0100
0000
0020
0000
0000
0000
,
1030
0000
0000
0001
0000
0000
0100
0000
0010
0000
2000
0000
3001
0000
0000
0000
,
0010
0000
0000
0100
0000
0000
0010
0000
0001
0000
1000
0000
0001
0000
0000
0000
,
2002
3003
0000
0000
0220
0330
0000
0000
0001
0000
0010
0000
0001
0000
0000
0000
,
1000
0100
0010
0001
0100
0010
1000
0000
,
2020
3030
0000
0000
0022
0033
0000
0000
1000
0000
0100
0000
0010
0000
0000
0000
,
2002
3003
0000
0000
0001
0000
1000
0000
0202
0303
0000
0000
2200
3300
0000
0000
,
0001
0000
0000
1000
0000
0000
0100
0000
0010
0000
0002
0000
1003
0000
0000
0000
,
0001
0000
0000
0100
0000
0000
0010
0000
1000
0000
0100
0000
0020
0000
0000
0000
,
0031
0000
0000
1000
0000
0000
0010
0000
0100
0000
0010
0000
2000
0000
0000
0000
,
3001
0000
0010
0000
0100
0000
1000
0000
0001
0000
1000
0000
0002
0003
0000
0000
,
2002
3003
0000
0000
0110
0000
0000
0000
1000
0000
0100
0000
0010
0000
0001
0000
,
1000
0010
0100
0001
1000
0100
1000
0001
,
0100
0000
0001
0000
1000
0000
0100
0000
0010
0000
0001
0000
2000
3000
0000
0000
,
0001
0000
0000
0100
0000
0000
0020
0000
0000
0000
0000
0000
1030
0000
0000
0000
,
1001
0000
0000
0000
1000
0000
0010
0000
0100
0000
0001
0000
2200
3300
0000
0000
,
0202
0303
0000
0000
1000
0000
0100
0000
1000
0000
0001
0000
0100
0000
0001
0000
,
2000
0000
0000
0000
3001
0000
1000
0000
0020
0000
0000
0030
0200
0000
0000
0300
,
0002
0000
1003
0100
0010
0001
2000
0000
,
0000
0000
0000
0000
0000
0000
0000
0000
0000
0000
0000
3000
0000
0000
0000
0000
,
0000
0000
0000
0000
0001
1000
0020
0000
,
0000
0000
0000
0030
0000
0000
0000
0000
1000
0000
0001
0000
0200
0000
0000
0000
,
0000
0000
0000
0300
0001
0010
0100
0000
,
0000
0000
0000
0000
1000
0001
0200
0000
,
0001
0000
0000
0300
0001
1000
0100
0000
,
0020
0000
0000
0000
0031
0100
0010
0000
,
2000
0000
0000
0000
0000
0000
0000
0000
3001
0000
0100
0000
0020
0030
0000
0000
,
2000
0000
0000
3000
0001
1000
0002
0000
,
0000
0000
0000
0000
0000
0000
0000
0003
0000
0000
0000
0000
0000
0000
0000
0000
;

//--------------- dance-single - SPACE GOBLIN!!! ----------------
#NOTES:
     dance-single:
     SPACE GOBLIN!!!:
     Challenge:
     15:
     0,0,0,0,0:
0000
0000
0000
0000
,
1000
0000
0000
0100
0000
0000
0010
0000
0000
0001
0000
0000
1000
0000
0000
0000
,
0001
0000
0000
0100
0000
0000
0010
0000
0000
1000
0000
0000
0010
0000
0000
0000
,
1000
0000
0000
0001
0000
0000
0010
0000
0000
0100
0000
0000
1000
0000
0001
0000
,
0200
0000
0000
0000
0010
0000
0000
0000
0302
0000
0000
0000
1000
0000
0000
0103
,
0020
0000
0000
0000
1000
0000
0000
0000
0230
0000
0000
0000
0000
0000
0000
0301
,
2000
0000
0000
0000
0100
0000
0000
0000
3002
0000
0000
0103
0020
0000
0000
0030
,
1000
0000
0000
0000
0002
0003
0000
0000
0010
0000
0100
0000
2000
0000
0000
0000
,
3001
0000
0000
0100
0000
0000
0010
0000
0000
1000
0000
0000
0100
0000
0001
0100
,
0010
0000
0001
0000
1000
0010
0100
0000
0001
0000
0010
0100
1000
0000
0001
0000
,
0100
0000
0000
0010
0000
0000
0100
0000
0000
0001
1000
0000
0100
0000
0001
0100
,
0020
0000
0001
0000
0000
1000
0000
0000
0001
0000
0000
1000
0000
0000
0001
0030
,
1000
0000
0000
0100
0000
0000
0010
0000
0000
0001
0000
0000
0100
0000
1000
0100
,
0010
0000
1000
0000
0001
0010
0100
0000
1000
0000
0010
0100
0001
0000
1000
0000
,
0010
0000
0000
0100
0000
0000
0001
0000
0100
0010
0100
0000
1000
0000
0100
0000
,
0020
0000
1000
0000
0000
0001
0000
0000
1000
0000
0000
0030
1001
0000
0000
0000
,
1000
0000
0010
0001
0010
0000
0100
0000
0001
1000
0100
0000
0010
0000
1000
0010
,
0100
0000
1000
0000
0001
0100
0010
0000
1000
0000
0100
0010
0001
0000
1000
0000
,
0010
0000
0001
0010
0100
0000
0010
0000
0000
1000
0001
0000
0010
0000
1000
0010
,
0200
0000
0000
1000
0000
0000
0001
0000
0000
1000
0000
0000
0001
0000
1000
0300
,
0001
0000
0010
1000
0010
0000
0100
0000
1000
0001
0100
0000
0010
0000
0001
0010
,
0100
0000
0001
0000
1000
0100
0010
0000
0001
0000
0100
0010
1000
0000
0001
0000
,
0010
0000
1000
0010
0100
0000
1000
0000
0001
0100
0010
0000
0001
0000
0010
0000
,
0200
0000
0000
1000
0000
0000
0010
0300
1000
0001
0100
0010
1000
0001
0010
0100
,
2000
0001
0010
3002
,
0100
1000
0203
0000
,
0000
0302
0010
1000
,
0203
0000
0010
0000
0301
0000
0000
1000
,
0002
0000
0000
0000
1000
0000
0000
0000
0103
0000
0000
0000
2000
0000
0000
3001
,
0200
0000
0000
0000
0010
0000
0000
0000
0302
0000
0000
0000
0000
0000
0003
1000
,
0002
0000
0000
0000
0100
0000
0000
0000
2000
0003
0000
3100
0020
0000
0030
0001
,
2000
0000
0010
0000
3001
1000
0202
0303
,
1100
0000
0000
0101
0000
0000
1100
0000
0100
00M0
0100
0000
0002
0000
0003
0000
,
1100
0000
0000
0101
0000
0000
0101
0000
0100
00M0
0100
0000
2000
0000
3000
0000
,
0011
0000
0000
1010
0000
0000
0011
0000
0010
0M00
0010
0000
2000
0000
3000
0000
,
0001
0010
0100
1000
0100
0010
0001
0000
1000
0000
0010
0000
2000
3000
0000
0000
,
1010
0000
0000
0011
0000
0000
0011
0000
0010
0M00
0010
0000
2000
3000
0000
0000
,
0101
0000
0000
1100
0000
0000
0101
0000
0100
00M0
0100
0000
2000
3000
0000
0000
,
1010
0000
0000
0011
0000
0000
1001
0000
1000
0000
0010
0000
0200
0300
0001
0000
,
1000
0100
0010
0100
1000
0001
0100
0010
1000
0000
0001
0000
2000
3000
0000
0000
,
1001
0000
0000
0000
1000
0100
0010
0000
0001
0000
0010
0M00
0010
0000
1000
0000
,
0001
0000
0100
00M0
0100
0000
1000
0000
0001
0000
0100
0000
0010
0000
0000
0000
,
2200
3300
0000
0000
0202
0303
1000
0100
0010
0000
0001
0000
1100
0000
0000
0000
,
0101
0000
1000
0100
0010
0001
1000
0000
0220
0330
0000
0000
2002
3003
0000
0000
,
1000
0000
0010
0100
0010
0000
1000
0000
0100
00M0
0100
0000
0002
0003
0100
0010
,
0100
0000
0001
1000
0100
0000
0010
0000
0001
00M0
0001
0000
0020
0030
0100
0010
,
0100
0000
0001
1000
0100
0000
0010
0000
0100
0000
1000
0M00
2000
3000
0100
0010
,
0100
0000
0000
0002
0000
0000
1003
0000
0100
00M0
0100
0000
0002
0003
0000
0000
,
1001
0000
0000
0000
1000
0010
0100
0000
0001
0000
0100
00M0
0100
0000
1000
0000
,
0001
0000
0010
0M00
0010
0000
1000
0000
0001
0000
0010
0000
0100
0000
0000
0000
,
0022
0033
0000
0000
2020
3030
0001
0010
0100
0000
1000
0000
0101
0000
0000
0000
,
1100
0000
0001
0100
0010
1000
0001
0000
0220
0330
0000
0000
2002
3003
0000
0000
,
0001
0000
0100
0010
0100
0000
0001
0000
0010
0M00
0010
0000
2000
3000
0010
0100
,
0010
0000
1000
0001
0010
0000
0100
0000
1000
0M00
1000
0000
0200
0300
0010
0100
,
0010
0000
1000
0001
0010
0000
0100
0000
0010
0000
0001
00M0
0002
0003
0010
0100
,
0010
1000
0001
0010
0100
1000
0001
0100
0010
0000
1000
0000
0001
0000
0000
0000
,
1000
0000
0010
0100
0001
0000
1000
0000
0001
0010
0100
1000
0100
0010
0001
0010
,
0100
1000
0001
0100
0010
0000
1000
0010
1000
0000
0001
0100
0001
0100
0001
0000
,
1000
0100
0010
0001
1000
0000
0001
0100
0001
1000
0100
1000
0100
0000
1000
0000
,
0001
0000
0000
0000
0000
0000
0100
0000
0000
00M0
0000
0000
0100
0000
0000
0000
1000
0000
0000
0000
0100
0000
0000
0000
0010
0000
0000
0000
0001
0000
0100
0000
,
0010
0000
1000
0000
0001
0010
0100
0001
0100
0010
0001
0010
0100
1000
0001
0100
,
0010
0000
0100
1000
0100
0000
0010
1000
0010
1000
0010
0000
0100
0010
0100
0000
,
2002
0000
0000
0000
3003
0000
0001
0000
0102
0000
0000
0000
2003
0000
0001
3000
,
0102
0000
0000
0000
1003
0000
0100
0000
0010
0000
0001
1000
0020
0000
0000
0000
,
0000
0000
0000
0000
0000
0000
0000
0000
0000
0000
0000
0000
0000
0030
0000
0000
,
2000
0000
0000
0000
0001
0100
3002
0000
,
0000
0000
0000
0000
0203
0010
0002
0000
,
0000
0000
0300
0000
0103
0010
0200
0000
,
0000
0000
0300
0000
0001
0100
0010
1000
,
0002
0000
0000
0000
1000
0000
0000
0000
0103
0000
0000
0000
2000
0000
0000
3001
,
0200
0000
0000
0000
0010
0000
0000
0000
0302
0000
0000
0000
0100
0000
0003
1000
,
0002
0000
0000
0000
0100
0000
0000
0000
2000
0003
0000
3100
0020
0000
0030
0001
,
2000
0000
0000
0000
3001
1000
0002
0000
,
0000
0000
0000
0000
0000
0000
0000
0003
0000
0000
0000
0000
0000
0000
0000
0000
;
