#VERSION:0.83;
#TITLE:Liberate;
#SUBTITLE:;
#ARTIST:Valtos;
#TITLETRANSLIT:;
#SUBTITLETRANSLIT:;
#ARTISTTRANSLIT:;
#GENRE:;
#CREDIT:;
#MUSIC:Liberate.ogg;
#BANNER:Liberate_BannerITG.png;
#BACKGROUND:Liberate_BG.png;
#CDTITLE:cd_AgentA.png;
#SAMPLESTART:64.390;
#SAMPLELENGTH:15.610;
#SELECTABLE:YES;
#OFFSET:0.000;
#BPMS:0.000=123.000;
#STOPS:;
#SPEEDS:0.000=1.000=0.000=0;
#SCROLLS:0.000=1.000;
#TICKCOUNTS:0.000=4;
#TIMESIGNATURES:0.000=4=4;
#LABELS:0.000=Song Start;
#COMBOS:0.000=1;
#FAKES:38.000=0.125,
54.000=0.125,
132.625=0.125,
136.625=0.125,
140.625=0.125,
148.625=0.125,
152.625=0.125,
156.625=0.125
;
#ORIGIN:;
#PREVIEWVID:;
#JACKET:Liberate_Jacket.png;
#CDIMAGE:;
#DISCIMAGE:;
#BGCHANGES:;
#FGCHANGES:;

//--------------- dance-single - ----------------
#NOTEDATA:;
#STEPSTYPE:dance-single;
#DESCRIPTION:;
#DIFFICULTY:Beginner;
#METER:7;
#RADARVALUES:0.271439,0.305258,0.051915,0.145361,0,183,178,5,14,0,0,0,0,2,0.271439,0.305258,0.051915,0.145361,0,183,178,5,14,0,0,0,0,2;
#CHARTNAME:;
#CHARTSTYLE:;
#CREDIT:Agent A;
#NOTES:
0000
0000
0000
0000
,
1000
0000
0100
0000
1000
0000
0001
1000
,
0001
0001
0100
0001
,
1000
0100
0010
0100
,
1000
0000
0010
0000
0100
0001
2000
0000
,
3001
0000
0010
0000
0001
0000
1000
0001
,
1000
1000
0010
1000
,
0001
0010
0100
0010
,
0001
0000
0100
0000
0010
1000
0002
0000
,
1003
0100
0010
0000
,
0100
1000
0010
0000
,
0100
0001
0010
0000
,
0001
0100
0010
1000
,
0001
0010
0100
0000
,
0010
0001
0100
0000
,
0010
1000
0100
0000
,
1000
0000
0010
0000
0100
0000
0001
1000
,
0002
0000
0000
0003
,
0200
0000
0000
0300
,
0002
0000
0000
0003
,
2000
0000
0000
3000
,
0020
0000
0000
0030
,
0200
0000
0000
0300
,
0002
0000
0000
0003
,
2000
0000
0000
3000
,
0001
0000
1000
0000
0001
1000
0001
0000
,
0100
0010
0100
0110
,
0001
0000
1000
0000
0001
1000
0001
0000
,
0010
0100
0010
0110
,
1000
0000
0001
0000
1000
0010
1000
0000
,
0001
1000
0010
1010
,
0001
0000
1000
0000
0001
0010
0001
0000
,
1000
0001
0100
0010
,
1000
0000
0100
0000
0010
0100
0010
0000
,
0001
0100
0010
0210
,
0301
0000
0010
0000
0100
0010
0100
0000
,
1000
0010
0100
0002
,
1003
0000
0010
0000
0100
0010
0100
0000
,
0001
0010
0100
0120
,
0031
0000
0100
0000
0010
0100
0010
0000
,
1000
0100
0010
0002
,
1003
0010
1000
0100
,
1000
0000
0010
0000
1000
0100
0010
0000
,
0001
0100
0001
0010
,
0001
0000
0100
0000
0001
0010
0100
0000
,
1000
0100
1000
0010
,
1000
0000
0100
0000
1000
0010
0100
0000
,
0001
0010
0001
0100
,
0001
0000
0010
0000
0001
0100
0010
0000
,
0100
0000
0000
0000
;

//--------------- dance-single - Agent A ----------------
#NOTEDATA:;
#STEPSTYPE:dance-single;
#DESCRIPTION:XO;
#DIFFICULTY:Easy;
#METER:10;
#RADARVALUES:0,0,0,0,0;
#CREDIT:Agent A;
#NOTES:
0000
0000
0000
0000
,
1000
0000
0100
0010
0001
0010
0100
1000
,
0001
0000
0100
0010
1000
0010
0200
0000
,
0301
0000
0010
0100
1000
0010
0100
0010
,
1000
0000
0100
0000
0010
0001
2000
0000
,
3001
0000
0010
0100
1000
0100
0010
0001
,
1000
0000
0010
0100
0001
0100
0020
0000
,
1030
0000
0100
0010
0001
0100
0010
0100
,
0001
0000
0010
0000
0100
1000
0002
0000
,
0103
0000
0010
0000
0100
0001
1000
0100
,
1000
0000
0010
0000
0100
0001
1000
0001
,
0100
0000
0010
0000
0100
0001
0010
0100
,
0010
0000
0001
0000
1000
0001
1000
0000
,
0010
0000
0100
0000
0010
1000
0001
0010
,
0001
0000
0100
0000
0010
1000
0001
1000
,
0010
0000
0100
0000
0010
1000
0100
0010
,
0100
0000
1000
0000
0001
1000
0001
0000
,
0200
0000
0302
0000
,
2003
0000
3200
0000
,
0320
0000
0032
0000
,
2003
0000
3020
0000
,
0032
0000
0023
0000
,
0230
0000
0302
0000
,
0023
0000
0230
0000
,
0302
0000
0000
0000
0103
0000
1000
0001
,
1000
0000
0010
1000
0100
1000
0010
0000
,
0110
0000
0100
0001
0010
0001
0100
0010
,
1000
0000
0100
1000
0010
1000
0100
0000
,
1100
0000
1000
0010
1000
1000
0100
0010
,
0001
0000
0100
0001
0010
0001
0100
0000
,
0110
0000
0010
1000
0100
1000
0010
0100
,
0001
0000
0010
0001
0100
0001
0010
0000
,
0011
0000
0001
0100
0001
0001
0010
0100
,
1000
0000
0100
0001
0100
1000
0001
0100
,
0001
0000
0010
1000
0010
0001
1000
0010
,
1000
0000
0100
1000
0001
0100
0010
0001
,
0010
0000
0100
0000
1000
0000
0100
0000
0001
0000
1000
0001
0000
0000
0000
0000
,
0001
0000
0010
1000
0010
0001
1000
0010
,
1000
0000
0100
0001
0100
1000
0001
0100
,
0001
0000
0010
0001
1000
0010
0100
1000
,
0100
0000
0010
0000
0001
0000
0010
0000
1000
0000
0001
2000
0000
0000
0000
0000
,
3001
0000
0100
0000
0010
0100
0001
0000
,
1000
0000
0100
0000
0010
0100
1000
0001
,
1000
0000
0010
0000
0100
0010
1000
0000
,
0001
0000
0010
0000
0100
0010
0001
1000
,
0010
0000
0100
0000
1000
0100
0010
0000
,
1000
0000
0100
0000
0001
0100
0010
0000
,
0001
0000
1000
0000
0010
0100
1000
0000
,
0100
0000
0001
0000
1000
0100
0010
0010
,
0001
0000
0000
0000
;

//--------------- dance-single - XO- ----------------
#NOTEDATA:;
#STEPSTYPE:dance-single;
#DESCRIPTION:XO-;
#DIFFICULTY:Medium;
#METER:13;
#RADARVALUES:0.642258,0.635954,0,0.332254,0.550295,433,433,0,32,0,0,0,0,0,0.642258,0.635954,0,0.332254,0.550295,433,433,0,32,0,0,0,0,0;
#CHARTNAME:;
#CHARTSTYLE:;
#CREDIT:Agent A;
#NOTES:
0000
0000
0000
0000
,
1000
0000
0001
0100
0001
0000
1000
0100
1000
0000
0010
0000
1000
0000
0100
0000
,
1000
0000
0001
0010
0001
0000
1000
0010
1000
0000
0100
0000
0020
0000
0000
0000
,
0031
0000
0100
0010
0100
0000
0001
0010
0001
0000
0100
0010
0100
0000
0001
0000
,
1000
0000
0100
0000
0010
0000
0100
0000
1000
0000
0001
2000
0000
0000
3000
0000
,
0001
0000
1000
0010
1000
0000
0001
0010
0001
0000
0100
0000
0001
0000
0010
0000
,
0001
0000
1000
0100
1000
0000
0001
0100
0001
0000
0010
0000
0200
0000
0000
0000
,
1300
0000
0010
0100
0010
0000
1000
0100
1000
0000
0010
0100
0010
0000
1000
0000
,
0001
0000
0010
0000
0100
0000
0010
0000
0001
0000
1000
0002
0000
0000
0000
0000
,
1003
0000
0100
0000
0010
0000
0100
1000
0000
0001
1000
0020
0000
0000
0000
0000
,
0130
0000
0001
0000
1000
0000
0100
0010
0000
0100
1000
0001
0000
0100
0000
0000
,
0010
0000
0100
0000
0001
0000
0010
0100
0000
1000
0001
0100
0000
0010
0000
0000
,
1000
0000
0100
0000
1000
0000
0010
0100
0000
0001
1000
0100
0010
0001
1000
0000
,
0001
0000
0010
0000
0100
0000
0010
0001
0000
1000
0001
0200
0000
0000
0000
0000
,
0310
0000
1000
0000
0001
0000
0010
0100
0000
0010
0001
1000
0000
0010
0000
0000
,
0100
0000
0010
0000
1000
0000
0100
0010
0000
0001
1000
0010
0000
0100
0000
0000
,
0001
0010
0001
0000
1000
0000
0010
0000
0100
0000
0001
1000
0000
1000
0100
0010
,
0002
0000
0203
0000
0320
0000
1030
0100
,
0020
0000
0032
0000
2003
0000
3010
0100
,
0002
0000
2003
0000
3200
0000
1300
0010
,
2000
0000
3200
0000
0320
0000
0031
0100
,
0020
0000
0032
0000
0023
0000
1030
0100
,
0002
0000
0203
0000
2300
0000
3010
0001
,
0020
0000
2030
0000
3200
0000
0310
0001
,
2000
0000
0000
0000
0000
0000
0000
0000
0000
0000
0000
0000
3001
0000
1000
0001
,
1000
0000
0100
0010
0001
0000
0100
0010
1000
0000
0100
0010
0001
0000
1000
0000
,
0001
0000
0100
0010
1000
0000
0100
0010
0100
1000
0001
0100
0002
0000
0000
0000
,
1003
0000
0010
0100
0001
0000
0010
0100
1000
0000
0100
0010
0001
0000
0100
0000
,
0010
0000
0100
0001
1000
0000
0100
0010
0100
1000
0001
0000
1000
0001
0100
0000
,
0001
0000
0010
0100
1000
0000
0010
0100
0001
0000
0010
0100
1000
0000
0001
0000
,
1000
0000
0010
0100
0001
0000
0010
0100
0010
0001
1000
0010
2000
0000
0000
0000
,
3001
0000
0100
0010
1000
0000
0100
0010
0001
0000
0010
0100
1000
0000
0010
0000
,
0100
0000
0010
1000
0001
0000
0010
0100
0010
0001
1000
0010
1000
0001
0010
0000
,
0001
0000
0100
0001
0100
0000
0010
0000
0100
0000
0010
0000
0100
0000
0001
0000
,
1000
0000
0100
0010
0100
0000
0010
0000
0100
0000
1000
0001
0100
0000
0010
0000
,
0100
0000
0001
0010
0001
0000
0010
0000
0001
0000
0010
0000
0001
0000
1000
0010
,
0100
0000
0001
0000
1000
0000
0100
0000
0010
0100
1000
0020
0000
0000
0000
0000
,
1030
0000
0100
1000
0010
0000
0100
0000
0010
0000
0100
0000
0010
0000
1000
0000
,
0001
0000
0100
0001
0010
0000
0100
0000
0010
0000
0001
1000
0010
0000
0100
0000
,
0010
0000
1000
0100
1000
0000
0100
0000
1000
0000
0001
0000
1000
0000
0100
0010
,
0100
0000
1000
0000
0010
0000
0100
0000
0010
1000
0100
0020
0000
0000
0000
0000
,
0031
0000
1000
0001
1000
0000
0010
0000
1000
0000
0001
0000
0010
0000
0001
0000
,
1000
0000
0001
1000
0001
0000
0100
0000
0010
0000
0100
0001
0010
0000
0100
0000
,
1000
0000
0001
1000
0001
0000
0010
0000
0100
0000
0010
0000
0001
0000
0100
0010
,
1000
0000
0100
0000
1000
0000
0010
0000
0100
0001
1000
0100
0010
0000
0100
1000
,
0010
0000
0100
0001
0010
0000
0100
0000
0010
0000
0100
0000
1000
0000
0001
0000
,
1000
0000
0001
1000
0001
0000
0010
0000
0100
0000
0010
0001
0100
0000
0010
0000
,
1000
0000
0001
1000
0001
0000
0100
0000
0010
0000
0100
0000
0001
0000
0010
0100
,
1000
0000
0010
0000
1000
0000
0100
0000
0010
0001
1000
0010
0100
0000
0010
1000
,
0001
0000
0000
0000
;

//--------------- dance-single - XO, FS ----------------
#NOTEDATA:;
#STEPSTYPE:dance-single;
#DESCRIPTION:XO, FS;
#DIFFICULTY:Hard;
#METER:15;
#RADARVALUES:0.763886,0.763145,0,0.363402,0.929272,515,515,0,35,0,0,0,0,0,0.763886,0.763145,0,0.363402,0.929272,515,515,0,35,0,0,0,0,0;
#CHARTNAME:;
#CHARTSTYLE:;
#CREDIT:Agent A;
#NOTES:
0000
0000
0000
0000
,
1000
0000
0001
0100
0001
1000
0100
1000
0010
0100
0010
1000
0100
1000
0010
0100
,
0001
0000
0100
0010
0100
0001
0010
0001
1000
0100
0010
0001
2000
0000
0000
0000
,
3001
0000
0100
0001
0100
0001
1000
0100
1000
0001
0100
0010
1000
0100
0010
0001
,
1000
0000
0010
0100
0001
0000
1000
0000
0100
0010
0001
2000
0000
0000
0000
0000
,
3001
0000
1000
0010
1000
0001
0010
0001
0100
0010
0100
0001
0010
0001
0100
0010
,
1000
0000
0010
0100
0010
1000
0100
1000
0001
0010
0100
1000
0002
0000
0000
0000
,
1003
0000
0010
1000
0010
1000
0001
0010
0001
1000
0010
0100
0001
0010
0100
1000
,
0001
0000
0100
0010
1000
0000
0001
0000
0010
0100
1000
0002
0000
0000
0000
0000
,
1003
0000
0100
0000
1000
0100
0010
0100
0000
1000
0000
0001
0000
0100
0000
0001
,
1000
0000
0100
0000
1000
0010
0100
0010
0000
1000
0001
0100
0001
1000
0100
0000
,
1000
0000
0010
0000
1000
0010
0100
0010
0000
1000
0100
0010
0000
0000
0001
0000
,
0100
0000
0010
0000
0100
0001
1000
0100
0000
0010
0100
2000
0000
3010
0100
0001
,
1000
0000
0010
0000
1000
0010
0100
0010
0000
1000
0000
0001
0000
0010
0000
0001
,
1000
0000
0010
0000
1000
0100
0010
0100
0000
1000
0001
0010
0001
1000
0010
0000
,
1000
0000
0100
0000
1000
0100
0010
0100
0000
1000
0010
0100
0000
0000
0001
0000
,
0010
0100
1000
0000
0010
0000
0100
0000
0010
1000
0100
0020
0000
0031
0100
0010
,
2000
0000
3001
1000
0200
0000
1300
0001
,
0200
0000
0310
1000
0200
0000
0310
0001
,
0200
0000
0310
1000
0002
0000
0013
0001
,
2000
0000
3010
0100
0002
0000
0013
0100
,
0002
0000
0103
1000
0020
0000
0130
1000
,
0200
0000
0310
1000
0200
0000
0301
0100
,
2000
0000
3010
0100
0020
0000
0031
0010
,
2000
0000
3100
0010
0002
0000
0000
0000
,
1003
0000
0010
0100
1000
0000
0100
0001
1000
0100
0010
0001
0100
0000
0010
0000
,
1000
0000
0100
0010
1000
0000
0010
0001
1000
0010
0100
0010
1000
0000
0100
0010
,
0200
0000
0301
0100
2000
0000
3010
0100
0001
1000
0100
0010
0100
1000
0001
0100
,
0020
0000
0031
0010
1000
0000
0001
0000
1000
0000
0100
1000
0001
0000
0010
0000
,
0001
0000
0100
0010
0001
0000
0010
1000
0001
0010
0100
1000
0010
0000
0100
0000
,
0001
0000
0010
0100
0001
0000
0100
1000
0001
0100
0010
0100
0001
0000
0010
0100
,
0020
0000
1030
0010
0002
0000
0103
0010
1000
0001
0010
0100
0010
0001
1000
0010
,
0200
0000
1300
0100
0001
0000
1000
0000
0001
0000
0010
0001
1000
0000
0010
0000
,
1000
0000
0100
1000
0001
0100
1000
0100
0001
0010
0010
1000
0001
0010
0010
1000
,
0001
0000
0100
0010
1000
0000
0100
0010
0001
0010
0100
1000
0002
0000
0000
0000
,
1003
0000
0010
1000
0001
0010
1000
0010
0001
0100
0100
1000
0001
0100
0100
1000
,
0001
0000
0010
0000
0100
0000
1000
0000
0010
0100
0010
2000
0000
0000
3001
0000
,
1000
0000
0010
1000
0001
0010
1000
0010
0001
0100
0100
1000
0001
0100
0100
1000
,
0001
0000
0010
0100
1000
0000
0010
0100
0001
0010
0100
1000
0001
0100
0001
1000
,
0001
0000
0100
0001
1000
0100
0001
0100
1000
0010
0010
0001
1000
0010
0010
0001
,
1000
0000
0100
0000
0010
0000
0001
0000
0100
0010
0100
0002
0000
0000
0000
0000
,
1003
0000
0010
0100
0001
0000
0010
0100
0010
0001
1000
0010
0100
0000
0010
0000
,
1000
0000
0100
0010
0100
0000
1000
0000
0001
0000
0100
0010
2000
0000
3000
0000
,
0001
0000
0100
0010
1000
0000
0100
0010
0100
1000
0001
0100
0010
0000
0100
0000
,
0001
0000
0010
0100
0010
0000
0001
0000
1000
0000
0010
0100
0002
0000
0000
0000
,
1003
0000
0100
0010
1000
0000
0010
0000
0001
0000
0100
0000
0010
0000
0100
0000
,
0001
0000
0100
0010
0001
0000
0010
0000
1000
0000
0100
0010
0002
0000
0000
0000
,
1003
0000
0010
0100
1000
0000
0100
0000
0001
0000
0010
0000
0100
0000
0010
0000
,
0001
0000
0010
0100
0001
0000
0100
0000
1000
0000
0010
0100
0002
0000
0000
0000
,
0103
0000
0000
0000
;

//--------------- dance-single - FS+, XO, BU ----------------
#NOTEDATA:;
#STEPSTYPE:dance-single;
#DESCRIPTION:FS+, XO, BU;
#DIFFICULTY:Challenge;
#METER:17;
#RADARVALUES:0.909247,0.892607,0,0.083063,1.323823,613,613,0,8,0,0,0,0,8,0.909247,0.892607,0,0.083063,1.323823,613,613,0,8,0,0,0,0,8;
#CHARTNAME:;
#CHARTSTYLE:;
#CREDIT:Agent A;
#NOTES:
0000
0000
0000
0000
,
1000
0000
0001
1000
0100
0100
0001
1000
0010
0010
0001
1000
0100
0100
0001
1000
,
0001
0000
1000
0001
0010
0010
1000
0001
0100
0100
1000
0010
0100
0000
0001
0000
,
1000
0000
0001
1000
0010
0010
0001
1000
0100
0100
0001
1000
0010
0010
0001
1000
,
0001
0100
0001
1000
0100
1000
0001
0010
0100
1000
0010
0200
0000
0000
0000
0000
,
0301
0000
1000
0001
0010
0010
1000
0001
0100
0100
1000
0001
0010
0010
1000
0001
,
1000
0000
0001
1000
0100
0100
0001
1000
0010
0010
0001
0100
0010
0000
1000
0000
,
0001
0000
1000
0001
0100
0100
1000
0001
0010
0010
1000
0001
0100
0100
1000
0001
,
1000
0010
1000
0001
0010
0001
1000
0100
0010
0001
0100
0020
0000
0000
0000
0000
,
0130
0000
0001
0000
0100
0001
0010
0100
M000
0100
0001
0000
1000
0000
0010
1000
,
0100
0000
0010
0000
0100
1000
0010
0100
0000
0001
0010
0100
0000
1000
0010
0100
,
0001
0000
1000
0000
0100
1000
0010
0100
0000
0001
1000
0100
0000
1000
0001
0100
,
0010
0000
1000
0000
0010
0100
0001
0010
0100
0010
0100
1000
0010
0100
0001
1000
,
0100
0000
1000
0000
0100
1000
0010
0100
000M
0100
1000
0000
0001
0000
0010
0001
,
0100
0000
0010
0000
0100
0001
0010
0100
0000
1000
0010
0100
0000
0001
0010
0100
,
1000
0000
0001
0000
0100
0001
0010
0100
0000
1000
0001
0100
0000
0010
1000
0000
,
0100
0010
0001
0000
0010
0100
1000
0010
0100
0010
0100
0002
0000
0013
0100
1000
,
0001
0000
0100
0000
0001
0000
0100
0000
0010
0000
1000
0000
0010
0000
1000
0100
,
0010
0000
0100
0000
0010
0000
0100
0000
1000
0000
0001
0000
1000
0000
0001
0100
,
0010
0000
0100
0000
0010
0000
0100
0000
0001
0000
0010
0000
0001
0000
0010
0001
,
1000
0000
0010
0000
1000
0000
0010
0000
1000
0000
0100
0000
0010
0000
0001
1000
,
0010
0000
0001
0000
0010
0000
0001
0000
0010
0000
1000
0000
0010
0000
1000
0100
,
0010
0000
1000
0000
0010
0000
1000
0000
0010
0000
0001
0000
0010
0000
0001
1000
,
0010
0000
0100
0000
0010
0000
1000
0000
0100
0000
0010
0000
0100
0000
1000
0001
,
0100
0000
0000
0000
1000
0000
0000
0000
0100
0000
0000
0000
0001
0000
0000
0000
1000
0000
0000
0000
0001
0000
0000
0000
1000
0001
1000
0000
0001
0000
1000
0000
,
0010
0000
1000
0100
0100
0010
1000
0010
0010
0100
1000
0100
0100
0010
1000
0001
,
1000
0001
1000
0001
1000
0000
0010
0000
0010
0000
0100
0000
1000
0000
0001
0000
0100
0000
0001
0000
1000
0000
0100
0000
0010
0000
0000
0000
0100
0000
1000
0000
,
0001
0100
0100
0010
0100
0100
0001
0010
0010
0100
0010
0010
0001
1000
0010
1000
,
0001
0000
0000
0000
1000
0000
0100
0000
0010
0000
0000
0000
0001
0000
0000
0000
0001
0000
1000
0000
0100
0000
1000
0000
0001
0100
0001
0000
1000
0000
0001
0000
,
0100
0000
0001
0010
0010
0100
0001
0100
0100
0010
0001
0010
0010
0100
0001
1000
,
0001
1000
0001
1000
0001
0000
0100
0000
0100
0000
0010
0000
0001
0000
1000
0000
0010
0000
1000
0000
0001
0000
0010
0000
0100
0000
0000
0000
0010
0000
0001
0000
,
1000
0010
0010
0100
0010
0010
1000
0100
0100
0010
0100
0100
1000
0001
0100
0001
,
1000
0000
0001
0010
0100
0000
0010
0000
0001
1000
0010
1000
0100
0000
1000
0000
,
0001
0000
0000
0000
0100
000M
0100
0000
0010
0000
1000
0000
0010
0000
0100
0000
1000
0000
0100
0000
0100
0000
0001
0000
1000
0000
0010
0000
0010
0000
0001
0000
,
1000
0000
0000
0000
0010
M000
0010
0000
0100
0000
0001
0000
0100
0000
0010
0000
0001
0000
1000
0000
0010
0000
0100
0000
0002
0000
0000
0000
0000
0000
0000
0000
,
1003
0000
0000
0000
0100
M000
0100
0000
0010
0000
0001
0000
0010
0000
0100
0000
0001
0000
0010
0000
0010
0000
1000
0000
0001
0000
0100
0000
0100
0000
1000
0000
,
0100
0010
0001
0100
0100
1000
0010
0010
0001
0010
0100
2000
0000
0000
0000
0000
,
3001
0000
0000
0000
0010
000M
0010
0000
0100
0000
1000
0000
0100
0000
0010
0000
1000
0000
0010
0000
0010
0000
0001
0000
1000
0000
0100
0000
0100
0000
0001
0000
,
1000
0000
0000
0000
0100
M000
0100
0000
0010
0000
0001
0000
0010
0000
0100
0000
0001
0000
1000
0000
0100
0000
0010
0000
0002
0000
0000
0000
0000
0000
0000
0000
,
1003
0000
0000
0000
0010
M000
0010
0000
0100
0000
0001
0000
0100
0000
0010
0000
0001
0000
0100
0000
0100
0000
1000
0000
0001
0000
0010
0000
0010
0000
1000
0000
,
0010
0100
0001
0010
0010
1000
0100
0100
0001
0010
0100
2000
0000
0000
0000
0000
,
3100
0000
0100
1000
0001
0000
0100
0001
1000
0100
0100
0001
0010
0010
1000
0000
,
0001
0000
0010
0001
1000
0000
0010
0100
0001
0010
0100
1000
0001
0000
0100
0000
,
0001
0000
0010
0001
1000
0000
0010
1000
0001
0010
0010
1000
0100
0100
0001
0000
,
1000
0000
0100
1000
0001
0000
0100
0010
1000
0100
0010
0001
1000
0000
0010
0100
,
0001
0000
0100
0001
1000
0000
0100
1000
0001
0100
0100
1000
0010
0010
0001
0000
,
1000
0000
0010
1000
0001
0000
0010
0100
1000
0010
0100
0001
1000
0000
0100
0000
,
1000
0000
0010
1000
0001
0000
0010
0001
1000
0010
0010
0001
0100
0100
1000
0000
,
0001
0000
0100
0001
1000
0000
0100
0010
0001
0100
0010
1000
0001
0000
0010
0100
,
2000
3000
0000
0000
0000
0000
0000
0000
;
