#TITLE:LONELY ROLLING STAR;
#SUBTITLE:;
#ARTIST:Saki Kabata;
#TITLETRANSLIT:;
#SUBTITLETRANSLIT:;
#ARTISTTRANSLIT:;
#GENRE:;
#CREDIT:;
#MUSIC:LONELY-ROLLING-STAR-Edit.ogg;
#BANNER:;
#BACKGROUND:;
#CDTITLE:;
#SAMPLESTART:0.000;
#SAMPLELENGTH:0.000;
#SELECTABLE:YES;
#OFFSET:-0.029;
#BPMS:0.000=170.000;
#STOPS:;
#BGCHANGES:;
#FGCHANGES:;

//--------------- dance-single - ----------------
#NOTES:
     dance-single:
     :
     Hard:
     13:
     0,0,0,0,0:
0000
0000
0000
0000
,
0000
0000
0000
0000
,
0000
0000
0000
0000
,
0000
0000
0000
0000
,
0000
0000
0000
0000
,
0000
0000
0000
0000
,
0000
0000
0000
0000
,
0000
0000
0000
0000
,
0000
0000
0000
0000
1000
0001
1000
0000
,
1001
0000
0001
0000
0010
0100
1000
0020
,
0000
0130
0001
0000
1000
0100
0010
0001
,
1000
0000
0010
0000
0100
0001
1000
0200
,
0000
0310
0001
1000
0010
1000
0100
1000
,
0001
0000
1000
0000
0010
0100
0001
0020
,
0000
0130
1000
0000
0001
0100
0001
1000
,
0200
0000
0310
0001
1000
0001
1000
0000
,
0001
0100
0001
1000
0100
1000
0010
0100
,
0001
0000
0010
0000
0100
0010
0001
1000
,
0000
0010
0010
0010
0000
0100
0100
0001
,
1000
0000
0010
0000
0100
0010
1000
0001
,
0000
0010
0010
0010
0000
0100
0100
1000
,
0001
0000
0100
0000
0010
0100
0001
1000
,
0000
0100
0100
0100
0000
0010
0010
0001
,
1000
0000
0100
0000
1000
0010
0100
0001
,
1000
0000
0100
0000
0010
0000
0001
0000
1000
0001
1000
0001
1000
0000
0010
0000
,
0100
0000
0001
0000
1000
0100
0010
0001
,
0000
1000
1000
1000
0000
0001
0001
1000
,
0001
0000
1000
0000
0001
0100
0010
1000
,
0000
0001
0001
0001
0000
1000
1000
0001
,
1000
0000
0100
0000
0010
0001
1000
0010
,
0000
0100
0100
0100
0000
0001
0001
1000
,
0100
0000
0010
0001
1000
0010
0100
0001
,
0010
0100
0100
0100
1000
1000
0001
0100
,
0002
1003
0200
1300
0002
1003
0020
0000
,
2030
3001
0200
0301
2000
3001
0020
0000
,
0230
1300
0200
0310
0200
1300
0002
0000
,
0203
0310
0200
0301
0200
0310
1000
0001
,
1000
0100
0010
0001
1000
0010
0100
0001
,
1000
0100
0010
0100
1000
0001
0100
0001
,
1000
0010
0100
0001
1000
0100
1000
0010
,
0100
0001
0010
0001
0010
0100
1000
0010
,
2010
0000
0000
3010
0100
0000
0000
0001
,
0100
0001
0020
0000
0130
1000
0010
0100
,
0001
0000
0000
0000
1000
0000
0100
0000
0010
0000
0001
1000
0001
0000
1000
0000
,
0001
0000
0000
0010
0001
1000
0010
0100
,
0002
0000
0010
0000
1000
0000
0103
0010
,
2000
0000
0100
0000
3002
0000
0103
0010
,
2000
0000
3010
0002
0000
0013
1000
0000
,
0001
0100
0001
1000
0100
0010
0001
1000
,
0200
0000
0010
0000
0001
0000
1300
0010
,
0200
0000
1000
0000
0320
0000
1030
0001
,
0020
0000
0130
0020
0000
0031
1000
0010
,
0100
0001
1000
0000
0100
0010
0001
0001
,
2000
0000
0010
0000
0001
0000
3100
0010
,
0002
0000
0100
0000
2003
0000
3100
0010
,
0002
0000
0013
2000
0000
3010
0001
0000
,
1000
0100
1000
0001
0100
0010
1000
0001
,
0200
0000
0010
0000
1000
0000
0301
0010
,
0200
0000
1300
0002
0000
1003
0001
1000
,
0020
0000
0130
0020
0000
1030
0001
1000
,
0100
0000
0000
0000
1000
0000
0000
0000
0001
0100
0001
0100
0001
0000
1000
0000
,
0100
0010
0001
0000
1000
0100
0010
0000
,
0001
1000
0010
0000
0100
0001
1000
0000
,
0001
0100
0010
0000
1000
0001
0100
0000
,
0010
1000
0001
0010
0001
0010
0100
1000
,
0010
0100
1000
0000
0100
0010
1000
0000
,
0100
0010
0001
0000
1000
0010
0100
0001
,
1000
0100
0001
0000
0100
1000
0001
1000
,
0020
0000
0000
0130
0001
1000
0100
1000
,
0020
0130
0002
0013
0002
1003
0200
1300
,
0020
0130
0001
0020
0130
1000
0002
1003
,
0200
1300
0020
0130
0002
1003
0200
0310
,
0002
0103
0010
2000
3100
0010
0002
1003
,
0002
0103
0020
1030
0020
0130
0002
1003
,
0200
0310
0001
2000
3010
0100
0002
1003
,
0002
0013
0200
0310
0002
1003
0020
0130
,
0002
0013
0100
2000
3010
0100
0001
0001
,
0020
0130
2000
3010
2000
3001
0200
0301
,
0020
0130
1000
0020
0130
0001
2000
3001
,
0200
0301
0020
0130
0020
0031
0200
0310
,
2000
3100
0010
0002
0103
0010
2000
3001
,
2000
3100
0020
0031
0020
0130
2000
3001
,
0200
0310
1000
0002
0013
0100
2000
3001
,
2000
3010
0200
0310
2000
3001
0020
0130
,
2000
3010
0100
0002
0013
0100
2000
3001
,
2001
0000
3010
0000
0100
0001
0010
0001
,
1000
0100
0000
1000
0000
0001
0000
0100
,
0010
0000
1000
0000
0001
0010
0000
0100
,
1000
0010
0100
1000
0100
0010
1000
0001
,
1002
0000
0013
0000
0100
1000
0010
1000
,
0001
0100
0000
0001
0000
1000
0000
0100
,
0010
0000
0001
0000
1000
0010
0000
0100
,
0001
0010
0001
0000
1000
0000
0010
1000
0010
0000
1000
0000
0001
0000
1000
0001
,
2000
0000
0000
0000
0000
3100
0010
0001
,
1000
0010
0000
0100
0000
0001
0000
1000
,
0001
0000
0010
0000
0100
1000
0000
0002
,
0000
0000
0000
0000
2003
0000
0000
3000
,
0002
0000
0000
0000
0000
0103
0010
1000
,
0001
0010
0000
0100
0000
1000
0000
0001
,
1000
0000
0010
0000
0100
0001
0000
1000
,
0000
0100
0000
0010
0000
0001
1000
0000
,
0020
0000
0000
0000
,
0000
0000
0000
0000
,
0030
0000
0000
0000
;

//--------------- dance-single - ----------------
#NOTES:
     dance-single:
     :
     Challenge:
     18:
     0,0,0,0,0:
0000
0000
0000
0000
,
0000
0000
0000
0000
,
0000
0000
0000
0000
,
0000
0000
0000
0000
,
0000
0000
0000
0000
,
0000
0000
0000
0000
,
0000
0000
0000
0000
,
0000
0000
0000
0000
,
0000
0000
0000
0000
1000
0001
1000
0000
,
1001
0000
0001
0000
0010
0100
1000
0020
,
0000
0130
0001
0000
1000
0100
0010
0001
,
1000
0000
0010
0000
0100
0001
1000
0200
,
0000
0310
0001
1000
0010
1000
0100
1000
,
0001
0000
1000
0000
0010
0100
0001
0020
,
0000
0130
1000
0000
0001
0100
0001
1000
,
0200
0000
0310
0001
1000
0001
1000
0000
,
0001
0100
0001
1000
0100
1000
0010
0100
,
0001
0000
0010
0000
0100
0010
0001
1000
,
0000
0010
0010
0010
0000
0100
0100
0001
,
1000
0000
0010
0000
0100
0010
1000
0001
,
0000
0010
0010
0010
0000
0100
0100
1000
,
0001
0000
0100
0000
0010
0100
0001
1000
,
0000
0100
0100
0100
0000
0010
0010
0001
,
1000
0000
0100
0000
1000
0010
0100
0001
,
1000
0000
0100
0000
0010
0000
0001
0000
1000
0001
1000
0001
1000
0000
0010
0000
,
0100
0000
0001
0000
1000
0100
0010
0001
,
0000
1000
1000
1000
0000
0001
0001
1000
,
0001
0000
1000
0000
0001
0100
0010
1000
,
0000
0001
0001
0001
0000
1000
1000
0001
,
1000
0000
0100
0000
0010
0001
1000
0010
,
0000
0100
0100
0100
0000
0001
0001
1000
,
0100
0000
0010
0001
1000
0010
0100
0001
,
0010
0100
0100
0100
1000
1000
0001
0100
,
0002
1003
0200
1300
0002
1003
0020
0000
,
2030
3001
0200
0301
2000
3001
0020
0000
,
0230
1300
0200
0310
0200
1300
0002
0000
,
0203
0310
0200
0301
0200
0310
1000
0001
,
1000
0100
0010
0001
1000
0010
0100
0001
,
1000
0100
0010
0100
1000
0001
0100
0001
,
1000
0010
0100
0001
1000
0100
1000
0010
,
0100
0001
0010
0001
0010
0100
1000
0010
,
2010
0000
0000
3010
0100
0000
0000
0001
,
0100
0001
0020
0000
0130
1000
0010
0100
,
0001
0000
0000
0000
1000
0000
0100
0000
0010
0000
0001
1000
0001
0000
1000
0000
,
0001
0000
0000
0010
0001
1000
0001
1000
,
0001
0010
0100
1000
0001
1000
0010
0100
0001
0010
0100
1000
0001
0100
0001
1000
,
0100
0010
0001
1000
0001
0010
0100
1000
0010
0100
0001
1000
0001
0100
0010
1000
,
0001
0010
0100
1000
0010
0100
0001
0010
0001
1000
0010
1000
0001
0010
0100
1000
,
0010
1000
0100
0010
0001
0100
0001
1000
0010
1000
0100
0010
0001
1000
0001
1000
,
0001
0100
0010
1000
0001
1000
0100
0010
0001
0100
0010
1000
0001
0010
0001
1000
,
0010
0100
0001
1000
0001
0100
0010
1000
0100
0010
0001
1000
0001
0010
0100
1000
,
0001
0100
0001
1000
0010
0100
0001
0010
0100
0010
0001
1000
0001
0100
0010
1000
,
0010
0100
0001
1000
0100
0010
0001
1000
0100
0010
0001
1000
0010
0100
0001
1000
,
0010
0100
0001
1000
0001
0010
0100
1000
0010
0100
0001
1000
0100
1000
0001
0100
,
0010
1000
0001
1000
0010
0100
0001
0010
0100
1000
0001
1000
0100
0010
0001
1000
,
0010
0100
0001
0010
0100
1000
0010
1000
0001
0010
0001
1000
0010
1000
0001
0010
,
0100
1000
0010
0100
0001
1000
0100
1000
0001
0100
0010
1000
0001
1000
0001
1000
,
0100
0010
0001
1000
0001
0100
0010
1000
0100
0010
0001
1000
0010
1000
0001
0010
,
0100
1000
0001
1000
0100
0010
0001
0100
0010
1000
0001
1000
0010
0100
0001
1000
,
0010
1000
0001
0010
0100
1000
0001
0010
0001
1000
0010
0100
0001
1000
0100
0010
,
0001
1000
0001
0010
0100
1000
0010
1000
0001
0010
0001
0000
1000
0010
1000
0000
,
0001
0010
0100
1000
0010
0100
0001
0010
0100
1000
0010
0100
,
0001
0010
0001
0100
0010
1000
0100
1000
0010
0100
0001
1000
,
0001
0010
0100
1000
0010
0100
0001
0010
0100
1000
0010
0100
,
0001
1000
0010
0100
0001
0010
0001
0100
0010
1000
0001
1000
,
0100
0010
0001
1000
0010
0100
0001
1000
0100
0010
0001
0100
,
0010
1000
0100
1000
0010
0100
0001
0010
0001
1000
0010
0100
,
0001
0010
0100
1000
0001
1000
0010
0100
0001
1000
0100
0010
,
0002
0000
0000
1003
,
0001
0100
0010
1000
0100
0010
0001
1000
0001
0010
0100
1000
0001
1000
0010
0100
,
0001
1000
0010
1000
0001
0010
0100
1000
0001
0100
0001
0010
0001
1000
0010
1000
,
0001
0010
0100
1000
0010
0100
0001
0010
0001
1000
0010
1000
0001
0010
0100
1000
,
0010
0100
0001
1000
0001
0010
0100
1000
0010
0100
0001
1000
0100
1000
0001
1000
,
0010
0100
0001
1000
0100
0010
0001
1000
0001
0010
0100
1000
0001
0100
0001
1000
,
0010
0100
0001
0010
0100
1000
0001
1000
0010
0100
0001
1000
0100
0010
0001
0100
,
0001
1000
0010
0100
0001
1000
0001
0010
0100
1000
0010
0100
0010
1000
0100
0010
,
0001
1000
0001
1000
0100
0010
0001
1000
0010
0100
0001
1000
0001
0000
0010
0100
,
1000
0100
0010
0001
0100
0010
1000
0001
1000
0010
0100
0001
1000
0001
0010
0100
,
1000
0001
0010
0001
1000
0010
0100
0001
1000
0100
1000
0010
1000
0001
0010
0001
,
1000
0010
0100
0001
0010
0100
1000
0010
1000
0001
0010
0001
1000
0010
1000
0001
,
0010
0100
1000
0100
0010
0001
1000
0001
0010
0100
1000
0010
0100
0001
1000
0001
,
0010
0100
1000
0001
0100
0010
1000
0001
1000
0010
0100
0001
1000
0100
1000
0001
,
0010
0100
1000
0010
0100
0001
1000
0001
0010
0100
1000
0001
0100
0010
1000
0100
,
1000
0001
0010
0100
1000
0001
1000
0010
0100
0001
0010
0100
0010
0001
0100
0010
,
1000
0001
0010
0100
1000
0010
0100
0001
0010
0100
1000
0001
1000
0000
0001
0000
,
0020
0130
2000
3010
2000
3001
0200
0301
,
0020
0130
1000
0020
0130
0001
2000
3001
,
0200
0301
0020
0130
2000
3001
0200
0310
,
2000
3100
0010
0002
0103
0010
2000
3001
,
2000
3100
0020
0031
0020
0130
2000
3001
,
0200
0310
1000
0002
0013
0100
2000
3001
,
2000
3010
0200
0310
2000
3001
0020
0130
,
1000
0010
1000
0000
0001
0000
1000
0010
1000
0000
0001
0000
0010
0100
1000
0001
,
2000
0000
0000
0000
0000
3100
0010
0001
,
1000
0010
0000
0100
0000
0001
0000
1000
,
0001
0000
0010
0000
0100
1000
0000
0002
,
0000
0000
0000
0000
2003
0000
0000
3000
,
0002
0000
0000
0000
0000
0103
0010
1000
,
0001
0010
0000
0100
0000
1000
0000
0001
,
1000
0000
0010
0000
0100
0001
0000
1000
,
0000
0100
0000
0010
0000
0001
1000
0000
,
0020
0000
0000
0000
,
0000
0000
0000
0000
,
0030
0000
0000
0000
;
