#TITLE:響喜乱舞;
#SUBTITLE:;
#ARTIST:GARNiDELiA;
#TITLETRANSLIT:Kyoukiranbu;
#SUBTITLETRANSLIT:;
#ARTISTTRANSLIT:;
#GENRE:;
#CREDIT:;
#BANNER:;
#BACKGROUND:;
#LYRICSPATH:;
#CDTITLE:;
#MUSIC:Kyoukiranbu.ogg;
#OFFSET:0.002000;
#SAMPLESTART:77.900002;
#SAMPLELENGTH:12.000000;
#SELECTABLE:YES;
#BPMS:0.000000=150.000000
;
#STOPS:
;
#BGCHANGES:;
#KEYSOUNDS:;
#ATTACKS:;

//---------------dance-single - ----------------
#NOTES:
     dance-single:
     :
     Hard:
     15:
     0.627687,0.853429,0.182086,0.475007,0.368130,555.000000,532.000000,23.000000,60.000000,0.000000,0.000000,0.627687,0.853429,0.182086,0.475007,0.368130,555.000000,532.000000,23.000000,60.000000,0.000000,0.000000:
// measure 0
0000
0000
0000
0000
,  // measure 1
0000
0000
0000
0000
,  // measure 2
0000
0000
0000
0000
,  // measure 3
0000
0000
0000
0000
,  // measure 4
0000
0000
0000
0000
0000
0000
0000
0000
0000
0000
0000
0000
0001
0100
0010
1000
,  // measure 5
0001
0100
0001
1000
0100
0010
0000
0001
,  // measure 6
1000
0100
1000
0001
0100
0010
0000
1000
,  // measure 7
0001
0000
0000
0010
0000
0000
0100
0000
1000
0000
0000
0010
0000
0000
0001
0000
,  // measure 8
0010
0100
0010
1000
0200
0010
0300
0100
,  // measure 9
0020
0000
0030
0001
0010
1000
0010
0001
,  // measure 10
2000
0000
3000
0001
0100
1000
0100
0001
,  // measure 11
2000
0000
3000
0001
0010
1000
0010
0001
,  // measure 12
2000
0000
3002
0000
0203
0010
0300
0100
,  // measure 13
0020
0000
0030
1000
0010
0001
0010
1000
,  // measure 14
0002
0000
0003
1000
0100
0001
0100
1000
,  // measure 15
0002
0000
0003
1000
0010
0001
0010
1000
,  // measure 16
0002
0000
2003
0000
3200
0000
0310
0001
,  // measure 17
1000
1000
0010
1000
0002
0000
0103
0001
,  // measure 18
2000
0100
3100
1000
0002
0000
0103
0000
,  // measure 19
0001
0001
0020
0000
2030
0000
3002
0000
,  // measure 20
0203
1000
2300
0000
3020
0000
0130
0001
,  // measure 21
0010
0010
0100
1000
0020
0000
0130
0001
,  // measure 22
0020
0100
0130
1000
0020
0000
0130
0001
,  // measure 23
1000
1000
0200
0000
0302
0000
1003
0010
,  // measure 24
0002
1000
1000
0000
0103
0000
0010
0100
,  // measure 25
0201
0000
0310
0200
1000
0300
0102
0000
,  // measure 26
0000
1000
1000
0000
0013
0000
0010
0100
,  // measure 27
0201
0000
0310
0200
1000
0300
2100
0000
,  // measure 28
0000
0001
0001
0000
3010
0000
1000
0010
,  // measure 29
0120
0000
1030
0020
0001
0030
0120
0000
,  // measure 30
0000
1000
1030
0000
0002
0000
0000
0013
,  // measure 31
0120
0000
0031
0020
1000
0030
0120
0000
,  // measure 32
0000
0001
0031
0000
1000
0000
0000
0000
,  // measure 33
2002
0000
0000
0000
,  // measure 34
0000
0000
0000
0000
,  // measure 35
0000
0000
0000
0000
,  // measure 36
0000
0000
0000
0000
3003
0000
0000
0000
1000
0100
1000
0100
0010
0001
1000
0100
,  // measure 37
1000
0000
1000
0001
1000
0000
1000
0010
,  // measure 38
1000
0000
1000
0001
0100
1000
0100
0001
,  // measure 39
1000
0000
1000
0100
1000
0000
0001
2000
,  // measure 40
0010
0000
0000
0000
0100
0000
0000
0000
3001
0000
0010
0001
0010
0100
1000
0001
,  // measure 41
1000
0000
0000
1000
0100
0000
1000
0000
0010
0100
0000
0010
0100
0000
0001
0000
,  // measure 42
0010
0000
0000
0010
0100
0000
1000
0000
0010
0100
0001
0100
0010
0000
1000
0000
,  // measure 43
0001
0000
0000
0001
0100
0000
0001
0000
0010
0100
0000
0010
0100
0000
1000
0000
,  // measure 44
0020
0000
0000
0000
0001
0000
0000
0000
1030
0010
1000
0010
0100
0001
0100
0001
,  // measure 45
1000
0000
0100
0010
0001
0000
1000
0000
0001
0000
0100
0010
1000
0000
0001
0000
,  // measure 46
1000
0000
0100
0010
0001
0000
1000
0000
0001
0100
0010
1000
0001
0000
0010
0000
,  // measure 47
0001
0100
0001
0100
0010
1000
0010
1000
0001
0010
0001
0010
0100
1000
0001
0100
,  // measure 48
0020
0000
0001
0000
1030
0000
0001
0100
,  // measure 49
0010
0000
0000
1000
0010
0000
1000
0000
0001
0000
1000
0100
1000
0000
0100
0000
,  // measure 50
0010
0000
0000
0001
0010
0000
0001
0000
1000
0000
0001
0100
0001
0000
0100
0000
,  // measure 51
2010
0001
3001
0000
0012
1000
1003
0010
,  // measure 52
0100
0000
0001
0010
0100
0000
0010
0000
0002
0000
1003
0000
1001
0000
0000
0000
,  // measure 53
0001
0000
0000
0010
0100
0000
1000
0000
0001
0000
0100
0010
0100
0000
0001
0000
,  // measure 54
1000
0000
0000
0100
0010
0000
0001
0000
1000
0000
0010
0100
0010
0000
1000
0000
,  // measure 55
0001
0010
2200
3300
1000
0010
0202
0303
,  // measure 56
1000
0100
0010
0000
0001
0100
0010
0000
1000
0100
0010
0000
0001
0100
0010
0000
,  // measure 57
1000
0000
0000
0100
0010
0000
0100
0000
0001
0000
0100
1000
0100
0000
0010
0000
,  // measure 58
0001
0000
0000
0100
0010
0000
0100
0000
1000
0000
0100
0001
0100
0000
0010
0000
,  // measure 59
0102
1000
1003
0000
2100
0001
3001
0010
,  // measure 60
0100
0000
1000
0010
0100
0000
0010
0000
2000
0000
3001
0000
1001
0000
0000
0000
,  // measure 61
0001
0000
0100
0010
1000
0000
0001
1000
0100
0000
0010
0000
0001
0000
0001
0000
,  // measure 62
1000
0000
0010
0100
0001
0000
1000
0001
0010
0000
0100
0000
1000
0000
1000
0000
,  // measure 63
0001
0000
0100
0010
1000
0000
0001
0000
1000
0000
0100
0010
0001
0000
1000
0000
,  // measure 64
0001
0010
0100
0000
1000
0010
0100
0000
0001
0010
0100
0000
1000
0010
0100
0000
,  // measure 65
0001
0000
0010
0001
0100
0000
0010
1000
0001
0000
0010
0100
1000
0000
0001
0000
,  // measure 66
1000
0000
0010
1000
0100
0000
0010
0001
1000
0000
0010
0100
0001
0000
1000
0000
,  // measure 67
0100
0010
0100
1000
0100
0000
0010
0000
0001
0100
0010
0100
0001
0000
1000
0000
,  // measure 68
0010
0000
1000
0100
0001
0000
0100
0000
1000
0000
0010
0000
0110
0000
0000
0000
,  // measure 69
2000
0000
0000
0000
3100
0000
0010
0001
0100
0000
0010
0000
0100
0001
0010
0000
,  // measure 70
0000
0000
0001
0100
1000
0000
0100
0000
0010
1000
0001
0100
0010
0000
1000
0000
,  // measure 71
0002
0000
0000
0000
0103
0000
0010
1000
0100
0000
0010
0000
0100
1000
0010
0000
,  // measure 72
0000
0000
1000
0100
0001
0000
0100
0000
0010
0001
1000
0100
0010
0000
0001
0000
,  // measure 73
1000
0000
0000
0010
0000
0000
0110
0000
0001
0000
0000
0010
0000
0000
0110
0000
,  // measure 74
1000
0000
0000
0010
0000
0000
0101
0000
0001
0000
0000
0010
0000
0000
1100
0000
,  // measure 75
0002
0000
0000
0000
0103
0000
0010
1000
0100
0000
0001
0000
0100
1000
0001
0100
,  // measure 76
0020
1000
0100
0031
,  // measure 77
0110
0000
0000
0000
;

//---------------dance-single - ----------------
#NOTES:
     dance-single:
     :
     Medium:
     10:
     0.436554,0.548633,0.190003,0.443340,0.015834,386.000000,362.000000,24.000000,56.000000,0.000000,0.000000,0.436554,0.548633,0.190003,0.443340,0.015834,386.000000,362.000000,24.000000,56.000000,0.000000,0.000000:
0000
0000
0000
0000
,
0000
0000
0000
0000
,
0000
0000
0000
0000
,
0000
0000
0000
0000
,
0000
0000
0000
0000
,
0001
0000
0101
0000
0000
1001
0000
0000
,
1000
0000
1100
0000
0000
1001
0000
0000
,
0001
0000
0011
0000
0000
1001
0000
0000
,
1000
0000
1010
0000
0000
1001
0000
0000
,
0002
0000
0103
0010
,
2000
0000
3001
0010
,
0200
0000
0310
0001
,
2000
0010
3100
0000
,
2000
0000
3100
0010
,
0002
0000
1003
0010
,
0200
0000
0310
1000
,
0002
0010
0203
0300
,
0001
0010
0100
0000
0010
0000
0011
0000
,
1000
0001
0001
0000
0200
0000
0300
0000
,
0020
2030
3200
0320
,
0032
2003
3020
0030
,
1000
0100
0010
0000
0100
0000
1100
0000
,
0001
1000
1000
0000
0020
0000
0030
0000
,
0200
0302
0023
0230
,
2300
3002
0203
0300
,
0002
0010
1000
0203
,
0000
0010
0301
0000
,
2000
0010
0001
3200
,
0000
0010
1300
0000
,
0200
1000
0001
0320
,
0000
0031
1000
0000
,
0020
0001
1000
0230
,
0000
0301
1000
0000
,
0001
0000
1000
0100
1000
0000
0001
0100
,
0001
0000
1000
0100
0010
0100
1000
0001
,
1000
0000
0001
0100
0001
0000
1000
0001
,
0010
0100
1100
0000
,
1000
0000
0001
0010
0001
0000
1000
0010
,
1000
0000
0001
0100
0010
0100
0001
1000
,
0001
0000
0010
0100
1000
0000
0001
0100
,
0010
1000
1001
0000
,
1100
0000
1000
0001
0010
0000
0001
1000
,
0010
0000
1000
0001
0010
1000
0010
0001
,
1000
0000
0010
1000
0001
0000
0010
0001
,
0100
0000
1010
0000
0101
0001
1000
0000
,
0001
0000
1000
0100
0010
0100
1000
0010
,
0100
0000
0001
0100
0010
0100
0001
1000
,
0001
0010
0100
1000
0001
0100
0010
1000
,
0200
0001
1300
0000
,
1002
0000
0013
0001
0100
0010
1000
0000
,
2001
0000
3010
1000
0100
0010
0001
0000
,
2000
0010
3010
0000
0002
0010
0013
0000
,
1000
0100
0010
0001
2000
0000
3010
0000
,
0120
0000
1030
0001
0010
0100
1000
0000
,
0120
0000
0031
1000
0010
0100
0001
0000
,
1000
0100
0110
0000
0001
0100
0110
0000
,
1000
0100
0010
0100
0001
0100
0010
0100
,
2100
0000
3001
0100
0010
0100
1000
0000
,
0102
0000
1003
0100
0010
0100
0001
0000
,
0200
0010
0310
0000
0002
1000
1003
0000
,
0001
0100
1000
0100
0002
0000
1003
0000
,
1000
0100
0010
0001
0100
0000
0010
0100
,
0002
0010
0100
1003
,
0001
0010
1000
0000
1000
0010
0001
0000
,
0001
0100
0010
0100
1000
0100
0010
0100
,
0001
0100
0010
1000
0001
0100
0010
0010
,
1000
0100
0010
0001
1000
0100
0010
0010
,
0001
0100
1000
0000
1000
0100
0001
0000
,
1000
0100
0001
1000
0010
0001
1000
0000
,
0002
0000
0013
0001
0100
0010
0100
0001
,
0000
0010
0100
1000
0002
0000
0103
0001
,
2000
0000
3010
1000
0100
0010
0100
1000
,
0000
0010
0100
0001
2000
0000
3100
0000
,
0010
0000
0000
0010
0000
0000
0010
0000
0001
0000
0000
1000
0000
0000
0001
0000
,
0100
0000
0000
0100
0000
0000
0100
0000
0010
0000
0000
1000
0000
0000
0001
0000
,
0020
0000
0130
1000
0010
0100
0010
1000
,
0200
0000
0320
0000
0032
0000
2003
3000
,
0110
0000
0000
0000
;

//---------------dance-single - ----------------
#NOTES:
     dance-single:
     :
     Easy:
     6:
     0.270301,0.426714,0.205836,0.427506,0.000000,239.000000,213.000000,26.000000,54.000000,0.000000,0.000000,0.270301,0.426714,0.205836,0.427506,0.000000,239.000000,213.000000,26.000000,54.000000,0.000000,0.000000:
0000
0000
0000
0000
,
0000
0000
0000
0000
,
0000
0000
0000
0000
,
0000
0000
0000
0000
,
0000
0000
0000
0000
,
0002
0000
0003
0000
,
2000
0000
3000
0000
,
0020
0000
0030
0000
,
0200
0000
0300
0000
,
0002
0000
0103
0001
,
2000
0000
3100
1000
,
0002
0000
0013
0001
,
2000
3020
0230
0300
,
0002
0000
0013
0001
,
2000
0000
3010
1000
,
0002
0000
0013
0100
,
2000
3002
0203
0300
,
0002
1003
0200
1300
,
0020
1030
0002
0003
,
2000
3200
0320
0032
,
0203
0320
2030
3000
,
2000
3001
0200
0301
,
0020
0031
2000
3000
,
0002
0023
0230
2300
,
3020
0000
0130
0000
,
0001
0100
0010
2000
,
0000
0001
3001
0000
,
1000
0100
0010
0002
,
0000
1000
1003
0000
,
0010
1000
0100
0020
,
0000
0001
0031
0000
,
0010
0001
0100
0020
,
0000
1000
1030
0000
,
2002
0000
0000
0000
,
0000
0000
0000
0000
,
3003
0000
0000
0000
,
0000
0000
0002
0000
,
0203
0000
0010
0000
,
0001
0000
0310
1000
,
0200
0000
0010
0000
,
1300
0001
1001
0000
,
0001
0100
0010
0100
,
0001
0100
0010
1000
,
0001
0010
0100
0010
,
0001
1000
1001
0000
,
1000
0100
0001
0100
,
1000
0100
0010
0001
,
1000
0010
0001
0010
,
1000
0001
1001
0000
,
0001
0100
0010
0010
,
1000
0100
0010
0010
,
0110
0000
1001
0000
,
1000
0010
1001
0000
,
1000
0100
0010
0010
,
0001
0100
0010
0010
,
0110
0000
1001
0000
,
1000
0100
0001
0100
,
1000
0001
0100
0101
,
0001
1000
0100
1100
,
0110
0000
1001
0000
,
0001
0100
1001
0000
,
1000
0010
0001
0010
,
1000
0100
0001
0100
,
2000
3000
0002
0003
,
1000
0010
0001
0010
,
1000
0100
0110
0110
,
0001
0100
0110
0110
,
2002
3003
0220
0330
,
0001
0100
1000
0100
,
0002
0000
0010
0103
,
0000
0010
1000
0001
,
2000
0000
0010
3100
,
0000
0010
0001
1000
,
1001
0000
0110
0000
,
1001
0000
0110
0000
,
1002
0000
0100
0013
,
0100
0100
0100
0010
,
0110
0000
0000
0000
;

//---------------dance-double - ----------------
#NOTES:
     dance-double:
     :
     Hard:
     15:
     0.617509,0.853429,0.150419,0.498757,0.352297,546.000000,527.000000,19.000000,63.000000,0.000000,0.000000,0.617509,0.853429,0.150419,0.498757,0.352297,546.000000,527.000000,19.000000,63.000000,0.000000,0.000000:
00000000
00000000
00000000
00000000
,
00000000
00000000
00000000
00000000
,
00000000
00000000
00000000
00000000
,
00000000
00000000
00000000
00000000
,
00000000
00000000
00000000
00000000
00000000
00000000
00000000
00000000
00000000
00000000
00000000
00000000
00001000
00010000
00001000
00010000
,
00000100
00010000
00001000
01000000
00100000
00010000
00000000
00001000
,
01000000
00001000
00010000
00000100
00000010
00001000
00000000
00010000
,
00000100
00000000
00000000
00010000
00000000
00000000
00001000
00000000
01000000
00000000
00000000
00100000
00000000
00000000
00010000
00000000
,
00001000
00010000
00001000
00100000
00020000
00001000
00030000
00000100
,
00002000
00000000
00003000
00000001
00000100
00001000
00010000
00000010
,
00002000
00000000
00003000
00000001
00000010
00001000
00010000
00000010
,
00002000
00000000
00003000
00000001
00000100
00001000
00010000
00000010
,
00002000
00000000
00003200
00000000
00020300
00001000
00030000
01000000
,
00020000
00000000
00030000
10000000
01000000
00010000
00001000
00100000
,
00020000
00000000
00030000
10000000
00100000
00010000
00001000
01000000
,
00020000
00000000
00030000
10000000
01000000
00010000
00001000
00100000
,
00020000
00000000
02030000
00000000
03002000
00000000
00103000
00001000
,
00010000
00010000
00000010
00010000
00002000
00000000
01003000
00001000
,
00020000
00000100
00030100
00010000
00002000
00000000
00013000
00000000
,
00001000
00001000
00020000
00000000
02030000
00000000
23000000
00000000
,
30200000
00010000
00320000
00000000
00032000
00000000
01003000
00001000
,
00010000
00010000
00000100
00010000
00002000
00000000
00103000
00001000
,
00020000
00000010
00030010
00010000
00002000
00000000
00013000
00001000
,
00010000
00010000
00002000
00000000
00003200
00000000
00000302
00000000
,
00000023
00001000
00002030
00000000
00023000
00000000
00030100
00000010
,
00000021
00000000
00000130
00000020
00001000
00000030
00000012
00000000
,
00000000
00001000
00001000
00000000
00000103
00000000
00000010
00000100
,
00000201
00000000
00000310
00000200
00001000
00000300
00020100
00000000
,
00000000
00001000
00001000
00000000
01030000
00000000
00001000
00010000
,
00021000
00000000
01030000
00020000
00000100
00030000
00012000
00000000
,
00000000
00010000
00010000
00000000
02003000
00000000
00000000
03001000
,
00012000
00000000
00003100
00002000
01000000
00003000
00021000
00000000
,
00000000
00001000
00001000
00000000
00030100
00000000
00000000
00000000
,
00022000
00000000
00000000
00000000
,
00000000
00000000
00000000
00000000
,
00000000
00000000
00000000
00000000
,
00033000
00000000
00000000
00000000
00000000
00000000
00000000
00000000
00001000
00010000
00001000
00010000
00000100
00001000
00000100
00000010
,
00000001
00000000
00000001
00001000
00000001
00000000
00000001
00000100
,
00000001
00000000
00000001
00001000
00000100
00000010
00001000
00010000
,
00001000
00000000
00001000
00100000
00001000
00000000
00001000
00010000
,
00002000
00000000
00000000
00000000
00000100
00000000
00000000
00000000
00013000
00000000
00001000
00010000
00001000
00100000
00010000
00100000
,
01000000
00000000
00000000
10000000
01000000
00000000
00100000
00000000
01000000
00000000
00000000
00100000
00001000
00000000
00010000
00000000
,
00001000
00000000
00000000
00010000
00000100
00000000
00000010
00000000
00001000
00000000
00000010
00000100
00000010
00000000
00000001
00000000
,
00001000
00000000
00000000
00000001
00000100
00000000
00000010
00000000
00000100
00000000
00000000
00000010
00010000
00000000
00001000
00000000
,
00020000
00000000
00000000
00000000
01000000
00000000
00000000
00000000
00031000
00010000
00001000
00010000
00000100
00001000
00000100
00000010
,
00000001
00000000
00001000
00000001
00000100
00000000
00000010
00000000
00000100
00000000
00000010
00010000
00001000
00000000
00010000
00000000
,
00001000
00000000
00010000
00001000
01000000
00000000
00100000
00000000
01000000
00010000
10000000
00010000
00100000
00000000
01000000
00000000
,
10000000
01000000
10000000
01000000
00100000
00010000
00100000
00010000
00100000
00001000
00100000
00001000
00010000
00001000
00010000
00001000
,
00020000
00000000
01000000
00000000
00031000
00000000
00010000
00000100
,
00000010
00000000
00000000
00000001
00000010
00000000
00000001
00000000
00001000
00000000
00000001
00000100
00000001
00000000
00000100
00000000
,
00000010
00000000
00000000
00001000
00000010
00000000
00010000
00000000
00000100
00000000
00010000
00001000
00010000
00000000
00000100
00000000
,
00012000
01000000
01003000
00000000
00021000
00000100
00030100
00000010
,
00000001
00000000
00001000
00000010
00000100
00000000
00001000
00000000
00020000
00000000
00031000
00000000
00011000
00000000
00000000
00000000
,
00001000
00000000
00000000
01000000
00100000
00000000
10000000
00000000
00010000
00000000
00100000
01000000
00100000
00000000
00001000
00000000
,
00010000
00000000
00000000
00000100
00000010
00000000
00000001
00000000
00001000
00000000
00000010
00000100
00000010
00000000
00010000
00000000
,
00000100
00010000
00022000
00033000
01000000
00001000
00022000
00033000
,
00001000
00010000
00000100
00000000
00010000
00001000
01000000
00000000
00001000
00010000
00000010
00000000
00010000
00001000
00100000
00000000
,
00010000
00000000
00000000
10000000
01000000
00000000
00010000
00000000
00001000
00000000
00000010
00000001
00001000
00000000
00000010
00000000
,
00000100
00000000
00000000
00000001
00000100
00000000
00001000
00000000
00010000
00000000
00100000
10000000
00010000
00000000
00100000
00000000
,
00021000
00000100
00030100
00000000
00012000
01000000
01003000
00100000
,
10000000
00000000
00010000
00100000
01000000
00000000
00010000
00000000
00002000
00000000
00013000
00000000
00011000
00000000
00000000
00000000
,
00001000
00000000
00010000
00000100
00001000
00000000
00000100
00000010
00000001
00000000
00001000
00000000
00000010
00000000
00000010
00000000
,
00010000
00000000
00001000
01000000
00010000
00000000
01000000
00100000
10000000
00000000
00010000
00000000
00100000
00000000
00100000
00000000
,
01000000
00000000
00010000
00001000
00010000
00000000
00000010
00000000
00000100
00000000
00001000
00010000
00001000
00000000
01000000
00000000
,
00001000
00010000
00000100
00000000
00010000
00001000
01000000
00000000
00001000
00010000
00000010
00000000
00010000
00001000
00100000
00000000
,
00010000
00000000
10000000
00100000
01000000
00000000
00010000
00100000
01000000
00000000
00100000
00001000
00010000
00000000
00000100
00000000
,
00001000
00000000
00000001
00000010
00000100
00000000
00001000
00000010
00000100
00000000
00000010
00010000
00001000
00000000
00010000
00000000
,
00000100
00001000
00000100
00010000
00000100
00000000
00010000
00000000
00001000
01000000
00010000
01000000
00001000
00000000
00010000
00000000
,
00000010
00000000
00000100
00001000
00010000
00000000
00100000
00000000
10000000
00000000
00010000
00000000
10010000
00000000
00000000
00000000
,
20000000
00000000
00000000
00000000
31000000
00000000
00100000
00001000
00010000
00000000
00001000
00000000
00010000
00001000
01000000
00000000
,
00000000
00000000
00100000
10000000
00010000
00000000
00100000
00000000
01000000
00010000
01000000
00010000
00001000
00000000
00000010
00000000
,
00000002
00000000
00000000
00000000
00000103
00000000
00000010
00010000
00001000
00000000
00010000
00000000
00001000
00010000
00000100
00000000
,
00000000
00000000
00000010
00000001
00001000
00000000
00000001
00000000
00000100
00001000
00000100
00001000
00010000
00000000
00100000
00000000
,
10000000
00000000
00000000
01000000
00000000
00000000
00010000
00000000
00001000
00000000
00000000
00000010
00000000
00000000
00000001
00000000
,
00000001
00000000
00000000
00000100
00000000
00000000
00001000
00000000
00010000
00000000
00000000
00100000
00000000
00000000
10000000
00000000
,
00020000
00000000
00000000
00000000
00130000
00000000
01000000
00010000
00001000
00000000
00000010
00000000
00001000
00010000
01000000
00000000
,
00200000
01000000
00010000
00300100
,
00011000
00000000
00000000
00000000
;
