#TITLE:Kill The Lights;
#SUBTITLE:;
#ARTIST:Set It Off;
#TITLETRANSLIT:;
#SUBTITLETRANSLIT:;
#ARTISTTRANSLIT:;
#GENRE:;
#CREDIT:;
#MUSIC:Kill The Lights.ogg;
#BANNER:Kill_The_Lights_Banner.png;
#BACKGROUND:Kill_The_Lights_BG.png;
#CDTITLE:;
#SAMPLESTART:29.286;
#SAMPLELENGTH:12.563;
#SELECTABLE:YES;
#OFFSET:0.000;
#BPMS:0.000=160.000;
#STOPS:207.021=-0.750
,209.000=0.750
;
#BGCHANGES:;
#FGCHANGES:;

//--------------- dance-single - Agent A, [ITG 3] ----------------
#NOTES:
     dance-single:
     Agent A, [ITG 3]:
     Easy:
     5:
     0.228051,0.327343,0.161429,0.143493,0,178,160,18,16,0,0,0.228051,0.327343,0.161429,0.143493,0,178,160,18,16,0,0:
0000
0000
0000
0000
,
0000
0000
0000
0000
,
0000
0000
0000
0000
,
0000
0000
0000
0000
,
1000
0000
0001
0001
,
1000
0000
1000
0000
,
0001
0000
1000
1000
,
0001
0010
0100
0000
,
1100
0000
1001
0000
,
0001
0100
0001
0000
,
0010
0000
0100
0000
,
0010
0000
0100
0000
,
1100
0000
1001
0000
,
0001
0010
0001
0000
,
0100
0000
0010
0000
,
0100
0000
0010
1000
,
1010
0000
0010
0100
,
0101
0000
0001
1000
,
1001
0000
0001
0100
,
0020
0000
0130
0001
,
1000
0000
0100
0000
,
1000
0010
1000
0000
,
0200
0000
0000
0300
,
0020
0000
0000
0030
,
0001
0000
0100
0000
,
0010
0100
0010
0000
,
2000
0000
0000
3100
,
0010
0000
0100
1000
,
0001
0000
0100
0001
,
1000
0000
0100
1000
,
0001
0000
0010
0000
,
0001
0000
1000
0010
,
1000
0000
0100
0000
,
0010
0001
0010
0000
,
0200
0000
0000
0000
,
2300
0000
0000
0000
,
3010
0000
0100
0000
,
0020
0000
0000
0030
,
1000
0000
0100
0000
,
2000
0000
0000
3001
,
0010
0000
0001
0000
,
1000
0010
0200
0000
,
0301
0000
0100
0000
,
0001
0000
1000
0100
,
1100
0000
1001
0000
,
0001
0100
0001
0000
,
0011
0000
1001
0000
,
1000
0010
1000
0000
,
0020
0000
0000
0030
,
0200
0000
0000
0300
,
0001
0000
1000
0000
,
0100
0000
0010
0001
,
0000
0000
0100
0001
,
1000
0000
0100
0000
,
1000
0010
1000
0000
,
0200
0000
0000
0300
,
0020
0000
0000
0030
,
0001
0000
0100
0000
,
0010
0100
0001
0000
,
2000
0000
0000
3100
,
0010
0000
0100
1000
,
0010
0000
0100
0001
,
0010
0000
0100
1000
,
0010
0000
0100
0000
,
0001
0000
1000
0010
,
1000
0000
0100
0000
,
0010
0001
0010
0100
,
2000
0000
0000
3000
,
0020
0000
0000
0030
,
0110
0000
0101
0000
,
1100
0000
1001
0000
,
1010
0000
1001
0000
,
0001
0010
0100
0010
,
0011
0000
0000
0000
;

//--------------- dance-single - Agent A, [ITG 6] ----------------
#NOTES:
     dance-single:
     Agent A, [ITG 6]:
     Medium:
     9:
     0.42151,0.491014,0.269049,0.484288,0.026905,329,299,30,54,0,0,0.42151,0.491014,0.269049,0.484288,0.026905,329,299,30,54,0,0:
0000
0000
0000
0000
,
0000
0000
0000
0000
,
0000
0000
0000
0000
,
0000
0000
0000
0000
,
0001
0000
0100
0000
0100
0010
1000
0000
,
0001
0011
1001
0000
,
1000
0000
0010
0000
0010
0100
0001
0000
,
1000
1100
1001
0000
,
0001
0000
0000
0000
0100
0000
0000
0001
,
2000
3200
0320
0032
,
0000
0103
0010
1000
0000
0100
0010
0001
,
0000
0010
0100
2000
0000
0000
3000
0000
,
0001
0000
0000
0000
0010
0000
0000
0001
,
2000
3020
0230
0302
,
0000
0013
0100
1000
0000
0010
0100
0001
,
0000
0100
0010
2000
0000
0000
3000
0000
,
1100
0000
0000
1000
0000
0010
0100
0000
,
0110
0000
0000
0001
0000
0010
0100
0000
,
1100
0000
0000
0100
0000
0000
0010
0000
,
0011
0000
0001
0100
,
0101
0000
0001
0020
0000
0130
0010
0001
,
0000
0100
0000
0010
0000
1000
0000
0100
,
0020
0230
2300
3020
,
0230
0301
1000
0001
,
0010
0000
0010
0200
0000
1300
0001
0200
,
0000
0302
0000
2003
0000
3200
0000
0310
,
0001
0000
1000
0000
0010
1000
0010
0100
,
0000
0001
1000
0100
0000
0110
0000
0000
,
0001
0000
0010
0000
0100
0010
0100
0000
,
1000
0000
0010
0000
0100
0010
0100
0000
,
0001
0000
0000
0000
0000
0000
0100
0000
0010
0000
0000
1000
0000
0000
0002
0000
,
0000
0000
0000
0013
0001
0000
0100
0000
,
0110
0000
1000
0020
0000
0130
0010
1000
,
0000
0100
0000
0010
0000
0001
0000
0100
,
0020
0230
0302
0023
,
0230
2300
3020
0130
,
0101
0000
0001
0000
,
0010
0100
0010
0001
,
1001
0000
0010
0000
,
1000
0100
0010
0001
,
1000
0000
0010
0000
0100
0010
0100
0000
,
0001
0000
0010
0100
0000
0000
0000
0100
,
1000
0000
0000
0010
0000
0000
0100
0000
0000
0000
0001
0000
0000
0000
0002
0000
,
0000
0023
0000
0230
0000
1300
0001
0000
,
1001
0000
1100
0000
0101
0000
0000
0001
,
0100
0000
0000
0010
0000
0000
1000
0000
0000
0000
0100
0000
0000
0000
0010
0000
,
0011
0000
1001
0000
1010
0000
0000
1000
,
0010
0000
0000
0100
0000
0000
0001
0000
0000
0000
0010
0000
0000
0000
0100
0000
,
1000
0010
1000
0010
,
0100
0001
1000
0200
0000
0000
0300
1000
,
0001
0000
0000
0100
0000
0000
0010
0000
0000
0000
0100
0000
0000
0000
0001
0000
,
0000
0010
0000
0100
1000
0000
1001
0000
,
0000
0000
1000
0010
,
1010
0000
1000
0200
0000
0310
0100
1000
,
0000
0010
0000
0100
0000
0001
0000
0010
,
0200
0320
0032
0203
,
0320
1030
0001
1000
,
0100
0000
0100
0020
0000
0031
1000
0020
,
0000
2030
0000
3002
0000
0023
0000
0130
,
1000
0000
0001
0000
0100
0001
0100
0010
,
0000
1000
0001
0010
0000
0110
0000
0000
,
1000
0000
0100
0000
0010
0100
0010
0000
,
0001
0000
0100
0000
0010
0100
0010
0000
,
1000
0000
0000
0000
0000
0000
0010
0000
0100
0000
0000
0001
0000
0000
2000
0000
,
0000
0000
0000
3100
1000
0000
0010
0000
,
0110
0000
0001
0200
0000
0310
0100
0001
,
0000
0010
0000
0100
0000
1000
0000
0010
,
0200
0302
0023
0032
,
0203
0320
2030
3100
,
1100
0000
1000
0100
0010
0000
0001
0000
,
0011
0000
1000
0010
0100
0000
0101
0000
,
0011
0000
0001
0010
0100
0000
1000
0000
,
1100
0000
0001
0100
0010
0000
1010
0000
,
0011
0000
0000
0000
;

//--------------- dance-single - Agent A, [ITG 7] ----------------
#NOTES:
     dance-single:
     Agent A, [ITG 7]:
     Hard:
     12:
     0.499662,0.589217,0.349763,0.331827,0.035873,390,351,39,37,0,0,0.499662,0.589217,0.349763,0.331827,0.035873,390,351,39,37,0,0:
0000
0000
0000
0000
,
0000
0000
0000
0000
,
0000
0000
0000
0000
,
0000
0000
0000
0000
,
1001
0000
1010
0000
0010
0100
0001
1000
,
0100
1100
1001
0000
,
1001
0000
0101
0000
0100
0010
1000
0001
,
0010
0100
1000
0000
,
0001
0000
0000
0100
0010
0000
0000
1000
,
0200
0320
0032
2003
,
3001
1000
1000
0010
0000
1000
0001
0001
,
0000
0010
0100
1000
0000
1000
0010
1000
,
0001
0000
0000
0010
0100
0000
0000
1000
,
0020
0230
0302
2003
,
3001
1000
1000
0100
0000
1000
0001
0001
,
0000
0100
0010
1000
0000
1000
0100
0000
,
1100
0000
1000
0010
0000
0100
0001
0000
,
0011
0000
0001
0010
0000
0100
1000
0000
,
1020
0000
0130
0010
0000
1000
0100
0000
,
0011
0000
0001
0100
0010
0000
0110
0000
,
0101
0000
0001
0020
0000
0130
0010
0004
,
0000
0403
0000
0340
0000
4030
0000
3100
,
0020
0230
2300
3020
,
0230
0000
0301
0000
1000
1000
0001
0100
,
0001
0000
0010
0200
0000
1300
0001
0400
,
0000
0304
0000
4003
0000
3400
0000
0310
,
0001
0000
1000
0000
0010
1000
0001
0010
,
0000
0010
0001
1000
0000
1010
0000
0000
,
1000
0040
0000
1030
0100
0010
0100
1000
,
0040
0000
0130
0001
0010
0100
4000
0000
,
3001
0000
0000
0000
0000
0000
0100
0000
0010
0000
0000
1000
0000
0000
0002
0000
,
0000
0000
0000
0013
0100
0000
0110
0000
,
0011
0000
0001
0200
0000
0310
0100
0004
,
0000
0043
0000
0430
0000
4300
0000
3010
,
0200
0320
2030
3200
,
0310
0000
0000
0001
0000
0000
0100
0000
0010
0000
0100
0000
0001
0000
0000
0000
,
1001
0000
1000
0000
0100
0000
0000
0100
,
1000
0000
0000
0001
0000
0000
0100
0000
0000
0000
0010
0000
0000
0000
0210
0000
,
0000
0000
0301
0000
0010
0000
0000
0010
,
0001
0000
0000
1000
0000
0000
0010
0000
0000
0000
0100
0000
0000
0000
0110
0000
,
0000
0100
0001
0001
0010
0100
0100
1000
,
0010
0100
0001
0010
0000
0100
0000
1000
,
0001
0000
0000
0100
0000
0000
0001
0000
0000
0000
1000
0000
0000
0000
0100
0000
,
0000
1000
0000
0001
0000
0100
0001
0000
,
1001
0011
1010
1100
,
1000
0010
0100
0001
0010
0100
1000
0001
,
1001
1100
0101
0011
,
0001
0100
0010
1000
0100
0010
0001
1000
,
0010
0000
0100
0001
1000
0000
0100
0000
,
0010
0001
1000
0020
0000
0000
0030
1000
,
0001
0000
0000
0010
0000
0000
0100
0000
0000
0000
1000
0000
0000
0000
0010
0000
,
0000
0100
0000
0001
1001
0000
0110
0000
,
0000
0000
0100
0110
,
1010
0000
1000
0200
0000
0310
0100
4000
,
0000
3040
0000
0430
0000
0304
0000
0013
,
0200
0320
0032
0203
,
0320
0000
1030
0000
0001
0001
1000
0010
,
1000
0000
0100
0020
0000
0031
1000
0040
,
0000
4030
0000
3004
0000
0043
0000
0130
,
1000
0000
0001
0000
0100
0001
1000
0100
,
0000
0100
1000
0001
0000
0101
0000
0000
,
0001
0400
0000
0310
1000
0100
0010
0001
,
0400
0000
0310
1000
0100
0010
0004
0000
,
1003
0000
0000
0000
0000
0000
0010
0000
0100
0000
0000
0001
0000
0000
2000
0000
,
0000
0000
0000
3100
0010
0000
0110
0000
,
1100
0000
1000
0020
0000
0130
0010
4000
,
0000
3400
0000
0340
0000
0034
0000
0103
,
0020
0230
0302
0023
,
0130
0000
0000
1000
0000
0000
0010
0000
0100
0000
0010
0000
1000
0000
0000
0000
,
1010
0000
1000
0010
0100
0010
1000
0100
,
1100
0000
1000
0010
0000
0100
0001
0000
,
0011
0000
0001
0010
0100
0010
0001
0100
,
0010
0010
0100
0001
0101
0000
1001
0000
,
1100
0000
0000
0000
;

//--------------- dance-single - Agent A, FS [ITG 9] ----------------
#NOTES:
     dance-single:
     Agent A, FS [ITG 9]:
     Challenge:
     14:
     0.670059,0.785622,0.278017,0.31389,0.331827,523,492,31,35,0,0,0.670059,0.785622,0.278017,0.31389,0.331827,523,492,31,35,0,0:
0000
0000
0000
0000
,
0000
0000
0000
0000
,
0000
0000
0000
0000
,
0000
0000
0000
0000
,
1000
0000
0000
0000
0001
0000
1000
0001
1000
0000
0010
0000
0100
0000
0010
0000
,
1020
1030
0201
0301
1000
0200
0000
1300
,
0001
0000
0000
0000
1000
0000
0001
1000
0001
0000
0100
0000
0010
0000
0100
0001
,
1000
0000
0100
0010
0001
0000
1000
0000
0010
0000
0000
0000
1010
0000
0000
0000
,
0001
0000
0001
0100
0001
0000
1000
0100
,
2000
3020
0230
0302
,
1003
0000
0100
00M0
0100
0000
0001
0000
0100
00M0
0100
0000
1000
0000
0100
00M0
,
0100
0000
0001
0000
0010
0M00
0010
0000
1000
0000
0001
1000
0001
1000
0001
0000
,
1000
0000
1000
0010
1000
0000
0001
0010
,
0002
0203
0320
2030
,
3001
0000
0010
0M00
0010
0000
1000
0000
0010
0M00
0010
0000
0001
0000
0010
0M00
,
0010
0000
1000
0000
0100
00M0
0100
0000
0001
0000
1000
0001
1000
0001
1000
0001
,
0100
0000
0010
0100
0000
0001
0010
0100
,
1000
0000
0000
0000
0100
0000
0010
0000
0000
0000
0100
1000
0001
0100
0010
1000
,
0001
0000
0000
0000
0010
0000
0100
0000
0000
0000
0010
0001
1000
0010
0100
0001
,
1000
0001
1000
0001
1001
0000
0101
0000
,
0001
0000
0100
0000
0001
0000
1000
0000
0100
0000
0010
0000
0001
0000
0100
00M0
,
0100
0000
1000
0000
0010
0M00
0010
0000
0001
0000
0100
00M0
0100
0000
1000
0000
,
0010
1000
0010
0100
0001
0100
0001
1000
,
0100
0010
0100
1000
1001
0000
1010
0000
,
1000
0000
0010
0000
1000
0000
0001
0000
0010
0000
0100
0000
1000
0000
0100
000M
,
0100
0000
0010
0000
0100
000M
0100
0000
1000
0000
0010
0000
0100
0000
0001
0000
,
1000
0100
1000
0010
0100
0010
1000
0100
,
0000
1000
0010
0200
0000
0302
0000
0003
,
1000
0000
0010
000M
0010
0000
0100
0000
0010
000M
0010
0000
0100
0000
0001
0000
,
1000
0000
0100
000M
0100
0000
0010
0000
0100
000M
0100
0000
0010
0000
0001
0000
,
1000
0000
0000
0000
0010
0000
0100
0000
0001
0000
0000
0010
0000
0000
0100
0000
,
1000
0000
0001
0000
0100
0000
0001
0000
1000
0000
1000
0000
0001
1000
0001
1000
,
0001
0000
0100
0000
0001
0000
1000
0000
0100
0000
0010
0000
0001
0000
0100
00M0
,
0100
0000
1000
0000
0010
0M00
0010
0000
0001
0000
0100
00M0
0100
0000
1000
0000
,
0020
0230
0302
0023
,
0130
0000
0000
1000
0000
0000
0100
0000
0010
0000
0001
0000
0100
0000
0000
0000
,
0110
0000
0100
0000
0001
0000
1000
0100
,
0010
0000
0000
0100
0000
0000
1000
0000
0000
0000
0001
0000
0000
0000
0100
0000
,
0000
0000
0010
0000
1000
0000
0001
0010
,
0100
0000
0000
0010
0000
0000
0001
0000
0000
0000
1000
0000
0000
0000
0010
0000
,
1000
0000
0010
0M00
0010
0000
0001
0000
0100
00M0
0100
0000
1000
0000
0010
0000
,
0100
0001
0010
0200
0000
1300
0000
0001
,
0100
0000
0000
0010
0000
0000
0100
0000
0000
0000
0001
0000
0000
0000
0010
0000
,
0000
0000
0100
0000
0000
0000
1000
0000
0001
1000
0001
1000
0001
0000
0000
0000
,
1001
0000
2100
3100
0012
0013
1020
1030
,
0201
0301
0010
0100
1000
0010
0100
0101
,
1001
0000
0012
0013
2100
3100
0201
0301
,
1020
0000
1030
0000
0100
0000
0010
0000
0001
0000
0100
0010
0100
0010
1000
0000
,
0200
0000
1300
0001
0100
0000
0001
0000
,
1000
0010
1000
0100
0010
000M
0010
0000
1000
0100
0010
0001
1000
0000
0010
0100
,
0001
1000
0001
0010
0100
0010
0100
1000
,
0001
0100
0001
0100
0110
0000
1001
0000
,
0000
0000
2000
3002
,
1003
0000
0010
0000
1000
0000
0001
0000
0010
0000
0100
0000
1000
0000
0010
0M00
,
0010
0000
0001
0000
0100
00M0
0100
0000
1000
0000
0010
0M00
0010
0000
0001
0000
,
0100
0001
0100
0010
1000
0010
1000
0001
,
0010
0100
0010
0001
1001
0000
0101
0000
,
0001
0000
0100
0000
0001
0000
1000
0000
0100
0000
0010
0000
0001
0000
0010
M000
,
0010
0000
0100
0000
0010
M000
0010
0000
0001
0000
0100
0000
0010
0000
1000
0000
,
0001
0010
0001
0100
0010
0100
0001
0010
,
0000
0001
0100
0020
0000
2030
0000
3000
,
0001
0000
0100
M000
0100
0000
0010
0000
0100
M000
0100
0000
0010
0000
1000
0000
,
0001
0000
0010
M000
0010
0000
0100
0000
0010
M000
0010
0000
0100
0000
1000
0000
,
0001
0000
0000
0000
0100
0000
0010
0000
1000
0000
0000
0100
0000
0000
0010
0000
,
0001
0000
1000
0000
0010
0000
1000
0000
0001
0000
0001
0000
1000
0001
1000
0001
,
1000
0000
0010
0000
1000
0000
0001
0000
0010
0000
0100
0000
1000
0000
0010
0M00
,
0010
0000
0001
0000
0100
00M0
0100
0000
1000
0000
0010
0M00
0010
0000
0001
0000
,
0200
0320
2030
3200
,
0310
0000
0000
0001
0000
0000
0010
0000
0100
0000
1000
0000
0010
0000
0000
0000
,
0110
0000
0000
0000
0101
0000
0001
0100
0010
0000
1000
0000
0100
0000
0010
0000
,
1100
0000
0001
0100
0010
1000
0100
0010
,
0110
0000
0000
0000
1100
0000
1000
0100
0010
0000
0001
0000
0100
0000
0010
0100
,
0001
0000
0010
0M00
0010
0000
1000
0000
1100
0000
0000
0000
0101
0000
0000
0000
,
1001
0000
0000
0000
;
