#TITLE:KU-RU-KU-RU Cruller!;
#SUBTITLE:;
#ARTIST:Aqours;
#TITLETRANSLIT:;
#SUBTITLETRANSLIT:;
#ARTISTTRANSLIT:;
#GENRE:;
#CREDIT:;
#BANNER:KU-RU-KU-RU Cruller!.png;
#BACKGROUND:KU-RU-KU-RU Cruller!-bg.png;
#LYRICSPATH:;
#CDTITLE:;
#MUSIC:KU-RU-KU-RU Cruller!.ogg;
#OFFSET:0.005000;
#SAMPLESTART:59.993999;
#SAMPLELENGTH:21.500999;
#SELECTABLE:YES;
#BPMS:0.000000=120.000000
;
#STOPS:
;
#BGCHANGES:;
#KEYSOUNDS:;
#ATTACKS:;

//---------------dance-single - ----------------
#NOTES:
     dance-single:
     :
     Hard:
     12:
     0.443403,0.467748,0.183715,0.696184,0.420611,321.000000,302.000000,19.000000,72.000000,0.000000,0.000000,0.443403,0.467748,0.183715,0.696184,0.420611,321.000000,302.000000,19.000000,72.000000,0.000000,0.000000:
0000
0000
0000
0000
,
0000
0000
0000
0000
,
0000
0000
0000
0000
,
0000
0000
0000
0000
,
0000
0000
0000
0000
,
0001
1000
0000
1000
0001
1000
0000
1000
0001
0000
0100
0000
0010
0000
0000
1001
,
0000
0000
1000
0000
0002
0010
0003
0000
1000
0000
0002
0010
0003
0000
0000
0002
,
0000
0000
1003
0010
1000
0010
0000
0000
1010
0000
0001
0000
0101
0000
0000
1000
,
0000
0000
0001
0000
2000
0100
3000
0000
0001
0000
2000
0100
3000
0000
0000
2000
,
0000
0000
0000
0000
3001
0000
0100
0000
0020
0000
0000
0000
0130
0000
0000
1001
,
0000
0000
0001
0000
2000
0010
3000
0000
0001
0000
2000
0010
3000
0000
0000
2000
,
0000
0000
3001
0010
0001
0010
0000
0000
0011
0000
1000
0000
1100
0000
0000
0001
,
0000
0000
1000
0000
0002
0100
0003
0000
1000
0000
0002
0100
0003
0000
0000
0002
,
0000
0000
0000
0000
0013
0000
0100
0010
0100
0010
0000
0010
0100
0000
1000
0000
,
1001
0000
0000
0000
0001
0000
0100
0000
0010
0000
1000
0000
0001
0000
0010
0002
,
0010
0000
0000
0013
0000
0000
0000
0000
0001
0000
0000
0000
1000
0000
0010
0000
,
0200
0000
0000
0000
0301
0000
1000
0000
0100
0000
0010
0000
0001
0000
1000
0020
,
0000
0000
0130
0001
0100
0000
0000
0000
0002
0000
0000
0000
0203
0000
0000
0000
,
1300
0001
0010
0000
2000
0000
3200
0000
,
0301
1000
0010
0001
2000
0000
3020
0000
,
0130
1000
0100
0002
1000
0000
1003
0001
,
0010
0000
1000
0000
0010
0001
0000
0000
0200
0000
0000
0000
0310
0000
0000
0000
,
1001
0000
0001
0000
0100
0001
0000
0001
0010
0000
0100
0000
1000
0000
0010
0000
,
1000
0100
0001
2000
3020
0032
2003
0000
,
3001
0000
1000
0000
0010
1000
0000
1000
0100
0000
0010
0000
0001
0000
1000
0000
,
2002
3003
0220
0330
2002
3003
1000
0010
,
2000
0001
0100
3200
1000
0010
0320
0000
,
0000
0001
0031
0000
1001
0000
0001
0010
,
0002
1000
0100
0203
0010
1000
2300
0000
,
0000
0000
0000
3000
,
0100
0010
0100
0010
0000
0000
1000
0001
1000
0001
0000
0010
0001
0010
0001
2000
,
0000
0000
3001
0000
0100
0000
0010
0000
0002
0000
0003
0000
0110
0000
0000
0002
,
0000
0000
1003
0000
0100
0000
0010
0000
2000
0000
3000
0000
0110
0000
0000
0002
,
0000
0000
0103
0000
0010
0000
0100
0000
1000
0000
0100
0000
0001
0000
1000
0200
,
0000
0000
0302
0000
0000
0000
0000
0000
1003
0000
0010
0000
0001
0000
1000
0001
,
0100
0002
0203
0320
0031
2000
3200
0320
,
0000
0000
1030
0000
0001
0000
0010
0000
0100
0000
0000
0000
0100
2000
0000
0010
,
0000
0000
3001
0000
0100
0002
0000
0010
0000
0000
1003
0000
0100
2000
0000
3020
,
0000
0000
0200
0000
0330
0000
0100
0001
0100
0001
0000
0001
1000
0100
0000
0022
,
0000
0000
0033
0000
0001
0100
0000
2020
0000
0000
3030
0000
1000
0100
0000
0210
,
0000
0000
0020
0000
0000
0000
0000
0000
0330
0000
0000
0000
0010
0001
1000
0002
,
0000
0000
1003
0000
0002
0100
0003
0000
1000
0000
0002
0100
0003
0000
0000
0002
,
0000
0000
0013
0100
1000
0100
0000
0000
1100
0000
0001
0000
0011
0000
0000
1000
,
0000
0000
0001
0000
2000
0010
3000
0000
0001
0000
2000
0010
3000
0000
0000
2000
,
0000
0000
0000
0000
3100
0000
0010
0001
1000
0001
0000
0001
0100
0010
0100
0020
,
0000
0000
1030
0000
0010
1000
0000
0000
1000
0000
0010
1000
0000
0000
0000
1000
,
0000
0001
1000
0000
0100
0000
0010
0000
0001
0000
1000
0001
0000
0000
0000
1000
,
0000
0000
0001
0000
0100
0001
0000
0000
0001
0000
0100
0001
0000
0000
0000
0020
,
0000
0000
0000
0030
0000
0000
0000
0000
;

//---------------dance-double - ----------------
#NOTES:
     dance-double:
     :
     Hard:
     12:
     0.437877,0.467748,0.125700,0.696184,0.415776,317.000000,304.000000,13.000000,72.000000,0.000000,0.000000,0.437877,0.467748,0.125700,0.696184,0.415776,317.000000,304.000000,13.000000,72.000000,0.000000,0.000000:
// measure 0
00000000
00000000
00000000
00000000
,  // measure 1
00000000
00000000
00000000
00000000
,  // measure 2
00000000
00000000
00000000
00000000
,  // measure 3
00000000
00000000
00000000
00000000
,  // measure 4
00000000
00000000
00000000
00000000
,  // measure 5
00010000
00001000
00000000
00001000
00010000
00001000
00000000
00001000
00010000
00000000
00010000
00000000
00010000
00000000
00000000
00011000
,  // measure 6
00000000
00000000
00001000
00000000
02000000
00010000
03000000
00000000
00001000
00000000
02000000
00010000
03000000
00000000
00000000
00001000
,  // measure 7
00000000
00000000
00100000
01000000
00100000
01000000
00000000
00000000
20000000
00000000
32000000
00000000
03010000
00000000
00000000
00011000
,  // measure 8
00000000
00000000
00010000
00000000
00000020
00001000
00000030
00000000
00010000
00000000
00000020
00001000
00000030
00000000
00000000
00020000
,  // measure 9
00000000
00000000
00031000
00000000
00000010
00000000
00000001
00000000
00000200
00000000
00000000
00000000
00000310
00000000
00000000
00010010
,  // measure 10
00000000
00000000
00010000
00000000
00000200
00001000
00000300
00000000
00010000
00000000
00000200
00001000
00000300
00000000
00000000
00010000
,  // measure 11
00000000
00000000
00000010
00000100
00000010
00000100
00000000
00000000
00000002
00000000
00000203
00000000
00002300
00000000
00000000
00013000
,  // measure 12
00000000
00000000
00001000
00000000
00200000
00010000
00300000
00000000
00001000
00000000
00200000
00010000
00300000
00000000
00000000
00002000
,  // measure 13
00000000
00000000
00000000
00000000
00013000
00000000
00100000
01000000
00100000
01000000
00000000
01000000
00100000
00000000
10000000
00000000
,  // measure 14
10010000
00000000
00000000
00000000
10000000
00000000
01000000
00000000
00010000
00000000
00001000
00000000
00000010
00000000
00000001
00002000
,  // measure 15
00000001
00000000
00000000
00003001
00000000
00000000
00000000
00000000
00001000
00000000
00000000
00000000
00001000
00000000
00000010
00000000
,  // measure 16
00000200
00000000
00000000
00000000
00000301
00000000
00000100
00000000
00001000
00000000
00010000
00000000
00100000
00000000
10000000
00020000
,  // measure 17
00000000
00000000
10030000
01000000
10000000
00000000
00000000
00000000
20000000
00000000
00000000
00000000
32000000
00000000
00000000
00000000
,  // measure 18
03001000
00000100
00000010
00000000
00000002
00000000
00000203
00000000
,  // measure 19
00010300
01000000
00100000
10000000
00020000
00000000
00230000
00000000
,  // measure 20
01300000
10000000
01000000
00020000
00001000
00000000
00031000
00000100
,  // measure 21
00000001
00000000
00000100
00000000
00001000
00010000
00000000
00000000
00002000
00000000
00000000
00000000
00013000
00000000
00000000
00000000
,  // measure 22
00011000
00000000
00010000
00000000
00100000
01000000
00000000
01000000
00100000
00000000
01000000
00000000
00010000
00000000
10000000
00000000
,  // measure 23
01000000
00100000
00010000
00002000
00003200
00000320
00000032
00000000
,  // measure 24
00001003
00000000
00000001
00000000
00000100
00000010
00000000
00000010
00000100
00000000
00001000
00000000
00010000
00000000
00000010
00000000
,  // measure 25
00020020
00030030
00202000
00303000
00022000
00033000
00001000
00010000
,  // measure 26
00000100
00001000
00010000
00000010
00001000
00010000
00000020
00000000
,  // measure 27
00000000
00010000
00010030
00000000
00011000
00000000
00001000
00100000
,  // measure 28
01000000
00010000
00001000
01000000
00010000
00001000
00200000
00000000
,  // measure 29
00000000
00000000
00000000
00300000
,  // measure 30
10000000
00010000
10000000
00010000
00000000
00000000
00100000
00001000
00100000
00001000
00000000
00010000
00001000
00010000
00001000
00020000
,  // measure 31
00000000
00000000
00031000
00000000
00000010
00000000
00000001
00000000
00000200
00000000
00000300
00000000
00011000
00000000
00000000
00002000
,  // measure 32
00000000
00000000
00013000
00000000
00100000
00000000
10000000
00000000
02000000
00000000
03000000
00000000
00011000
00000000
00000000
00020000
,  // measure 33
00000000
00000000
00031000
00000000
00000010
00000000
00000001
00000000
00001000
00000000
00000010
00000000
00000001
00000000
00000010
00001000
,  // measure 34
00000000
00000020
00000000
00001030
00000001
00000010
00001000
00010000
,  // measure 35
00001000
02000000
03200000
00320000
00031000
00000020
00000230
00020300
,  // measure 36
00000000
00000000
00031000
00000000
00100000
00000000
00001000
00000000
00010000
00000000
00000000
00000000
00010000
00002000
00000000
01000000
,  // measure 37
00000000
00000000
00103000
00000000
00001000
00020000
00000000
00000010
00000000
00000000
00030100
00000000
00010000
00002000
00000000
00100000
,  // measure 38
00000000
00000000
00020000
00000000
00033000
00000000
00001000
00010000
00001000
01000000
00000000
01000000
00100000
01000000
00000000
20020000
,  // measure 39
00000000
30030000
00000000
00000000
00010000
00100000
00000000
00022000
00000000
00033000
00000000
00000000
00010000
00000010
00000000
00000200
,  // measure 40
00000000
00000000
00000020
00000000
00000000
00000000
00000000
00000000
00000330
00000000
00000000
00000000
00000100
00000001
00001000
00000002
,  // measure 41
00000000
00000000
00001003
00000000
00000200
00010000
00000300
00000000
00001000
00000000
00000200
00010000
00000300
00000000
00000000
00001000
,  // measure 42
00000000
00000000
00000010
00010000
00001000
00100000
00000000
00000000
00002000
00000000
00023000
00000000
00230000
00000000
00000000
10300000
,  // measure 43
00000000
00000000
00010000
00000000
00200000
00001000
00300000
00000000
00010000
00000000
00200000
00001000
00300000
00000000
00000000
00020000
,  // measure 44
00000000
00000000
00130000
00000000
01000000
00000000
10000000
00010000
10000000
01000000
00000000
00100000
00001000
00010000
00000100
00020000
,  // measure 45
00000000
00000000
00030100
00000000
00000010
00000100
00000000
00000000
00000100
00000000
00000010
00000100
00000000
00000000
00000000
00001000
,  // measure 46
00000000
00000001
00001000
00000000
00000010
00000000
00010000
00000000
00001000
00000000
00010000
00001000
00000000
00000000
00000000
00010000
,  // measure 47
00000000
00000000
01000000
00000000
00100000
01000000
00000000
00000000
01000000
00000000
00100000
01000000
00000000
00000000
00000000
20000000
,  // measure 48
00000000
00000000
00000000
30000000
00000000
00000000
00000000
00000000
;

//---------------dance-single - ----------------
#NOTES:
     dance-single:
     :
     Medium:
     9:
     0.323228,0.374199,0.135369,0.435115,0.207888,234.000000,220.000000,14.000000,45.000000,0.000000,0.000000,0.323228,0.374199,0.135369,0.435115,0.207888,234.000000,220.000000,14.000000,45.000000,0.000000,0.000000:
0000
0000
0000
0000
,
0000
0000
0000
0000
,
0000
0000
0000
0000
,
0000
0000
0000
0000
,
0000
0000
0000
0000
,
1000
0000
0000
0000
1000
0000
0000
0000
2000
0000
0000
0000
3001
0000
0000
1001
,
0000
0000
0002
0000
0000
0103
0000
0000
0002
0000
0000
0103
0000
0000
0000
0001
,
0000
0000
1000
0000
1000
0000
0000
0000
0010
0000
0100
0000
0010
0000
0000
1000
,
0000
0000
0002
0000
0000
0013
0000
0000
0002
0000
0000
0013
0000
0000
0000
0200
,
0000
0000
0000
0000
1300
0000
0001
0000
2000
0000
0000
0000
3001
0000
0000
1000
,
0000
0000
0020
0000
0000
1030
0000
0000
0020
0000
0000
1030
0000
0000
0000
0010
,
0000
0000
0100
0000
0100
0000
0000
0000
0001
0000
1000
0000
0001
0000
0000
0010
,
0000
0000
0200
0000
0000
1300
0000
0000
0200
0000
0000
1300
0000
0000
0000
0002
,
0000
0000
0103
0010
0100
0010
0100
0000
,
1001
0000
0001
0010
0001
0000
1000
0010
,
2000
0001
3001
0100
,
0110
0000
0001
0100
0001
0000
1000
0100
,
1000
0100
0100
0000
0020
0000
0032
0000
,
0103
0100
0000
0000
0020
0000
2030
0000
,
3100
0100
0000
0010
0010
0000
0001
0000
,
0001
0100
0010
0100
0020
0000
1030
0000
,
1000
0100
0010
0100
0020
0000
0031
0000
,
1001
0000
0001
0100
0001
0100
0010
0000
,
1000
0010
2000
0000
3001
0010
0002
0000
,
1003
0000
1000
0100
1000
0100
0010
0000
,
1001
0110
1001
0001
,
0200
0000
0310
2000
0000
3001
0020
0000
,
0000
0130
0100
0000
0100
0000
1000
0001
,
2000
0000
3010
0200
0000
0301
0020
0000
,
0000
0000
0000
0030
,
0001
0000
0001
0000
0000
0000
1000
0000
1000
0000
0001
0000
0100
0000
0000
0110
,
0000
0000
0001
0000
0100
0000
0001
0000
0200
0000
0000
0000
0310
0000
0000
0110
,
0000
0000
1000
0000
0100
0000
1000
0000
0200
0000
0000
0000
0310
0000
0000
0110
,
0000
0000
0001
0000
0100
0000
0001
0000
0100
0000
0000
0000
0010
0000
0000
1000
,
0000
2000
0000
0000
3001
1000
0001
1000
,
0000
0010
0010
0010
0000
0100
0100
0200
,
0000
0000
0310
0000
0010
0000
0010
0000
0000
0000
1000
0000
0002
0000
0000
0013
,
0000
0000
0000
0000
2000
0000
0000
3010
0000
0000
0000
0000
0002
0000
0000
0013
,
0000
0000
0020
0000
0000
0000
0000
0000
0031
0000
1000
0000
0001
0000
0000
1001
,
0000
0000
0000
0000
1000
0000
0000
0110
0000
0000
0000
0000
0002
0000
0000
1003
,
0000
0000
2000
0000
0000
0000
0000
0000
0000
0000
0000
0000
3001
0000
0000
1001
,
0000
0000
2000
0000
0000
3100
0000
0000
2000
0000
0000
3001
0000
0000
0000
1000
,
0000
0000
0010
0000
0010
0000
0000
0000
0100
0000
0001
0000
1000
0000
0000
0001
,
0000
0000
2000
0000
0000
3010
0000
0000
2000
0000
0000
3001
0000
0000
0000
0020
,
0000
0000
0000
0000
0130
0000
1000
0000
0002
0000
0000
0000
1003
0000
0000
1001
,
0000
0000
0001
0000
0000
0001
0000
0000
0100
0000
0000
0100
0000
0000
0000
0002
,
0000
0000
0000
0000
1003
0000
0010
0000
0100
0000
0000
0010
0000
0000
0000
1000
,
0000
0000
0001
0000
0000
0001
0000
0000
0010
0000
0000
0010
0000
0000
0000
0200
,
0000
0000
0000
0300
0000
0000
0000
0000
;

//---------------dance-double - ----------------
#NOTES:
     dance-double:
     :
     Medium:
     9:
     0.323228,0.350811,0.174046,0.454453,0.207888,234.000000,216.000000,18.000000,47.000000,0.000000,0.000000,0.323228,0.350811,0.174046,0.454453,0.207888,234.000000,216.000000,18.000000,47.000000,0.000000,0.000000:
00000000
00000000
00000000
00000000
,
00000000
00000000
00000000
00000000
,
00000000
00000000
00000000
00000000
,
00000000
00000000
00000000
00000000
,
00000000
00000000
00000000
00000000
,
00001000
00000000
00000000
00000000
00001000
00000000
00000000
00000000
00002000
00000000
00000000
00000000
00013000
00000000
00000000
00011000
,
00000000
00000000
00020000
00000000
00000000
00130000
00000000
00000000
00020000
00000000
00000000
00130000
00000000
00000000
00000000
20000000
,
00000000
00000000
30010000
00000000
00010000
00000000
00000000
00000000
00100000
00000000
00001000
00000000
00010000
00000000
00000000
00010000
,
00000000
00000000
00002000
00000000
00000000
00003010
00000000
00000000
00002000
00000000
00000000
00003010
00000000
00000000
00000000
00000002
,
00000000
00000000
00000000
00000000
00001003
00000000
00000010
00000000
00020000
00000000
00000000
00000000
00031000
00000000
00000000
00011000
,
00000000
00000000
00020000
00000000
00000000
01030000
00000000
00000000
00020000
00000000
00000000
01030000
00000000
00000000
00000000
20000000
,
00000000
00000000
30010000
00000000
00010000
00000000
00000000
00000000
01000000
00000000
00001000
00000000
00010000
00000000
00000000
00010000
,
00000000
00000000
00002000
00000000
00000000
00003100
00000000
00000000
00002000
00000000
00000000
00003100
00000000
00000000
00000000
00000002
,
00000000
00000000
00001003
00000010
00010000
00000010
00010000
00000000
,
00011000
00000000
00001000
01000000
00001000
00000000
00100000
00010000
,
00200000
01000000
01300000
10000000
,
10010000
00000000
00010000
00100000
00010000
00000000
01000000
00001000
,
01000000
00001000
00010000
00000000
00002000
00000000
00003200
00000000
,
00000310
00000010
00000000
00000000
00020000
00000000
00230000
00000000
,
01300000
01000000
00000000
00010000
10000000
00000000
10010000
00000000
,
10000000
00010000
10000000
00010000
00200000
00000000
00301000
00000000
,
00010000
00001000
00010000
00001000
00020000
00000000
00031000
00000000
,
00012000
00000000
00000100
00000000
00003100
00000001
00000100
00000000
,
00000001
00000100
00000010
00000000
00000100
00000010
00010000
00000000
,
00021000
00000000
01000000
00000000
01030000
10000000
01000000
00000000
,
01100000
10010000
01100000
10000000
,
00020000
00000000
00130000
00002000
00000000
00013000
00000200
00000000
,
00000000
00000010
00000310
00000000
00001001
00000000
00000001
00000000
,
00002000
00000000
00003010
00020000
00000000
00031000
02000000
00000000
,
00000000
00000000
00000000
03000000
,
00010000
00000000
00010000
00000000
00000000
00000000
10000000
00000000
10000000
00000000
01000000
00000000
00010000
00000000
00000000
00011000
,
00000000
00000000
00000000
00000000
00001000
00000000
00000010
00000000
00002000
00000000
00000000
00000000
00013000
00000000
00000000
00011000
,
00000000
00000000
00000000
00000000
00010000
00000000
00100000
00000000
00020000
00000000
00000000
00000000
00031000
00000000
00000000
00011000
,
00000000
00000000
00000000
00000000
00001000
00000000
00000010
00000000
00001000
00000000
00010000
00000000
00001000
00000000
00000000
00001000
,
00000000
00002000
00000000
00000000
01003000
00001000
01000000
00010000
,
00000000
01000000
00100000
10000000
00000000
00010000
10000000
02000000
,
00000000
00000000
03100000
00000000
00001000
00000000
00100000
00000000
00001000
00000000
00000000
00000000
00020000
00000000
00000000
00031000
,
00000000
00000000
00000010
00000000
00000002
00000000
00000000
00001003
00000000
00000000
00000001
00000000
00000200
00000000
00000000
00001300
,
00000000
00000000
00002000
00000000
00000000
00000000
00000000
00000000
00003000
00000000
00000000
00000000
00001000
00000000
00000000
00101000
,
00000000
00000000
00000000
00000000
00100000
00000000
00000000
10010000
00000000
00000000
00000000
00000000
00020000
00000000
00000000
00130000
,
00000000
00000000
00200000
00000000
00000000
00000000
00000000
00000000
00000000
00000000
00000000
00000000
00301000
00000000
00000000
00011000
,
00000000
00000000
00002000
00000000
00000000
00003100
00000000
00000000
00000020
00000000
00000000
00000130
00000000
00000000
00000000
00000002
,
00000000
00000000
00001003
00000000
00001000
00000000
00000000
00000000
00000100
00000000
00010000
00000000
00001000
00000000
00000000
00001000
,
00000000
00000000
00020000
00000000
00000000
00130000
00000000
00000000
02000000
00000000
00000000
03100000
00000000
00000000
00000000
20000000
,
00000000
00000000
00000000
00000000
30010000
00000000
00100000
00000000
00002000
00000000
00000000
00000000
00013000
00000000
00000000
00011000
,
00000000
00000000
00001000
00000000
00000000
00001000
00000000
00000000
00000010
00000000
00000000
00000010
00000000
00000000
00000000
00000001
,
00000000
00000000
00001000
00000000
00000010
00000000
00010000
00000000
00001000
00000000
00000000
00010000
00000000
00000000
00000000
00001000
,
00000000
00000000
00010000
00000000
00000000
00010000
00000000
00000000
00100000
00000000
00000000
00100000
00000000
00000000
00000000
02000000
,
00000000
00000000
00000000
03000000
00000000
00000000
00000000
00000000
;

//---------------dance-single - ----------------
#NOTES:
     dance-single:
     :
     Easy:
     6:
     0.240349,0.304036,0.125700,0.212723,0.019338,174.000000,161.000000,13.000000,22.000000,0.000000,0.000000,0.240349,0.304036,0.125700,0.212723,0.019338,174.000000,161.000000,13.000000,22.000000,0.000000,0.000000:
0000
0000
0000
0000
,
0000
0000
0000
0000
,
0000
0000
0000
0000
,
0000
0000
0000
0000
,
0000
0000
0000
0000
,
1000
1000
1000
2000
,
3001
0100
1000
0100
,
0001
0000
0001
0000
1000
0001
1000
0000
,
0001
0010
1000
0010
,
0002
0000
1003
1001
,
1000
0010
0001
0010
,
1000
0000
1000
0000
0001
1000
0001
0000
,
1000
0100
0001
0100
,
2000
0000
3001
0001
,
1001
0000
1000
0000
0010
0000
0100
0010
,
0200
0000
0300
0001
,
1001
0000
0001
0000
0010
0000
0100
0010
,
0100
0100
1000
0001
,
0200
0310
1000
0001
,
0020
0130
1000
1000
,
0001
1000
0001
0000
0200
0000
0310
0000
,
1000
0001
1000
0000
0100
0000
0100
0000
,
0110
0001
1000
1000
,
0010
0100
0010
0000
0100
0010
0100
0000
,
0001
1000
0001
0001
,
1001
1001
1001
0000
,
0002
0000
0000
2003
0000
0000
3002
0000
,
0000
1003
1000
0010
,
0200
0000
0000
0320
0000
0000
0230
0000
,
0000
0000
0000
0300
,
0001
0100
1000
0100
,
0001
0001
0010
0110
,
1000
1000
0010
0110
,
0001
0001
1000
1000
,
0200
0000
0300
0000
0010
0100
0020
0000
,
0000
0031
0000
1000
0000
0001
0000
0100
,
0000
0010
0000
0100
0000
0000
0001
0000
,
2000
3001
0020
0130
,
2000
0000
0000
0000
0000
0000
0000
0000
3000
0000
0000
0000
0001
0000
0000
0001
,
0000
0000
0000
0000
0000
0000
0000
1001
0000
0000
0000
0000
0000
0000
0000
0220
,
0000
0000
0330
0000
,
1001
0000
1000
0000
0010
0100
0010
0000
,
1000
0000
0100
0000
0010
0100
0010
0000
,
0001
0000
0100
0000
0010
0100
0010
0000
,
0200
0000
0310
0110
,
0000
0001
0001
0001
,
0010
0010
0100
0100
,
0000
0000
0000
0000
1000
0000
0000
0000
1000
0000
0000
0000
1000
0000
0000
2000
,
0000
0000
0000
3000
0000
0000
0000
0000
;

//---------------dance-double - ----------------
#NOTES:
     dance-double:
     :
     Easy:
     6:
     0.238968,0.304036,0.145038,0.203054,0.019338,173.000000,158.000000,15.000000,21.000000,0.000000,0.000000,0.238968,0.304036,0.145038,0.203054,0.019338,173.000000,158.000000,15.000000,21.000000,0.000000,0.000000:
00000000
00000000
00000000
00000000
,
00000000
00000000
00000000
00000000
,
00000000
00000000
00000000
00000000
,
00000000
00000000
00000000
00000000
,
00000000
00000000
00000000
00000000
,
00001000
00001000
00001000
00011000
,
00010000
00100000
10000000
00100000
,
00010000
00000000
00010000
00000000
00001000
00010000
00001000
00000000
,
00001000
00000010
00000001
00000010
,
00002000
00000000
00013000
00011000
,
00001000
00000100
00000001
00000100
,
00001000
00000000
00001000
00000000
00010000
00001000
00010000
00000000
,
00010000
01000000
10000000
01000000
,
00020000
00000000
00031000
00001000
,
00011000
00010000
00100000
10000000
,
00200000
00000000
01300000
00010000
,
10010000
10000000
01000000
00010000
,
00001000
00001000
00000010
00000001
,
00000200
00000310
00001000
00000001
,
00000020
00000130
00010000
00010000
,
00001000
00010000
00001000
00000000
02000000
00000000
00000000
00000000
,
03100000
01000000
00100000
00000000
01000000
00000000
00010000
00000000
,
10010000
10000000
01000000
00010000
,
00001000
00010000
00001000
00000000
00010000
00001000
00010000
00000000
,
00001000
00000010
00000001
00001000
,
00001001
00001001
00001001
00000000
,
00000002
00000000
00000000
00000203
00000000
00000000
00002300
00000000
,
00000000
00013000
00010000
00001000
,
00020000
00000000
00000000
02030000
00000000
00000000
23000000
00000000
,
00000000
00000000
00000000
30000000
,
00010000
00010000
10000000
10000000
,
10010000
10000000
01000000
00010000
,
00011000
00001000
00000100
00000001
,
00001001
00000001
00000010
00001000
,
00020000
00000000
00000000
00000000
00031000
00010000
00002000
00000000
,
00000000
00013000
00000000
00001000
00000000
01000000
00000000
00100000
,
00000000
01000000
00000000
00100000
00000000
00000000
10000000
00000000
,
00020000
00130000
02000000
03100000
,
00002000
00000000
00000000
00000000
00000000
00000000
00000000
00000000
00013000
00000000
00000000
00000000
00001000
00000000
00000000
00010000
,
00000000
00000000
00000000
00000000
00000000
00000000
00000000
00000110
00000000
00000000
00000000
00000000
00000000
00000000
00000000
00002002
,
00000000
00000000
00003003
00000000
,
00001001
00000001
00000100
00001000
,
00010000
00000000
00010000
00000000
00001000
00010000
00001000
00000000
,
00010000
01000000
10000000
00010000
,
02000000
00000000
03100000
01100000
,
00000000
10000000
10000000
10000000
,
01000000
00010000
00001000
00001000
,
00000000
00000000
00000000
00000000
00000010
00000000
00000000
00000000
00000010
00000000
00000000
00000000
00000010
00000000
00000000
00000020
,
00000000
00000000
00000000
00000030
00000000
00000000
00000000
00000000
;

//---------------dance-single - ----------------
#NOTES:
     dance-single:
     :
     Beginner:
     3:
     0.131225,0.208855,0.125700,0.077354,0.000000,95.000000,82.000000,13.000000,8.000000,0.000000,0.000000,0.131225,0.208855,0.125700,0.077354,0.000000,95.000000,82.000000,13.000000,8.000000,0.000000,0.000000:
0000
0000
0000
0000
,
0000
0000
0000
0000
,
0000
0000
0000
0000
,
0000
0000
0000
0000
,
0000
0000
0000
0000
,
0000
0000
0000
0000
,
0001
0000
1000
0000
,
0010
0000
0100
0100
,
0010
0000
1000
0000
,
0002
0000
0003
0000
,
1000
0000
0100
0000
,
0010
0000
0001
0001
,
1000
0000
0010
0000
,
0200
0000
0300
0000
,
1001
0000
0001
0000
,
0020
0000
0030
0000
,
0100
0000
1000
0000
,
0002
0000
0003
0000
,
1001
0000
1000
0000
,
1001
0000
0001
0000
,
1000
0000
1000
0000
,
0001
0000
0001
0000
,
1001
0000
0001
0000
,
0100
0100
0100
0000
,
0010
0000
1000
0000
,
0100
0100
0100
0000
,
0010
0000
0010
0000
,
0020
0000
0030
0000
,
0001
0000
0001
0000
,
0002
0000
0003
0000
,
0001
0000
0001
0000
,
1001
0000
1000
0000
,
1001
0000
0001
0000
,
1001
0000
1000
0000
,
0100
0000
0010
0010
,
0001
0000
1000
0000
,
0020
0000
0030
0000
,
1001
0000
0110
0000
,
1001
0000
0001
0000
,
0110
0000
1001
0000
,
0110
0000
0000
0000
,
1000
0000
0010
0000
,
0100
0000
0001
0001
,
1000
0000
0100
0000
,
0020
0000
0030
0000
,
0001
0000
0001
0000
,
1000
0000
1000
0000
,
0010
0000
0010
0000
,
0100
0000
0000
0000
;
