#VERSION:0.83;
#TITLE:KICK IT;
#SUBTITLE:;
#ARTIST:HAYAKO;
#TITLETRANSLIT:;
#SUBTITLETRANSLIT:;
#ARTISTTRANSLIT:;
#GENRE:;
#CREDIT:chronon djmaxxing;
#MUSIC:KICK IT.ogg;
#BANNER:KICK IT.png;
#BACKGROUND:KICK IT-bg.png;
#CDTITLE:;
#SAMPLESTART:91.144;
#SAMPLELENGTH:21.667;
#SELECTABLE:YES;
#OFFSET:0.523;
#BPMS:0.000=180.000;
#STOPS:;
#WARPS:400.500=1.000;
#SPEEDS:0.000=1.000=0.000=0,
384.000=0.100=0.250=0,
384.250=10.000=15.750=0,
400.500=0.500=0.000=0
;
#SCROLLS:0.000=1.000;
#BGCHANGES:-0.250=KICK IT.mp4=1.000=0=0=0=StretchNoLoop====,
99999.000=-nosongbg-=1.000=0=0=0=StretchNoLoop====
;
#FGCHANGES:;

//--------------- dance-single - chronon ----------------
#NOTEDATA:;
#STEPSTYPE:dance-single;
#DESCRIPTION:chronon;
#DIFFICULTY:Beginner;
#METER:3;
#RADARVALUES:0,0,0,0,0;
#NOTES:
0000
0000
0000
0000
,
0000
0000
0000
0000
,
0000
0000
0000
0000
,
0000
0000
0000
0000
,
0000
0000
0000
0000
,
1000
0000
0010
0000
,
1000
0000
0000
0000
,
0001
0000
0010
0000
,
0001
0000
0000
0000
,
1001
0000
0000
0000
,
0000
0000
0000
0000
,
1000
1000
0000
0000
,
0001
0001
0000
0000
,
1000
1000
0000
0000
,
0000
0000
0000
0000
,
0100
0100
0000
0000
,
0010
0010
0000
0000
,
1001
0000
0000
0000
,
0001
0000
1000
0000
,
0001
0000
0000
1000
,
0001
0000
0000
0000
,
1000
0000
0000
0001
,
1000
0000
0000
0000
,
0001
0000
0000
1000
,
0001
0000
0001
0000
,
1000
0000
0000
0001
,
1000
0000
1000
0000
,
1001
0000
0000
0000
,
0000
0000
0000
0000
,
0000
0000
0000
0000
,
0000
0000
0000
0000
,
1000
0000
1000
0000
,
0100
0000
0000
0000
,
0010
0000
0010
0000
,
0001
0000
1000
0000
,
0001
0000
0001
0000
,
0100
0000
0100
0000
,
0010
0000
0010
0000
,
1000
0000
0000
0000
,
1000
0000
1000
0000
,
0100
0000
0100
0000
,
0010
0000
0010
0000
,
0001
0000
0000
0000
,
2000
0000
0002
0000
,
0000
0000
0000
3003
,
1000
0000
0100
0000
,
1000
0000
0100
0000
,
1000
0000
0001
0000
,
1000
0000
0000
0000
,
0001
0000
0100
0000
,
0001
0000
0100
0000
,
0001
0000
1000
0000
,
0001
0000
0000
0000
,
1000
0000
0010
0000
,
1000
0000
0010
0000
,
1000
0000
0001
0000
,
1000
0000
0000
0000
,
0001
0000
0010
0000
,
0001
0000
0010
0000
,
0001
0000
1000
0000
,
0001
0000
0000
0000
,
1000
0000
0000
0000
,
0010
0000
0000
0000
,
1000
0000
0000
0000
,
0000
0000
0000
0000
,
0001
0000
0000
0000
,
0010
0000
0000
0000
,
0001
0000
0000
0000
,
0000
0000
0000
0000
,
1000
0000
0100
0000
,
1000
0000
1000
0000
,
0001
0000
0100
0000
,
0001
0000
0001
0000
,
1000
0000
0100
0000
,
1000
0000
0000
0000
,
0001
0000
0100
0000
,
0001
0000
1000
0000
,
0001
0001
0001
0000
,
0010
0000
0100
0000
,
1000
0000
0010
0000
,
0100
0000
0001
0000
,
1000
1000
1000
0000
,
0010
0000
0100
0000
,
0001
0000
0010
0000
,
0100
0000
1000
0000
,
0000
0000
0000
0000
,
0000
0000
0000
0000
,
0000
0000
0000
0000
,
0001
0001
0100
0000
,
0010
0010
1000
0000
,
1000
1000
0100
0000
,
0010
0000
0001
0000
,
1000
1000
0100
0000
,
0010
0010
0001
0000
,
1001
0000
0000
0000
,
0000
0000
0000
0000
,
2002
0000
0000
0000
0M00
00M0
0M00
00M0
0M00
00M0
0M00
00M0
0M00
00M0
0M00
00M0
,
0M00
00M0
0M00
00M0
0M00
00M0
0M00
00M0
0M00
00M0
0M00
00M0
0M00
00M0
0M00
00M0
,
0M00
00M0
0M00
00M0
0M00
00M0
0M00
00M0
0M00
00M0
0M00
00M0
0M00
00M0
0M00
00M0
,
0M00
00M0
0M00
00M0
0M00
00M0
0M00
00M0
0M00
00M0
0M00
00M0
0M00
00M0
0M00
00M0
,
0M00
0000
00M0
0000
3003
0MM0
0000
0000
M00M
0MM0
0000
0000
0000
0000
0000
0000
0000
0000
0000
0000
0000
0000
0000
0000
0000
0000
0000
0000
0000
0000
0000
0000
;

//--------------- dance-single - chronon ----------------
#NOTEDATA:;
#STEPSTYPE:dance-single;
#DESCRIPTION:chronon;
#DIFFICULTY:Easy;
#METER:9;
#RADARVALUES:0,0,0,0,0;
#NOTES:
0000
0000
0000
0000
,
0000
0000
0000
0000
,
0000
0000
0000
0000
,
0000
0000
0000
0000
,
0000
0000
0000
0001
,
0010
0010
0100
0100
,
1000
0001
0100
0000
,
0010
0010
0100
0100
,
0001
1000
0100
0000
,
2002
0000
0000
3003
,
00M2
0M00
M000
0000
,
0100
1003
1000
0002
,
0100
1003
1000
0002
,
0100
1003
1000
0001
,
0010
0000
0000
0100
0000
0000
0100
0000
2000
0000
0000
0000
0000
0000
0000
0000
,
0100
3001
0001
2000
,
0100
3001
0001
1000
,
0010
0000
0100
0010
0100
0000
0001
0000
,
1000
0000
0000
0001
0000
0000
1000
0000
0000
0000
0000
0000
0000
0000
0000
0000
,
0001
0000
0000
0010
0000
0000
0001
0000
,
1000
0000
0000
0010
0000
0000
1000
0000
,
0001
0000
0000
0100
0000
0000
0001
0000
,
1000
0000
0000
0100
0000
0000
1000
0000
,
0001
0000
0000
0010
0000
0000
0001
0000
,
0020
0230
2300
3002
,
1003
0000
0000
0010
0000
0000
1000
0000
,
0020
0230
0302
1003
,
2002
0000
0000
0000
,
0000
0000
0000
0000
,
0000
0000
0000
0000
,
0000
0000
0000
3003
,
2000
0000
3200
0000
,
0320
0000
0032
0000
,
0203
0000
0320
0000
,
2030
0000
0002
3003
,
0001
0100
0001
0100
,
0010
1000
0010
1000
,
1000
0100
1000
0100
,
0010
0001
0010
0001
,
0001
0100
0010
1000
,
1000
0100
0010
0001
,
0001
0010
0001
0000
1000
0100
1000
0000
,
1000
0000
0000
0000
0001
0000
0000
0000
1000
0000
0000
0000
0200
0300
0000
0000
,
1000
0001
0100
0000
,
M002
0M00
00M0
1003
,
0002
0010
1000
0010
,
1000
0010
2003
3020
,
2030
0010
0001
0010
,
3002
0203
0320
2030
,
3020
1000
0100
1000
,
0100
1000
0230
0302
,
0023
0031
0010
0100
,
0010
0100
0010
0100
0010
0000
0000
0000
,
0002
0010
1000
1000
,
0100
0100
2003
3020
,
2030
0010
0001
0001
,
3100
0000
0000
0000
,
2000
0100
3001
0100
,
0002
0100
1003
0010
,
2000
0010
3001
0010
,
0001
0000
0000
0000
,
2000
0000
3200
0000
,
0320
0000
0032
0000
,
2003
0000
3020
0000
,
0230
0000
0301
1000
,
0010
0010
0100
0100
,
0001
1000
0100
0000
,
0010
0010
0100
0100
,
1000
0001
0100
0000
,
0002
0103
0200
0310
,
0020
1030
2000
3001
,
2000
3100
0200
0310
,
0020
0031
0002
1003
,
0100
0100
0010
0010
,
0001
1000
0010
0000
,
0100
0100
0010
0010
,
1000
0001
0010
0000
,
0001
0010
0001
0000
0010
0000
0100
0000
,
1000
2000
0100
3001
,
0001
0002
0100
1003
,
1000
2000
0010
3001
,
1000
0010
1000
0000
0010
0000
0100
0000
,
0001
0001
0002
0100
,
1003
1000
0100
0100
,
0010
0001
1000
0001
,
0000
0000
0000
0000
,
0000
0000
0000
0000
,
0000
0000
0002
0000
,
0010
0000
0000
0000
1003
0000
0000
0001
0000
0000
0001
0000
0000
0000
2000
0000
,
0010
0000
0000
0000
3001
0000
0000
1000
0000
0000
1000
0000
0000
0000
0002
0000
,
0010
0000
0000
0000
1003
0000
0000
0001
0000
0000
0001
0000
0000
0000
1000
0000
,
0010
0000
0000
0100
0000
0000
0100
0000
0002
0000
0000
0000
0000
0000
0000
0000
,
0100
0013
0001
0002
,
0100
0013
0001
0001
,
0100
0000
0010
0100
0010
0000
1000
0000
,
0001
0000
0000
1000
0000
0000
0001
0000
0000
0000
0000
0000
0000
0000
0000
0000
,
2002
0000
0000
0000
0M00
00M0
0M00
00M0
0M00
00M0
0M00
00M0
0M00
00M0
0M00
00M0
,
0M00
00M0
0M00
00M0
0M00
00M0
0M00
00M0
0M00
00M0
0M00
00M0
0M00
00M0
0M00
00M0
,
0M00
00M0
0M00
00M0
0M00
00M0
0M00
00M0
0M00
00M0
0M00
00M0
0M00
00M0
0M00
00M0
,
0M00
00M0
0M00
00M0
0M00
00M0
0M00
00M0
0M00
00M0
0M00
00M0
0M00
00M0
0M00
00M0
,
0M00
0000
00M0
0000
3003
0MM0
0000
0000
M00M
0MM0
0000
0000
0000
0000
0000
0000
0000
0000
0000
0000
0000
0000
0000
0000
0000
0000
0000
0000
0000
0000
0000
0000
;

//--------------- dance-single - chronon ----------------
#NOTEDATA:;
#STEPSTYPE:dance-single;
#DESCRIPTION:chronon;
#DIFFICULTY:Medium;
#METER:13;
#RADARVALUES:0,0,0,0,0;
#NOTES:
0000
0000
0000
0000
,
0000
0000
0000
0000
,
0000
0000
0000
0000
,
0000
0000
0000
0000
,
0000
0000
0000
0000
0000
0000
1000
0100
,
0020
0032
2003
3002
,
0103
0010
1000
0000
0200
0000
0310
0001
,
0100
0000
0100
0000
0100
0010
1000
0000
,
0002
0000
0013
0100
2000
0000
3001
0000
,
0022
0000
0000
0033
,
0020
0030
0000
0000
0200
0300
0000
0000
2000
3000
0000
0000
0002
0000
0000
0000
,
0100
0000
0000
0000
1003
0000
0100
0010
0000
0000
0001
0000
1000
0000
0002
0000
,
0100
0000
0000
0000
1003
0000
0100
0010
0000
0000
0001
0000
1000
0000
0002
0000
,
0100
0000
0000
0000
1003
0000
0100
0010
0000
0000
0001
0000
1000
0000
0001
0000
,
0100
0000
0000
0101
0000
0000
1001
0000
2000
0000
0000
0000
0000
0000
0000
0000
,
0100
0000
0000
0000
3001
0000
0100
0010
0000
0000
1000
0000
0001
0000
2000
0000
,
0100
0000
0000
0000
3001
0000
0100
0010
0000
0000
1000
0000
0001
0000
1000
0000
,
0100
0000
0010
0100
0010
0100
0010
0000
,
0100
0000
0000
1100
0000
0000
1001
0000
0002
0000
0000
0000
0203
0000
0000
0000
,
0310
0000
1000
0010
0000
0100
0001
0000
,
0010
0000
0001
0010
0000
0100
1000
0000
,
0100
0000
1000
0100
0000
0010
0001
0000
,
0100
0000
0001
0100
0000
0010
1000
0000
,
0010
0000
1000
0010
0000
0100
0001
0000
,
0102
1003
2100
3001
,
0010
0000
0001
0010
0000
0100
1000
0000
,
2100
0000
3001
0100
0010
1000
0001
0000
,
2002
0000
0000
0000
,
0000
0000
0000
0000
,
0000
0000
0000
0000
,
0000
0000
0000
3003
,
0002
0000
0000
0000
0000
0000
0003
0000
0001
0000
0000
0100
0000
0000
0010
0000
,
1000
0000
0000
0100
0000
0000
0010
0000
0100
0000
0000
1000
0000
0000
0001
0000
,
0200
0000
0320
0000
,
2030
0000
0002
3003
,
1000
0100
0010
0100
1000
0100
0010
0000
,
0001
0100
0010
0100
0001
0100
0010
0000
,
1000
0100
0010
0100
1000
0100
0010
0000
,
0100
1000
0010
0100
0001
0010
0001
0000
,
0010
0001
0100
0010
1000
0100
1000
0000
,
0100
1000
0010
0100
0001
0010
0001
0000
,
0010
0001
0100
0010
1000
0010
0100
0001
,
1000
0000
0000
0000
1000
0000
0000
0000
1000
0000
0001
0000
0200
0300
0000
0000
,
0002
0100
1003
0000
,
2000
3000
0000
0000
0200
0300
0000
0000
0020
0030
0001
0000
0100
0000
0000
0000
,
0101
0000
1000
0002
0010
0000
1003
0002
,
0010
0000
1003
0001
0010
0000
0001
0000
,
1010
0000
0001
2000
0100
0000
3001
2000
,
0100
0000
0000
0000
3001
0000
0000
0000
0100
0000
0000
0010
0000
0000
1000
0000
,
0010
0000
0100
0002
0010
0000
0103
0002
,
0010
0000
0103
0001
0010
0000
0001
0000
,
1010
0000
1000
0100
0010
0100
0010
0100
,
1000
0001
1000
0010
0100
0001
0200
0300
,
1100
0000
2000
0001
3010
0000
2000
0100
,
3001
0000
2000
0001
3010
0000
1000
0000
,
0011
0000
0002
1000
0103
0000
0002
0010
,
2003
0000
3002
0000
,
0100
0000
2003
0001
3010
0000
2000
0000
,
0100
0000
3002
1000
0013
0000
0002
0000
,
0100
0000
0000
0000
1003
0000
0010
0000
1000
0001
0000
1000
0001
0000
0010
0000
,
0200
0000
2300
3000
,
2000
3200
0320
0032
,
1003
0010
0100
0000
,
0002
0203
0320
2030
,
3001
0010
0100
0000
,
2000
3200
0320
0032
,
1003
0001
1000
0000
0020
0000
0130
0000
,
0010
0000
0010
0000
0010
0100
0001
0000
,
2000
0000
3100
0010
0002
0000
0103
0000
,
0102
1003
2010
3001
,
1000
0100
0010
0000
0001
0000
1000
0000
,
2100
3001
0012
1003
,
0001
0100
0010
0000
1000
0000
0001
0010
,
0200
2300
3002
2003
,
3010
0100
0001
0000
0020
0000
0130
1000
,
0010
0000
0010
0000
0010
0100
0001
0000
,
2000
0000
3100
0010
0002
0000
0103
0000
,
0002
0100
2003
0100
3001
0010
0100
1000
,
0100
0000
0010
0100
0000
0000
1000
0000
0001
0000
1000
0000
0010
0000
0000
0000
,
0100
0000
0010
0100
0000
0000
0001
0000
1000
0000
0001
0000
0010
0000
0000
0000
,
0001
0000
0010
0100
0000
1000
0001
0000
1000
0000
0001
1000
0001
0000
0000
0000
,
2000
0100
3002
0100
1003
0010
0100
0001
,
0100
0010
0100
0001
0020
0000
0130
1000
,
0010
1000
0010
1000
0010
0100
0001
1000
,
0002
0000
0013
0100
2000
0000
3001
0000
,
0000
0000
0000
0000
,
0000
0000
0000
0000
,
0000
0000
2001
0000
,
0010
0000
0000
0000
3001
0000
0000
0010
0000
0000
0100
0000
1000
0001
2000
0000
,
0010
0000
0000
0000
3001
0000
0000
0010
0000
0000
0100
0000
1000
0001
2000
0000
,
0010
0000
0000
0000
3001
0000
0000
0010
0000
0000
0100
0000
1000
0001
1000
0000
,
0010
0000
0000
1010
0000
0000
1001
0000
0002
0000
0000
0000
0000
0000
0000
0000
,
0010
0000
0000
0000
1003
0000
0010
0100
0000
0000
0100
0000
0001
1000
0002
0000
,
0010
0000
0000
0000
1003
0000
0010
0100
0000
0000
0100
0000
0001
1000
0001
0000
,
0010
0000
0100
0010
0100
0010
0100
0000
,
0010
0000
0000
0011
0000
0000
1001
0000
1000
0000
0000
0010
0000
0000
0100
0000
,
2002
0000
0000
0000
0M00
00M0
0M00
00M0
0M00
00M0
0M00
00M0
0M00
00M0
0M00
00M0
,
0M00
00M0
0M00
00M0
0M00
00M0
0M00
00M0
0M00
00M0
0M00
00M0
0M00
00M0
0M00
00M0
,
0M00
00M0
0M00
00M0
0M00
00M0
0M00
00M0
0M00
00M0
0M00
00M0
0M00
00M0
0M00
00M0
,
0M00
00M0
0M00
00M0
0M00
00M0
0M00
00M0
0M00
00M0
0M00
00M0
0M00
00M0
0M00
00M0
,
0M00
0000
00M0
0000
3003
0MM0
0000
0000
M00M
0MM0
0000
0000
0000
0000
0000
0000
0000
0000
0000
0000
0000
0000
0000
0000
0000
0000
0000
0000
0000
0000
0000
0000
;

//--------------- dance-single - chronon ----------------
#NOTEDATA:;
#STEPSTYPE:dance-single;
#DESCRIPTION:chronon;
#DIFFICULTY:Hard;
#METER:17;
#RADARVALUES:0,0,0,0,0;
#NOTES:
0000
0000
0000
0000
,
0000
0000
0000
0000
,
0000
0000
0000
0000
,
0000
0000
0000
0000
,
0000
0000
0000
0000
0000
0000
0001
0100
,
0020
2030
3002
2003
,
3100
0010
0100
1000
0020
0000
0130
0001
,
0010
0000
0010
0001
1000
0001
0100
0010
,
2000
0000
3100
0010
0002
0000
0103
0000
,
0202
0000
0000
0000
0000
0000
0000
0000
0303
0000
0000
0000
0100
0001
1000
0001
,
0020
0030
0000
0000
0200
0300
0000
0000
2000
3000
0000
0000
0001
0000
1000
0000
,
0100
0000
0000
0000
0101
0000
0100
0001
0000
0100
0010
0000
1000
0001
1000
0000
,
0100
0000
0000
0000
0101
0000
0100
0001
0000
0100
0010
0000
1000
0001
1000
0000
,
0100
0000
0000
0000
0101
0000
0100
0001
0000
0100
0010
0000
1000
0001
1000
0000
,
1100
0000
0000
1001
0000
0000
0101
0000
0001
0100
0010
1000
0010
0100
0001
0000
,
0100
0000
0000
0000
1100
0000
0100
1000
0000
0100
0010
0000
0001
1000
0001
0000
,
0100
0000
0000
0000
1100
0000
0100
1000
0000
0100
0010
0000
0001
1000
0020
0000
,
1000
0000
0000
0000
0130
0000
0100
0000
0010
0000
0010
0000
1000
0001
1000
0000
,
1100
0000
0000
0011
0000
0000
1001
0000
0002
0000
0000
0000
0203
0000
0000
0000
,
0301
1000
0010
1000
0001
0010
0011
0000
,
1000
0001
0010
0001
1000
0010
1010
0000
,
0001
1000
0100
1000
0001
0100
0101
0000
,
1000
0001
0100
0001
1000
0100
1100
0000
,
0001
1000
0010
1000
0001
0010
0011
0000
,
2100
3001
0102
1003
,
0001
1000
0010
1000
0001
0010
0011
0000
,
1000
0000
0001
0000
0010
0000
0001
0000
1000
0010
0100
0000
0001
0000
1000
0000
,
1001
0000
0000
0000
0001
0100
0010
1000
0001
0000
1000
0000
0100
0000
0010
0000
,
0001
0010
0100
1000
0001
0010
0100
1000
0001
0010
0100
1000
0001
0010
0100
1000
,
0001
0000
0000
0000
1000
0010
0100
0001
1000
0010
0100
0001
1000
0010
0100
0001
,
1000
0000
0000
0100
0000
0000
0010
0000
0001
0000
0000
0100
0000
0000
0010
0000
,
2000
0000
0000
0000
0000
0000
3000
0000
1000
0000
0000
0010
0000
0000
0100
0000
,
0001
0000
0000
0010
0000
0000
0100
0000
0010
0000
0000
0001
0000
0000
1000
0000
,
0020
0000
0230
0000
,
0302
0000
2000
3003
,
0001
0000
0100
0001
0100
0000
0010
1000
0010
0000
1000
0100
0010
0000
0001
0000
,
1000
0000
0100
1000
0100
0000
0010
0001
0010
0000
0001
0100
0010
0000
1000
0000
,
0001
0000
0100
0001
0100
0000
0010
1000
0010
0000
1000
0100
0010
0000
0001
0000
,
1000
0100
0010
0001
1000
0010
0100
0001
1000
0100
0010
0001
1000
0010
0100
0000
,
0001
0100
0010
1000
0001
0100
0010
1000
0001
0100
0010
1000
0001
0100
0010
0000
,
1000
0100
0010
0001
1000
0100
0010
0001
1000
0100
0010
0001
1000
0100
0010
0000
,
0001
0100
0010
1000
0001
1000
0100
0010
0001
0010
0100
1000
0010
0100
0001
0000
,
1000
0000
0000
0000
1000
0000
0000
0000
1000
0000
0001
0000
0200
0300
0000
0000
,
0002
0000
0000
0000
0100
0000
0000
0000
1003
0001
0100
0010
1000
0010
0100
0001
,
4000
0001
0000
3001
0400
0001
0000
0301
0040
0001
0000
0031
0200
0000
0300
0000
,
0101
0000
0000
0000
0100
0001
1000
0001
0020
0000
0000
0000
0130
1000
0001
1000
,
0020
0000
0000
0000
0130
0001
1000
0001
0020
0000
0000
0000
0031
0000
0000
0000
,
1010
0000
0000
0000
0010
1000
0001
1000
0200
0000
0000
0000
0310
0001
1000
0001
,
0200
0000
0000
0000
0001
0000
0000
0000
0310
0000
0000
1000
0000
0000
0100
0000
,
1000
0000
0000
0000
0100
0010
0100
1000
0020
0000
0000
0000
0130
0010
0100
0001
,
0020
0000
0000
0000
0130
0010
0100
1000
0020
0000
0000
0000
1030
0000
0000
0000
,
0011
0000
0000
0000
0010
0001
1000
0100
0010
0001
1000
0100
0010
0001
1000
0000
,
0010
1000
0001
0100
0010
1000
0001
0100
0010
1000
0001
0200
0001
0000
0300
0000
,
1100
0000
0000
0000
1000
0001
0010
0001
0100
0000
0000
0000
0001
1000
0010
1000
,
0100
0000
0000
0000
1000
0001
0010
0001
0100
0000
0000
0000
0001
1000
0010
1000
,
0100
0000
0000
0000
1000
0001
0100
0001
0010
0000
0000
0000
0001
1000
0100
1000
,
0002
0000
2003
0000
,
0010
0000
0000
0000
3001
0000
0010
0001
0100
0000
0000
0000
0001
0100
0010
2000
,
0010
0000
0000
0000
3001
0000
0010
0001
0100
0000
0000
0000
0001
0100
0010
2000
,
0010
0000
3001
0000
0010
0000
0100
0010
0001
1000
0000
0001
1000
0000
0010
0100
,
0002
0000
0000
0000
2003
0000
3010
0100
,
0002
0023
0230
2300
,
3002
0000
0203
0000
0320
0000
0130
0010
,
2000
0000
3200
0000
0310
0001
1000
0000
,
0010
1000
0001
0000
1000
0001
1000
0100
,
0020
0032
2003
3002
,
0103
0010
0100
0001
0020
0000
0130
1000
,
0010
0000
0010
1000
0001
1000
0100
0010
,
0002
0000
0103
0010
2000
0000
3100
1000
,
2100
3010
0102
0013
,
0001
0010
0100
1000
0010
0000
0100
0001
,
0102
0000
0013
0000
1100
1000
0010
0100
,
0001
1000
0100
0010
0001
1000
0001
0100
,
0020
2030
3002
2003
,
3100
0000
0010
0000
0100
0000
1000
0000
0020
0000
0000
0130
0000
0010
1000
0000
,
0001
0000
1000
0000
0100
0000
0010
0000
0001
0000
1000
0010
0100
0000
0001
0010
,
0200
0000
0310
0001
1000
0000
1001
0000
,
1000
0200
0010
0000
1300
0100
0010
0000
0100
0010
0001
1000
0001
0100
0010
2000
,
0001
0000
3100
0010
0000
0100
1000
0000
0010
0000
1000
0001
1000
0100
0010
0002
,
1000
0000
0103
0010
0000
0100
0001
0000
0010
0000
0001
1000
0001
0100
0010
2000
,
0010
0000
3001
0010
0000
0100
1000
0000
0010
0000
0100
0010
1000
0000
0100
0010
,
0001
0020
0100
0000
0031
0010
0100
0000
0010
0100
1000
0001
1000
0010
0100
0002
,
1000
0000
0013
0000
0100
0000
1000
0000
0010
0000
0100
0010
0100
0000
0001
0000
,
0020
0000
0001
0000
0130
0000
1000
0100
1000
0000
0001
0100
0001
0000
1000
0001
,
0010
0000
0001
1000
0010
0000
0100
0010
4000
0010
0000
3010
0400
0001
0000
0301
,
0000
0000
0000
0000
,
0000
0000
0000
0000
,
0000
0000
0201
0000
,
0310
0000
0000
0000
0011
0000
0000
1100
0000
0000
1001
0000
1000
0010
0100
0000
,
0010
0000
0000
0000
0011
0000
0000
1100
0000
0000
1001
0000
1000
0010
0100
0000
,
0010
0000
0000
0000
0011
0000
0000
1100
0000
0000
1001
0000
1000
0010
0100
0000
,
0110
0000
0000
0101
0000
0000
1001
0000
1000
0100
0010
0001
0010
0100
1000
0100
,
0010
0000
0000
0000
1010
0000
2000
0010
0000
3002
0010
0000
1003
0001
1000
0100
,
0010
0000
0000
0000
1010
0000
2000
0010
0000
3002
0010
0000
1003
0001
0010
0200
,
1000
0000
0000
0000
0310
0000
0010
0000
0100
0000
0100
0000
1000
0001
1000
0000
,
1010
0000
0000
0101
0000
0000
1001
0000
0001
0000
0000
0010
0000
0000
0100
0000
,
2002
0000
0000
0000
0M00
00M0
0M00
00M0
0M00
00M0
0M00
00M0
0M00
00M0
0M00
00M0
,
0M00
00M0
0M00
00M0
0M00
00M0
0M00
00M0
0M00
00M0
0M00
00M0
0M00
00M0
0M00
00M0
,
0M00
00M0
0M00
00M0
0M00
00M0
0M00
00M0
0M00
00M0
0M00
00M0
0M00
00M0
0M00
00M0
,
0M00
00M0
0M00
00M0
0M00
00M0
0M00
00M0
0M00
00M0
0M00
00M0
0M00
00M0
0M00
00M0
,
0M00
0000
00M0
0000
3003
0MM0
0000
0000
M00M
0MM0
0000
0000
0000
0000
0000
0000
0000
0000
0000
0000
0000
0000
0000
0000
0000
0000
0000
0000
0000
0000
0000
0000
;

//--------------- dance-double - chronon ----------------
#NOTEDATA:;
#STEPSTYPE:dance-double;
#DESCRIPTION:chronon;
#DIFFICULTY:Hard;
#METER:17;
#RADARVALUES:0,0,0,0,0;
#NOTES:
00000000
00000000
00000000
00000000
,
00000000
00000000
00000000
00000000
,
00000000
00000000
00000000
00000000
,
00000000
00000000
00000000
00000000
,
00000000
00000000
00000000
00000000
00000000
00000000
00001000
00010000
,
00200000
20300000
30020000
00230000
,
00310000
00100000
00001000
00010000
00000020
00000000
00001030
00000001
,
00000010
00000000
00000010
00000001
00001000
00000100
00010000
00001000
,
02000000
00000000
03010000
10000000
02000000
00000000
03100000
00000000
,
00220000
00000000
00000000
00330000
,
00200000
00300000
00000000
00000000
02000000
03000000
00000000
00000000
20000000
30000000
00000000
00000000
00020000
00000000
00000000
00000000
,
01030000
00000000
00000000
00000000
00011000
00000000
00010000
00000100
00000000
00001000
00000001
00000000
00000100
00000001
00001000
00000000
,
00000100
00000000
00000000
00000000
00011000
00000000
00001000
01000000
00000000
00010000
10000000
00000000
01000000
10000000
00010000
00000000
,
01000000
00000000
00000000
00000000
00011000
00000000
00010000
00000100
00000000
00001000
00000001
00000000
00000100
00000001
00001000
00000000
,
00000100
00000000
00000000
00001100
00000000
00000000
00010100
00000000
00010000
00000100
00010000
00000000
00001000
01000000
00001000
00000000
,
00100000
00000000
00000000
00000000
00011000
00000000
00010000
00000010
00000000
00001000
00000001
00000000
00000010
00000001
00001000
00000000
,
00000010
00000000
00000000
00000000
00011000
00000000
00001000
00100000
00000000
00010000
10000000
00000000
00100000
01000000
00020000
00000000
,
00001000
00000000
00000000
00000000
01000000
00000000
01000000
00000000
10000000
00000000
10030000
00000000
00010000
10000000
01000000
00000000
,
11000000
00000000
00000000
00110000
00000000
00000000
00011000
00000000
00000200
00000000
00000000
00000000
00000320
00000000
00000000
00000000
,
00000031
00000010
00000001
00001000
00000100
00001000
00020000
00000000
,
10030000
00100000
10000000
00010000
01000000
00010000
00002000
00000000
,
00003001
00000010
00000001
00001000
00000100
00001000
00020000
00000000
,
10030000
00100000
10000000
00010000
01000000
00010000
00002000
00000000
,
00003001
00000010
00000001
00001000
00000100
00001000
00020000
00000000
,
00130000
00011000
00000010
00011000
,
10000000
00100000
10000000
00010000
01000000
00010000
00002000
00000000
,
00003010
00011000
00100000
11000000
,
10010000
00000000
00000000
00000000
10000000
01000000
00100000
00010000
10000000
00000000
00010000
00000000
01000000
00000000
00100000
00000000
,
10000000
00100000
01000000
00000000
00100000
01000000
00010000
00000000
01000000
00001000
00010000
00000000
00001000
00010000
00000010
00000000
,
00001002
00000000
00000000
00000000
00000013
00000100
00001000
00000000
00000100
00010000
00001000
00000000
00010000
00001000
00100000
00000000
,
00010000
00000000
00000000
00100000
00000000
00000000
01000000
00000000
10000000
00000000
00000000
00100000
00000000
00000000
01000000
00000000
,
00002000
00000000
00000000
00000000
00000000
00000000
00003000
00000000
00001000
00000000
00000000
00010000
00000000
00000000
00000100
00000000
,
00010000
00000000
00000000
00001000
00000000
00000000
01000000
00000000
00001000
00000000
00000000
00100000
00000000
00000000
00001000
00000000
,
00020000
00000000
00030200
00000000
,
00000320
00000000
00000032
00000003
,
00001001
00000000
00000001
00000100
00000001
00000000
00001000
00000010
00001000
00000000
00000010
00010000
00001000
00000000
01000000
00000000
,
00010000
00000000
10000000
01000000
10000000
00000000
00010000
00100000
00010000
00000000
00100000
00001000
00010000
00000000
00000100
00000000
,
00001000
00000000
00000001
00000100
00000001
00000000
00001000
00000010
00001000
00000000
00000010
00010000
00001000
00000000
01000000
00000000
,
00010000
01000000
00100000
10000000
00010000
00100000
01000000
10000000
00010000
01000000
00100000
10000000
00010000
00100000
01000000
00000000
,
10000000
01000000
00000000
00000000
00100000
00010000
00000000
00000000
00001000
00000100
00000000
00000000
00000010
00000001
00000000
00000000
,
00000001
00000100
00000000
00000000
00000010
00001000
00000000
00000000
00010000
01000000
00000000
00000000
00100000
10000000
00000000
00000000
,
10000000
01000000
10000000
01000000
00100000
01000000
00100000
00001000
00010000
00000100
00000010
00000001
00001000
00000010
00000100
00000001
,
00001000
00000000
00000000
00000000
00001000
00000000
00000000
00000000
00001000
00000000
00000001
00000000
00000200
00000300
00000000
00000000
,
00001001
00000000
00000000
00000000
00011000
00000000
00000000
00000000
00010000
00001000
00010000
00001000
01000000
00010000
01000000
00100000
,
40000000
00010000
00000000
30010000
04000000
00010000
00000000
03010000
00400000
00001000
00000000
00301000
MMM10MMM
00000000
00000000
00000000
,
00011000
00000000
00000000
00000000
00010000
00000100
00001000
00000100
00020000
00000000
00000000
00000000
00031000
01000000
00010000
01000000
,
00002000
00000000
00000000
00000000
00013000
00000100
00001000
00000100
00020000
00000000
00000000
00000000
01030000
00000000
00000000
00000000
,
00011000
00000000
00000000
00000000
00010000
00000010
00001000
00000010
00020000
00000000
00000000
00000000
00031000
00100000
00010000
00100000
,
00002000
00000000
00000000
00000000
00003200
00000000
00000000
00000000
00000301
00000000
00000000
00000010
00000000
00000000
00000100
00000000
,
00010000
00000000
00000000
00000000
00001000
00010000
01000000
00010000
00002000
00000000
00000000
00000000
00013000
00001000
00000100
00001000
,
00020000
00000000
00000000
00000000
00031000
00010000
01000000
00010000
00002000
00000000
00000000
00000000
00003100
00000000
00000000
00000000
,
00011000
00000000
00000000
00000000
00010000
00001000
01000000
00001000
00010000
00000100
00010000
00001000
01000000
00001000
00010000
00000100
,
00010000
00001000
00100000
00001000
00010000
00000010
00010000
00001000
00100000
00001000
00010000
00000020
00010000
00000000
00000030
00000000
,
00000011
00000000
00000000
00000000
00000001
00000010
00000100
00010000
00001000
00000000
00000000
00000000
00010000
00001000
01000000
00100000
,
10000000
00000000
00000000
00000000
10000000
00100000
01000000
00001000
00010000
00000000
00000000
00000000
00001000
00010000
00000100
00000010
,
00000001
00000000
00000000
00000000
00000010
00000100
00010000
00001000
01000000
00000000
00000000
00000000
00100000
01000000
00001000
00010000
,
00000200
00000000
00020300
00000000
,
00000100
00000000
00000000
00000000
00031000
00000000
01000000
00001000
00010000
00000000
00000000
00000000
00001000
00100000
00001000
00020000
,
00000100
00000000
00000000
00000000
00031000
00000000
01000000
00001000
00010000
00000000
00000000
00000000
00001000
00100000
00001000
00020000
,
00000100
00000000
00031000
00000000
00010000
00000000
01000000
00000000
10000000
00010000
00000000
10000000
00010000
00000000
10000000
00100000
,
02000000
00000000
00000000
00000000
03020000
00000000
01030000
00100000
,
20000000
32000000
03200000
00320000
,
00032000
00000000
00003200
00000000
00000320
00000000
00000130
00000010
,
00000002
00000000
00000203
00000000
00000310
00001000
00000010
00000000
,
00010000
00001000
00010000
00000000
00001000
00000000
00010000
00001000
,
00000020
00000032
00002003
00003020
,
00001030
00000010
00010000
00001000
00200000
00000000
00310000
10000000
,
00100000
00000000
00100000
10000000
00010000
01000000
00001000
00010000
,
00000200
00000000
00001300
00000001
00000200
00000000
00001300
00010000
,
00100000
00011000
00000100
00011000
,
00001000
00010000
01000000
10000000
00100000
00000000
00010000
00001000
,
00000100
00000000
00011000
00000000
00100000
00001000
00011000
00000000
,
00000010
00010000
00011000
00000000
01000000
00001000
00010000
00001000
,
00000200
00000302
00002003
00003200
,
00001300
00000000
00000100
00000000
00010000
00000000
00001000
00000000
02000000
00000000
00000000
03010000
00000000
10000000
00010000
00000000
,
10000000
01000000
00100000
00010000
00100000
00001000
00010000
00000100
,
00000020
00000000
00000031
00001000
00000020
00000000
00000130
00000000
,
00000001
00000200
00000010
00000000
00000301
00000100
00000010
00000000
00000100
00000010
00010000
00000000
00001000
01000000
00200000
00000000
,
10000000
00000000
01300000
00010000
00000000
00100000
00001000
00000000
00011000
00000000
00010000
00000100
00000010
00000001
00000020
00000000
,
00000001
00000000
00000130
00001000
00000000
00000010
00010000
00000000
00011000
00000000
00001000
01000000
00100000
10000000
00200000
00000000
,
10000000
00000000
01300000
00010000
00000000
01000000
00010000
00000000
10000000
00000000
00010000
00100000
01000000
00000000
00100000
01000000
,
10000000
02000000
00100000
00000000
13000000
01000000
00100000
00000000
01000000
00100000
00001000
00000000
00010000
00000100
00000020
00000000
,
00000001
00000130
00010000
00001000
00011000
00000000
00010000
00000100
,
00011000
00000000
01000000
00000000
00011000
00000000
00000100
00000000
00011000
00000000
00010000
00000000
01000000
00000000
10000000
00010000
,
10000000
00000000
00100000
01000000
00010000
00000000
00100000
00000000
00004000
00100000
00000000
00103000
00004000
00010000
00000000
00013000
,
00000000
00000000
00000000
00000000
,
00000000
00000000
00000000
00000000
,
00000000
00000000
00000000
00000000
,
00011000
00000000
00000000
00000000
01000100
00000000
00000000
00001100
00000000
00000000
00011000
00000000
00001000
00010000
00001000
00000000
,
00011000
00000000
00000000
00000000
01000100
00000000
00000000
01010000
00000000
00000000
00011000
00000000
00010000
00001000
00010000
00000000
,
00011000
00000000
00000000
00000000
01000100
00000000
00000000
00010100
00000000
00000000
00011000
00000000
00001000
00010000
00001000
00000000
,
00011000
00000000
00000000
00010100
00000000
00000000
01001000
00000000
01000000
00001000
00010000
00000000
00000100
00010000
00001000
00000000
,
01000100
00000000
00000000
00000000
00100010
00000000
00000010
00010000
00000000
00001000
00100000
00000000
00001000
00010000
00001000
00000000
,
01000100
00000000
00000000
00000000
00100010
00000000
00100000
00001000
00000000
00010000
00000010
00000000
00000100
00000010
00002000
00000000
,
00010000
00000000
00000000
00000000
00000010
00000000
00000010
00000000
00000001
00000000
00003001
00000000
00001000
00000001
00000010
00000000
,
00000011
00000000
00000000
00001100
00000000
00000000
00011000
00000000
00100000
00000000
00000000
00000010
00000000
00000000
00010000
00000000
,
M0022000
0M000000
00M00000
00000M00
000000M0
0000000M
000000M0
00000M00
00M00000
0M000000
M0000000
0M000000
00M00000
00000M00
000000M0
0000000M
,
000000M0
00000M00
00M00000
0M000000
M0000000
0M000000
00M00000
00000M00
000000M0
0000000M
000000M0
00000M00
00M00000
0M000000
M0000000
0M000000
,
00M00000
00000M00
000000M0
0000000M
000000M0
00000M00
00M00000
0M000000
M0000000
0M000000
00M00000
00000M00
000000M0
0000000M
000000M0
00000M00
,
00M00000
0M000000
M0000000
0M000000
00M00000
00000M00
000000M0
0000000M
000000M0
00000M00
00M00000
0M000000
M0000000
0M000000
00M00000
00000M00
,
000000M0
00000000
0000000M
00000000
00033000
0M0000M0
00000000
00000000
M000000M
0M0000M0
00M00M00
000MM000
00000000
00000000
00000000
00000000
00000000
00000000
00000000
00000000
00000000
00000000
00000000
00000000
00000000
00000000
00000000
00000000
00000000
00000000
00000000
00000000
;
