#VERSION:0.83;
#TITLE:Just Kiddin';
#SUBTITLE:;
#ARTIST:Vospi;
#TITLETRANSLIT:;
#SUBTITLETRANSLIT:;
#ARTISTTRANSLIT:;
#GENRE:WORLD MUSIC;
#ORIGIN:;
#CREDIT:MILEN;
#BANNER:Just Kiddin.png;
#BACKGROUND:Just Kiddin-bg.png;
#PREVIEWVID:;
#JACKET:Just Kiddin-jacket.png;
#CDIMAGE:;
#DISCIMAGE:;
#LYRICSPATH:;
#CDTITLE:;
#MUSIC:Just Kiddin.ogg;
#OFFSET:0.071000;
#SAMPLESTART:49.891415;
#SAMPLELENGTH:14.139999;
#SELECTABLE:YES;
#DISPLAYBPM:125.000000;
#BPMS:0.000=125.000;
#STOPS:;
#DELAYS:;
#WARPS:;
#TIMESIGNATURES:0.000=4=4;
#TICKCOUNTS:0.000=2;
#COMBOS:0.000=1;
#SPEEDS:0.000=1.000=0.000=0;
#SCROLLS:0.000=1.000;
#FAKES:;
#LABELS:0.000=Song Start;
#LASTSECONDHINT:118.280006;
#BGCHANGES:;
#KEYSOUNDS:;
#ATTACKS:
;

//---------------dance-single - ----------------
#NOTEDATA:;
#CHARTNAME:;
#STEPSTYPE:dance-single;
#DESCRIPTION:;
#CHARTSTYLE:;
#DIFFICULTY:Beginner;
#METER:3;
#RADARVALUES:0.117175,0.150304,0.016912,0.016912,0.000000,97.000000,95.000000,2.000000,2.000000,0.000000,0.000000,0.000000,0.000000,0.000000,0.117175,0.150304,0.016912,0.016912,0.000000,97.000000,95.000000,2.000000,2.000000,0.000000,0.000000,0.000000,0.000000,0.000000;
#CREDIT:MILEN;
#DISPLAYBPM:125.000000;
#NOTES:
0000
0000
0000
0000
,
0000
0000
0000
0000
,
0000
0000
0000
0000
,
0000
0000
0000
0000
,
0001
0000
0001
0000
,
0100
0000
0100
0000
,
0010
0000
0010
0000
,
1000
0000
1000
0000
,
0100
0000
0100
0000
,
0010
0000
0010
0000
,
0001
0000
0001
0000
,
1000
0000
1000
0000
,
1001
0000
0000
0000
,
0000
0000
0000
0000
,
0001
0000
0000
0000
,
0010
0000
0000
0000
,
0100
0000
0000
0000
,
1000
0000
1000
1000
,
1000
0000
0000
0000
,
0010
0000
0000
0000
,
0100
0000
0000
0000
,
0001
0000
0000
0001
,
0002
0000
0000
0000
,
0003
0000
0000
0000
,
0000
0000
0000
0000
,
1001
0000
0000
0000
,
1000
0000
0010
0000
,
0100
0000
0001
0000
,
1000
0000
0100
0000
,
0010
0000
0010
0000
,
0001
0000
0100
0000
,
0010
0000
1000
0000
,
0001
0000
0010
0000
,
0100
0000
0100
0000
,
1000
0000
0010
0000
,
0001
0000
0010
0000
,
1000
0000
0001
0000
,
0100
0000
0100
0000
,
0001
0000
0010
0000
,
1000
0000
0010
0000
,
0001
0000
1000
0000
,
0100
0000
0100
0000
,
0010
0000
0000
0010
,
0010
0000
0001
0000
,
1000
0000
0000
0100
,
0100
0000
1000
0000
,
0001
0000
0001
0000
,
1000
0000
1000
0000
,
0001
0000
1000
0000
,
0001
0000
0000
0100
,
0100
0000
0001
0000
,
0010
0000
0100
0000
,
1000
0000
0010
0000
,
0100
0000
0001
0000
,
1000
0000
0010
0000
,
0001
0000
0010
0000
,
1000
0000
0100
0000
,
0001
0000
0100
0000
,
2000
0000
0000
0000
,
0000
3000
0000
0000
;

//---------------dance-single - ----------------
#NOTEDATA:;
#CHARTNAME:;
#STEPSTYPE:dance-single;
#DESCRIPTION:;
#CHARTSTYLE:;
#DIFFICULTY:Easy;
#METER:6;
#RADARVALUES:0.228310,0.250507,0.101471,0.143751,0.000000,189.000000,177.000000,12.000000,17.000000,0.000000,0.000000,0.000000,0.000000,0.000000,0.228310,0.250507,0.101471,0.143751,0.000000,189.000000,177.000000,12.000000,17.000000,0.000000,0.000000,0.000000,0.000000,0.000000;
#CREDIT:MILEN;
#DISPLAYBPM:125.000000;
#NOTES:
0000
0000
0000
0000
,
0000
0000
0000
0000
,
0000
0000
0000
0000
,
0000
0000
0000
0000
,
1000
0001
0100
0010
,
1000
0001
0100
0100
,
0001
1000
0010
0100
,
0001
1000
0010
0010
,
1000
0100
0010
0001
,
0010
0000
0100
0000
1000
1000
1000
0000
,
0001
0010
0100
1000
,
0100
0010
0001
1000
,
2002
0000
0000
0000
,
0000
0000
3003
0000
,
1001
0000
1000
0000
,
0001
0000
0100
0100
,
0110
0000
0010
0000
,
0100
0000
0000
0000
0010
0010
0010
0000
,
1001
0000
1000
0000
,
0010
0000
0001
0000
,
0110
0000
0001
0000
,
0100
0000
1000
0000
,
2002
0000
0000
0000
,
0000
0000
0000
0000
,
3003
0000
0000
0000
,
0020
0000
0000
0030
,
1000
0100
0010
0001
,
0100
0100
1000
0100
,
0010
0100
1000
0100
,
0001
0010
0200
0300
,
0001
0100
1000
0010
,
1000
0100
0010
0001
,
2000
3010
0002
0103
,
2000
3001
0200
0310
,
0001
0100
0010
1000
,
0100
0100
0001
0100
,
0010
0100
0001
0100
,
1000
0010
0200
0300
,
1000
0100
0001
0010
,
0001
0100
0010
1000
,
0002
0013
2000
3100
,
0002
1003
0200
0310
,
0110
0000
0000
0100
,
0001
0100
0010
1000
,
1010
0000
1100
0000
,
0011
0000
0101
0000
,
0100
0100
0000
0010
0010
0000
0000
0000
,
1000
1000
0000
0001
0001
0000
1000
0000
,
0001
0010
0100
1000
,
0020
0130
0110
0000
,
0010
1000
0100
1000
,
0001
0010
0001
0100
,
0010
1000
0010
0100
,
0001
0100
0010
1000
,
0001
0100
1000
0100
,
0010
0001
0010
1000
,
0100
0010
1000
0010
,
0100
0001
0100
0010
,
0002
0000
0000
0000
,
0000
1003
0000
0000
;

//---------------dance-double - ----------------
#NOTEDATA:;
#CHARTNAME:;
#STEPSTYPE:dance-double;
#DESCRIPTION:;
#CHARTSTYLE:;
#DIFFICULTY:Easy;
#METER:6;
#RADARVALUES:0.223479,0.250507,0.109927,0.084559,0.000000,185.000000,172.000000,13.000000,10.000000,0.000000,0.000000,0.000000,0.000000,0.000000,0.223479,0.250507,0.109927,0.084559,0.000000,185.000000,172.000000,13.000000,10.000000,0.000000,0.000000,0.000000,0.000000,0.000000;
#CREDIT:MILEN;
#DISPLAYBPM:125.000000;
#NOTES:
00000000
00000000
00000000
00000000
,
00000000
00000000
00000000
00000000
,
00000000
00000000
00000000
00000000
,
00000000
00000000
00000000
00000000
,
00001000
01000000
00010000
00100000
,
00001000
01000000
00100000
00100000
,
00010000
00000010
00001000
00000100
,
00010000
00000010
00000100
00000100
,
00001000
01000000
00010000
00100000
,
01000000
00010000
00001000
00010000
,
00010000
00000010
00001000
00000100
,
00000010
00001000
00010000
00001000
,
00022000
00000000
00000000
00000000
,
00000000
00000000
00033000
00000000
,
00011000
00000000
00010000
00000000
,
01000000
00000000
00010000
00001000
,
00011000
00000000
00001000
00000000
,
00000100
00000000
00001000
00001000
,
00011000
00000000
00010000
00000000
,
00100000
00000000
00010000
00000000
,
00011000
00000000
00001000
00000000
,
00000010
00000000
00001000
00000000
,
00022000
00000000
00000000
00000000
,
00000000
00000000
00000000
00000000
,
00033000
00000000
00000000
00000000
,
00200000
00000000
00000000
00300000
,
00010000
01000000
00001000
00010000
,
01000000
00100000
00010000
10000000
,
00100000
00010000
00001000
00000100
,
00000001
00000010
00002000
00003000
,
00000010
00000001
00001000
00000100
,
00000010
00001000
00100000
00010000
,
10000000
00100000
01000000
10000000
,
01000000
00100000
00010000
00000010
,
00001000
00000100
00010000
00001000
,
00000100
00000010
00001000
00000001
,
00000010
00001000
00010000
01000000
,
10000000
00100000
00020000
00030000
,
00100000
10000000
00010000
01000000
,
00100000
00010000
00000010
00001000
,
00000001
00000010
00000100
00000001
,
00000100
00000010
00001000
00100000
,
01100000
00000000
00000000
10000000
,
00100000
00010000
00001000
00010000
,
00010010
00000000
00101000
00000000
,
00010100
00000000
01001000
00000000
,
01000000
00010000
00200000
00300000
,
00000010
00001000
00000200
00000300
,
00000010
00000001
00000100
00001000
,
00010000
00001000
00011000
00000000
,
00010000
01000000
00010000
00001000
,
00000100
00001000
00010000
00100000
,
00010000
00001000
00000010
00001000
,
00010000
00100000
00001000
00000010
,
00000100
00000001
00000010
00001000
,
00100000
00010000
01000000
10000000
,
00010000
00001000
00000100
00000001
,
00000010
00000100
00000001
00001000
,
00020000
00000000
00000000
00000000
,
00030000
00011000
00000000
00000000
;

//---------------dance-single - ----------------
#NOTEDATA:;
#CHARTNAME:;
#STEPSTYPE:dance-single;
#DESCRIPTION:;
#CHARTSTYLE:;
#DIFFICULTY:Medium;
#METER:9;
#RADARVALUES:0.328574,0.376157,0.202943,0.236766,0.050736,272.000000,248.000000,24.000000,28.000000,0.000000,0.000000,0.000000,0.000000,0.000000,0.328574,0.376157,0.202943,0.236766,0.050736,272.000000,248.000000,24.000000,28.000000,0.000000,0.000000,0.000000,0.000000,0.000000;
#CREDIT:MILEN;
#DISPLAYBPM:125.000000;
#NOTES:
0000
0000
0000
0000
,
0000
0000
0000
0000
,
0000
0000
0000
0000
,
0000
0000
0000
0000
,
1000
1000
0010
0010
,
1000
1000
0100
1001
,
0001
0001
0010
0010
,
0001
0001
0100
1001
,
1000
1010
0001
0011
,
1000
0000
1010
0000
0001
1000
0001
1000
,
0001
0101
1000
1100
,
0001
0101
1000
1001
,
0220
0000
0000
0000
,
0000
0000
0330
0000
,
0010
0000
0000
0000
0100
0000
0000
0000
0010
0000
0000
0010
0000
0000
0010
0000
,
1000
0010
0200
0300
,
0001
0000
0000
0000
1000
0000
0000
0000
0001
0000
0000
0001
0000
0000
0001
0000
,
0100
0000
0010
0000
1000
0001
1000
0000
,
1001
0000
0000
0000
0001
0000
0000
0000
0100
0000
0000
0100
0000
0000
0100
0000
,
0020
0230
0302
1003
,
1001
0000
0000
0000
0001
0000
0000
0000
0010
0000
0000
0010
0000
0000
0010
0000
,
0100
0000
1000
0000
0010
0100
0010
0000
,
2002
0000
0000
0000
,
0000
0000
0000
0000
,
3003
0000
0000
0000
,
0001
0000
0000
0001
0000
0000
1000
0000
0000
1000
0000
0000
0020
0000
0000
0000
,
0130
0001
0100
0000
0001
0010
0001
0000
,
1000
0100
1000
0000
0010
1000
0010
0000
,
0100
0001
0100
0001
0010
0100
0010
0000
,
0100
0000
1100
0000
1000
0010
0100
0000
,
0101
0000
0001
1000
0010
0000
1000
0001
,
0010
0000
0011
0000
0001
0100
0010
0000
,
1000
0100
1000
0100
0010
0001
0010
0001
,
0010
0000
0001
0100
0020
0000
1030
0000
,
1000
0100
1000
0000
0010
1000
0010
0000
,
0100
0001
0100
0000
0001
0010
0001
0000
,
1000
0010
1000
0010
0100
0001
0100
0000
,
0010
0000
1010
0000
1000
0100
0010
0000
,
0011
0000
0001
1000
0100
0000
1000
0001
,
0100
0000
0101
0000
0001
0010
0100
0000
,
1000
0001
1000
0001
0010
0100
0010
0100
,
1000
0000
0010
0100
0002
0000
0013
0000
,
0010
0000
0000
0001
0000
0000
1000
0000
0000
0000
0000
0000
0200
0000
0000
0000
,
2300
0000
0000
0000
3002
0000
0000
0000
0103
0000
0000
0100
0000
0000
0100
0000
,
0010
0000
0000
1000
0000
0000
0001
0000
0000
0000
0010
0000
0001
0000
0010
0000
,
0100
0000
0000
1000
0000
0000
0001
0000
0000
0000
0100
0000
0010
0000
1000
0000
,
0010
0010
0000
0100
0100
0000
0101
0000
,
0001
0001
0000
1000
1000
0000
1100
0000
,
0100
0000
1000
0000
0010
0000
0100
0001
,
0010
0000
0000
0100
0000
0000
1000
0000
0000
0000
0000
0000
1001
0000
0000
0000
,
0002
0103
2000
3100
,
0002
0013
2000
3010
,
0002
1003
0200
0310
,
2000
3001
0020
0130
,
2000
0100
0001
3010
,
0002
0100
1000
0013
,
0200
1000
0010
0301
,
0020
0001
0100
1030
,
2002
0000
0000
0000
,
3003
0000
0000
0000
0000
1001
0000
0000
0000
0000
0000
0000
0000
0000
0000
0000
;

//---------------dance-double - ----------------
#NOTEDATA:;
#CHARTNAME:;
#STEPSTYPE:dance-double;
#DESCRIPTION:;
#CHARTSTYLE:;
#DIFFICULTY:Medium;
#METER:10;
#RADARVALUES:0.322534,0.376157,0.160663,0.397429,0.050736,267.000000,248.000000,19.000000,47.000000,0.000000,0.000000,0.000000,0.000000,0.000000,0.322534,0.376157,0.160663,0.397429,0.050736,267.000000,248.000000,19.000000,47.000000,0.000000,0.000000,0.000000,0.000000,0.000000;
#CREDIT:MILEN;
#DISPLAYBPM:125.000000;
#NOTES:
00000000
00000000
00000000
00000000
,
00000000
00000000
00000000
00000000
,
00000000
00000000
00000000
00000000
,
00000000
00000000
00000000
00000000
,
00001000
00010000
00000010
00010000
,
00001000
00100000
00001000
00011000
,
00010000
00001000
01000000
00001000
,
00010000
00000100
00010000
00011000
,
00000010
00001010
00010000
00011000
,
00000100
00000000
00001100
00000000
00010000
00001000
00010000
00001000
,
00100000
00110000
00001000
00011000
,
01000000
01010000
00001000
00011000
,
00000220
00000000
00000000
00000000
,
00000000
00000000
00000000
00000330
,
00000010
00000000
00000000
00000000
00000100
00000000
00000000
00000000
00000001
00000000
00000000
00000001
00000000
00000000
00000001
00000000
,
00001000
00000100
00020000
00030000
,
00001000
00000000
00000000
00000000
00100000
00000000
00000000
00000000
00010000
00000000
00000000
00010000
00000000
00000000
00010000
00000000
,
01000000
00000000
00100000
00000000
10000000
00010000
10000000
00000000
,
10010000
00000000
00000000
00000000
00010000
00000000
00000000
00000000
01000000
00000000
00000000
01000000
00000000
00000000
01000000
00000000
,
00002000
00023000
00030200
00001300
,
00001001
00000000
00000000
00000000
00000001
00000000
00000000
00000000
00000100
00000000
00000000
00000100
00000000
00000000
00000100
00000000
,
00000010
00000000
00010000
00000000
00001000
00010000
00001000
00000000
,
00022000
00000000
00000000
00000000
,
00000000
00000000
00000000
00000000
,
00033000
00000000
00000000
00000000
,
00010000
00000000
00000000
00001000
00000000
00000000
00010000
00000000
00000000
00001000
00000000
00000000
02000000
00000000
00000000
00000000
,
03010000
00100000
01000000
00000000
01000000
10000000
00100000
00000000
,
00100000
00010000
00001000
00000000
00001000
00010000
00000010
00000000
,
00000010
00001000
00000010
00001000
00000001
00000100
00000001
00000000
,
00000010
00000000
00000100
00000000
00001000
00000001
00001000
00000000
,
00001001
00000000
00000001
00000100
00001000
00000000
00001000
00010000
,
01000000
00000000
10000000
00000000
00100000
01000000
00100000
01000000
,
00010000
00000000
00100000
01000000
00010000
00001000
00010000
00001000
,
00000100
00000000
00001000
00010000
00000200
00000000
00001300
00000000
,
00001000
00000010
00000100
00000000
00000100
00000001
00000010
00000000
,
00000010
00001000
00010000
00000000
00010000
00001000
00100000
00000000
,
00100000
00010000
00100000
00010000
10000000
01000000
10000000
00000000
,
00100000
00000000
01000000
00000000
00010000
10000000
00010000
00000000
,
10010000
00000000
10000000
01000000
00010000
00000000
00010000
00001000
,
00000100
00000000
00000001
00000000
00000010
00000100
00000010
00000100
,
00001000
00000000
00000010
00000100
00001000
00010000
00001000
00010000
,
01000000
00000000
00010000
00001000
02000000
00000000
03010000
00000000
,
00010000
00000000
00000000
10000000
00000000
00000000
00010000
00000000
00000000
00000000
00000000
00000000
02000000
00000000
00000000
00000000
,
03002000
00000000
00000000
00000000
00023000
00000000
00000000
00000000
00030010
00000000
00000000
00000100
00000000
00000000
00000010
00000000
,
00001000
00000000
00000000
00000001
00000000
00000000
00001000
00000000
00000000
00000000
00000100
00000000
00000010
00000000
00000001
00000000
,
00000100
00000000
00000000
00001000
00000000
00000000
00010000
00000000
00000000
00000000
00100000
00000000
10000000
00000000
01000000
00000000
,
00100000
00010000
00000000
00100000
00001000
00000000
00011000
00000000
,
00010000
00000010
00000000
00001000
00000010
00000000
00000110
00000000
,
00000100
00000000
00000001
00000000
00000010
00000000
00001000
00010000
,
00001000
00000000
00000000
00010000
00000000
00000000
00001000
00000000
00000000
00000000
00000000
00000000
00011000
00000000
00000000
00000000
,
00020000
00030200
00002300
00003002
,
00000203
00000320
00020030
00032000
,
02003000
03020000
20030000
32000000
,
03200000
00302000
00023000
00030200
,
00000320
00000032
00000203
00002300
,
00023000
00230000
20300000
32000000
,
03020000
00032000
00003200
00000302
,
00002003
00003020
00000230
00002300
,
00020000
00000000
00000000
00000000
,
00033000
00000000
00000000
00000000
00000000
00011000
00000000
00000000
00000000
00000000
00000000
00000000
00000000
00000000
00000000
00000000
;

//---------------dance-single - ----------------
#NOTEDATA:;
#CHARTNAME:;
#STEPSTYPE:dance-single;
#DESCRIPTION:;
#CHARTSTYLE:;
#DIFFICULTY:Hard;
#METER:13;
#RADARVALUES:0.521853,0.626929,0.304414,0.448165,0.401657,432.000000,396.000000,36.000000,53.000000,0.000000,0.000000,0.000000,0.000000,0.000000,0.521853,0.626929,0.304414,0.448165,0.401657,432.000000,396.000000,36.000000,53.000000,0.000000,0.000000,0.000000,0.000000,0.000000;
#CREDIT:MILEN;
#DISPLAYBPM:125.000000;
#NOTES:
0000
0000
0000
0000
,
0000
0000
0000
0000
,
0000
0000
0000
0000
,
0000
0000
0000
0000
,
1001
0000
0000
1000
0100
0000
1000
0000
0010
0000
0000
1000
0100
0000
1000
0000
,
0001
0000
0000
1000
0100
0000
1000
0000
0010
0000
0000
0100
0000
0000
0001
0000
,
1001
0000
0000
0001
0100
0000
0001
0000
0010
0000
0000
0001
0100
0000
0001
0000
,
1000
0000
0000
0001
0100
0000
0001
0000
0010
0000
0000
0100
0000
0000
1000
0000
,
1001
0000
0000
1000
0010
0000
0100
0000
0001
0000
0000
0001
0010
0000
0100
0000
,
1000
0000
0000
1000
0010
0000
0100
0000
0001
0010
0001
0000
0100
0000
0010
0000
,
0110
0000
0000
0010
1000
0000
0001
0000
0100
0000
0000
0100
0001
0000
1000
0000
,
0010
0000
0000
0010
0100
0000
0001
0000
1000
0000
0000
0001
0000
0000
1000
0000
,
2002
0000
0000
0000
,
0000
0000
3003
0000
,
1010
0000
0000
0000
0101
0000
0000
0000
0001
0000
0000
0010
0000
0000
0100
0000
,
1000
0010
1000
0000
0100
0000
0010
0000
0001
0100
0000
0010
0000
0100
0001
0000
,
0011
0000
0000
0000
1100
0000
0000
0000
1000
0000
0000
0010
0000
0000
0100
0000
,
0001
1000
0001
0000
0010
0000
0100
0000
2000
0000
0001
0000
3001
0000
0000
0000
,
1010
0000
0000
0000
0011
0000
0000
0000
0001
0000
0000
0100
0000
0000
0010
0000
,
1000
0001
1000
0000
0010
0000
0100
0000
0010
0000
1000
0000
0100
0000
0010
0000
,
0011
0000
0000
0000
1010
0000
0000
0000
1000
0000
0000
0100
0000
0000
0010
0000
,
0001
0100
0001
0000
1000
0000
0010
0000
0100
0000
0001
0000
1000
0000
0000
0000
,
2002
0000
0000
0000
,
0000
0000
0000
0000
,
3003
0000
0000
0000
,
1010
0000
0000
1100
0000
0000
0110
0000
0000
0011
0000
0000
0102
0000
0000
0000
,
1003
0000
0010
0000
0100
0000
0001
0000
0100
0000
0010
0000
1000
0100
1000
0100
,
1000
0000
0010
0000
0100
0000
0001
0010
0000
0010
0001
0000
0100
0000
1000
0000
,
0200
0301
0002
0013
0020
0130
0200
1300
,
2000
0000
0000
3020
0000
0000
0230
0000
0000
0302
0000
0000
1003
0000
0100
0000
0010
0000
0001
0000
0000
0000
0000
0000
,
0101
0000
0000
0000
0100
0010
0100
0000
0002
0000
0003
0000
0100
0010
0100
0000
,
2000
0000
3000
0000
0100
0010
0100
0010
0100
0000
0001
0000
0010
0000
1000
0000
,
0010
0000
0001
0100
0010
0000
0001
0000
0010
0000
1000
0000
0100
0000
0010
0000
,
0002
0000
1003
0010
0210
0000
0301
0000
,
0001
0000
0010
0000
0100
0000
1000
0000
0100
0000
0010
0000
0001
0100
0001
0100
,
0001
0000
0010
0000
0100
0000
1000
0010
0000
0010
1000
0000
0100
0000
0001
0000
,
0200
1300
2000
3010
0020
0130
0200
0301
,
0002
0000
0000
0023
0000
0000
0230
0000
0000
2300
0000
0000
3001
0000
0100
0000
0010
0000
1000
0000
0000
0000
0000
0000
,
1100
0000
0000
0000
0100
0010
0100
0000
2000
0000
3000
0000
0100
0010
0100
0000
,
0002
0000
0003
0000
0100
0010
0100
0010
0100
0000
1000
0000
0010
0000
0001
0000
,
0010
0000
1000
0100
0010
0000
1000
0000
0010
0000
0001
0000
0100
0000
0010
0000
,
2000
0000
3001
0010
0210
0000
1300
0000
,
1010
0000
0000
0000
0000
0000
0000
0000
0000
0110
0000
0000
0000
0000
0000
0000
0000
0000
0101
0000
0000
0000
0000
0000
0000
0000
0000
0000
0001
0000
0000
0000
0010
0000
0000
0000
0100
0000
0000
0000
0010
0000
0000
0000
0001
0000
0000
0000
,
0010
0000
0000
0000
0100
0000
0000
0000
1000
0000
0000
0000
0020
0000
0000
0000
0000
0000
0030
0000
0000
0000
0000
0000
0110
0000
0000
0000
0000
0000
0000
0000
0000
0101
0000
0000
0000
0000
0000
0000
0000
0000
1010
0000
0000
0000
0000
0000
,
1000
0000
0000
0001
0000
0000
0010
0000
0000
0001
0100
0020
0030
1000
0100
0000
,
0100
0000
0000
1000
0000
0000
0001
0000
0000
0010
0001
0200
0300
0010
1000
0000
,
0100
1000
0100
1000
0000
0000
0001
0100
0001
0100
0000
0000
0110
0000
0000
0000
,
0010
1000
0010
1000
0000
0000
0001
0010
0001
0010
0000
0100
0000
0200
0000
0000
,
1300
0000
0000
1000
0000
0010
0000
0001
0000
0010
0000
0100
0001
0000
0010
0000
,
0110
0000
0000
1100
0000
0000
0012
0000
0000
0000
1003
0000
1001
0000
0000
0000
,
0002
0103
0200
0310
0020
1030
2000
3100
,
0200
0310
0020
0031
0002
1003
2000
3010
,
0020
0031
0002
0013
0020
1030
2000
3100
,
0200
0301
0002
0103
0200
1300
2000
3010
,
0010
0100
0010
0000
0100
0000
0001
0000
0010
0100
0010
0000
0100
0000
1000
0000
,
0001
0100
0001
0000
1000
0000
0010
0000
1000
0100
1000
0000
0001
0000
0010
0000
,
0001
1000
0100
0000
1000
0000
0010
0000
1000
0001
0100
0000
0001
0000
0010
0100
,
0010
0000
0001
0100
0001
0000
1000
0100
1000
0000
0010
0100
0010
0100
0001
0000
,
2002
0000
0000
0000
,
0000
0000
3003
0000
0000
1001
0000
0000
0000
0000
0000
0000
0000
0000
0000
0000
;

//---------------dance-single - ----------------
#NOTEDATA:;
#CHARTNAME:;
#STEPSTYPE:dance-single;
#DESCRIPTION:;
#CHARTSTYLE:;
#DIFFICULTY:Challenge;
#METER:16;
#RADARVALUES:0.698219,0.939165,0.439709,0.718755,0.909014,578.000000,526.000000,52.000000,85.000000,0.000000,0.000000,1.000000,0.000000,39.000000,0.698219,0.939165,0.439709,0.718755,0.909014,578.000000,526.000000,52.000000,85.000000,0.000000,0.000000,1.000000,0.000000,39.000000;
#CREDIT:MILEN;
#OFFSET:0.071000;
#BPMS:0.000000=124.999992
;
#STOPS:;
#DELAYS:;
#WARPS:54.000000=32.000000
;
#TIMESIGNATURES:0.000000=4=4
;
#TICKCOUNTS:0.000000=2
;
#COMBOS:0.000000=1
;
#SPEEDS:0.000000=0.250000=0.000000=0
,0.020833=0.500000=1.497000=0
,3.000000=1.000000=3.000000=0
,6.000000=0.700000=0.125000=0
,6.125000=1.000000=0.125000=0
,88.000000=0.700000=0.125000=0
,88.125000=1.000000=0.875000=0
,89.000000=0.700000=0.125000=0
,89.125000=1.000000=0.875000=0
,96.000000=0.700000=0.125000=0
,96.125000=1.000000=0.875000=0
,97.000000=0.700000=0.125000=0
,97.125000=1.000000=0.875000=0
,103.250000=999.000000=0.000000=0
,103.375000=1.000000=0.000000=0
,104.000000=0.700000=0.125000=0
,104.125000=1.000000=0.875000=0
,105.000000=0.700000=0.125000=0
,105.125000=1.000000=0.875000=0
,112.000000=0.700000=0.125000=0
,112.125000=1.000000=0.875000=0
,113.000000=0.700000=0.125000=0
,113.125000=1.000000=0.875000=0
,119.000000=0.700000=0.125000=0
,119.125000=1.000000=0.125000=0
,119.250000=0.700000=0.125000=0
,119.375000=1.000000=0.125000=0
,119.500000=0.700000=0.125000=0
,119.625000=1.000000=0.125000=0
,120.000000=0.000000=0.000000=0
,120.020836=0.500000=9.979000=0
,132.000000=0.600000=0.125000=0
,132.750000=0.700000=0.125000=0
,133.500000=0.800000=0.125000=0
,134.250000=0.900000=0.125000=0
,135.000000=1.000000=0.125000=0
,152.000000=0.700000=0.125000=0
,152.125000=1.000000=0.875000=0
,231.000000=1.300000=0.250000=0
,231.250000=1.000000=0.750000=0
,264.000000=0.250000=5.250000=0
;
#SCROLLS:0.000000=0.000000
,6.000000=0.500000
,8.000000=1.000000
,48.000000=0.500000
,56.000000=1.000000
,86.000000=0.500000
,88.000000=1.000000
;
#FAKES:56.000000=16.000000
;
#LABELS:0.000000=Song Start
;
#DISPLAYBPM:125.000000;
#NOTES:
// measure 0
0000
0000
0000
0000
,  // measure 1
0000
0000
0000
0000
,  // measure 2
2002
3003
0000
1000
0000
0001
1000
0000
0100
1000
0000
0001
0000
0010
0001
1000
,  // measure 3
0001
0000
0100
0001
0000
1000
0010
0000
2000
0000
0000
0002
3003
0000
0000
0000
,  // measure 4
0202
0303
0000
0001
0010
0000
0001
0000
0100
0001
0000
1000
0001
0010
0001
0100
,  // measure 5
0001
0000
1000
0001
0000
1000
0100
0000
2000
0000
0000
0020
3030
0000
0000
0000
,  // measure 6
2200
3300
0000
1000
0010
0000
1000
0000
0100
1000
0000
0001
1000
0010
1000
0100
,  // measure 7
1000
0000
0001
1000
0000
0001
0100
0000
0002
0000
0000
0020
0033
0000
0000
0000
,  // measure 8
0110
0000
0200
0000
1300
0000
0020
0000
0130
0000
0002
0000
1003
0100
1000
0100
,  // measure 9
0010
0000
0001
0100
0000
0010
1000
0000
0001
0010
0001
0010
0100
1000
0100
1000
,  // measure 10
0020
0000
0000
0130
0001
0000
2000
0000
3200
0000
0320
0000
0031
0100
0001
0100
,  // measure 11
0010
0000
1000
0001
0000
0010
0100
0000
1100
0000
0000
1010
0000
0000
0011
0000
,  // measure 12
2002
0000
0000
0000
,  // measure 13
0000
0000
0000
0000
0000
0000
0000
3003
,  // measure 14
1001
0000
0000
0000
0110
0000
0000
0000
1010
0000
0000
0011
0000
0000
1010
0000
,  // measure 15
1000
0100
0001
0000
0100
0000
1000
0000
0010
0100
0000
0001
0000
0100
0010
0000
,  // measure 16
0110
0000
0000
0000
1001
0000
0000
0000
0011
0000
0000
1010
0000
0000
0011
0000
,  // measure 17
0001
0100
1000
0000
0100
0000
0001
0000
0010
0000
0100
0000
0010
0010
0000
0000
,  // measure 18
0000
0000
0000
0000
,  // measure 19
0000
0000
0000
0000
,  // measure 20
0000
0000
0000
0000
,  // measure 21
0000
0000
0000
0000
,  // measure 22
1001
0000
0000
0000
0110
0000
0000
0000
1010
0000
0000
0011
0000
0000
1010
0000
,  // measure 23
1000
0100
0001
0000
0100
0000
1000
0000
0010
0100
0000
0001
0000
0100
0010
0000
,  // measure 24
0110
0000
0000
0000
1001
0000
0000
0000
0011
0000
0000
1010
0000
0000
0011
0000
,  // measure 25
0001
0100
1000
0000
0100
0000
0001
0000
0010
0000
0100
0000
0010
0010
0000
0000
,  // measure 26
0011
0000
0000
0000
1100
0000
0000
0000
1010
0000
0000
0011
0000
0000
1100
0000
,  // measure 27
1000
0010
0100
0000
1000
0000
0100
0000
0001
0000
0010
0000
0100
0000
0001
0000
,  // measure 28
0100
0000
0000
0000
1100
0000
0000
0000
0011
0000
0000
1010
0000
0000
0101
0000
,  // measure 29
0001
0010
0100
0000
0001
0000
0100
0000
1000
0000
0010
0000
4000
0000
3000
0000
,  // measure 30
2002
0000
0000
0000
,  // measure 31
0000
0000
0000
0000
,  // measure 32
0000
0000
3003
0000
,  // measure 33
1010
0000
0000
0011
0000
0000
1100
0000
0000
0101
0000
0000
2002
0000
3003
0000
,  // measure 34
0001
0000
0100
0000
0001
0000
0100
0000
0010
0000
1000
0000
0100
0000
0010
0000
0200
0300
0000
0000
1000
0000
0100
0000
0010
0000
0001
0000
0100
0000
0001
0000
,  // measure 35
2000
3000
0000
0000
0010
0000
1000
0000
0010
0000
0100
0000
0001
0000
1000
0000
0002
0003
0020
0030
0200
0300
2000
3000
0200
0300
0020
0030
0002
0003
2000
3000
,  // measure 36
0010
0000
0000
0100
0000
0000
0001
0000
0000
0100
0000
0000
0010
0000
0000
0000
1000
0000
0010
0000
0000
0000
0100
0000
0010
0000
0000
0000
0100
0000
0001
0000
0000
0000
0010
0000
0001
0000
0000
0000
1000
0000
0001
0000
0000
0000
1000
0000
,  // measure 37
0200
0000
0000
2300
0000
0000
3020
0000
0000
0230
0000
0000
0301
0000
0010
0000
1000
0000
0010
0000
0000
0001
0000
0000
,  // measure 38
0101
0000
0000
0000
0100
0010
1000
0001
0020
0000
0030
0000
0100
0010
0001
1000
,  // measure 39
0020
0000
0030
0000
0100
0010
1000
0001
0020
0000
0230
0000
2300
0000
3020
0000
,  // measure 40
0130
0000
0000
0000
0000
0000
0000
0000
0000
0000
0000
0000
0000
0000
0000
0000
0000
0000
0000
0000
0000
0000
0000
0000
0001
0000
0000
0000
0000
0000
0000
0000
0000
0000
0000
0000
0000
0000
0000
0000
1000
0000
0000
0000
0000
0000
0000
0000
0010
0000
0000
0000
0000
0000
0000
0000
0000
0000
0000
0000
0000
0000
0000
0000
0000
0000
0010
0000
0000
0000
0000
0000
0100
0000
0000
0000
0000
0000
0000
0000
0000
0000
0000
0000
0000
0000
0000
0000
0000
0000
0100
0000
0000
0000
0000
0000
0001
0000
0000
0000
0000
0000
0000
0000
0000
0000
0000
0000
0000
0000
0000
0000
0000
0000
0001
0000
0000
0000
0000
0000
0010
0000
0000
0000
0000
0000
0000
0000
0000
0000
0000
0000
0000
0000
0000
0000
0000
0000
0010
0000
0000
0000
0000
0000
0100
0000
0000
0000
0000
0000
0000
0000
0000
0000
0000
0000
0000
0000
0000
0000
0000
0000
0100
0000
0000
0000
0000
0000
1000
0000
0000
0000
0000
0000
0000
0000
0000
0000
0000
0000
0000
0000
0000
0000
0000
0000
0000
0000
0000
0000
0000
0000
,  // measure 41
1020
0000
0000
0000
0000
0000
0000
0000
0130
0000
0000
0000
0001
0000
0000
0000
0021
0000
0000
0000
0000
0000
0000
0000
0200
0330
0000
0000
0000
0000
0000
0000
,  // measure 42
1000
0100
1000
0100
0010
0001
0100
0010
0100
0001
1000
0010
0100
0001
0010
0001
,  // measure 43
1000
0000
0010
0000
0100
0000
0001
0000
0100
0000
0010
0000
1000
0000
0001
0000
2000
3000
0020
0030
0200
0300
0002
0003
0200
0300
0020
0030
2000
3000
0002
0003
,  // measure 44
0010
0000
0000
0100
0000
0000
1000
0000
0000
0100
0000
0000
0010
0000
0000
0000
0001
0000
0010
0000
0000
0000
0100
0000
0010
0000
0000
0000
0100
0000
1000
0000
0000
0000
0010
0000
1000
0000
0000
0000
0001
0000
1000
0000
0000
0000
0001
0000
,  // measure 45
0200
0000
0000
0302
0000
0000
0023
0000
0000
0230
0000
0000
1300
0000
0010
0000
0001
0000
0010
0000
0000
0000
0000
0000
,  // measure 46
1010
0000
0000
0000
1000
0001
0010
0100
2000
0000
3000
0000
0001
1000
0010
0100
,  // measure 47
0002
0000
0003
0000
1000
0001
0010
0100
2000
0000
3020
0000
0230
0000
0302
0000
,  // measure 48
1003
0000
0000
0000
0100
0000
0000
0010
0100
0000
0000
0100
1000
0000
0000
1000
0001
0000
0000
0001
0100
0000
0000
0100
0010
0000
0000
0010
1000
0000
0000
0000
,  // measure 49
1200
0000
0000
0000
0301
0000
0000
0000
0100
0000
0000
0000
1000
0000
0000
0000
1020
0000
0000
0000
0000
0000
0000
0000
0200
0330
0000
0000
0000
0000
0000
0000
,  // measure 50
0101
0000
0000
0000
0000
0000
0000
0000
0000
1010
0000
0000
0000
0000
0000
0000
0000
0000
1001
0000
0000
0000
0000
0000
0000
0000
0000
0000
0001
0000
0000
0000
0001
0000
0000
0000
0001
0000
0000
0000
1000
0000
0000
0000
1000
0000
0000
0000
,  // measure 51
1000
0000
0000
0000
0010
0000
0000
0000
0010
0000
0000
0000
0010
0000
0000
0000
0000
0000
0100
0000
0000
0000
0000
0000
0101
0000
0000
0000
0000
0000
0000
0000
0000
0011
0000
0000
0000
0000
0000
0000
0000
0000
1100
0000
0000
0000
0000
0000
,  // measure 52
1000
0000
0010
0100
0000
0010
0001
0000
0010
0100
0010
2000
3000
0100
1000
0000
,  // measure 53
0001
0000
0010
0100
0000
0010
1000
0000
0010
0100
0010
0002
0003
0100
0001
0000
,  // measure 54
1000
0100
0010
0002
0003
0000
1000
0100
0010
0002
0003
0000
1001
0000
0000
0000
,  // measure 55
0001
0100
0010
2000
3000
0000
0001
0100
0010
2000
3000
0200
0000
0310
0000
0000
,  // measure 56
1100
0000
0000
0000
0000
0000
0011
0000
0000
0000
0101
0000
0000
0000
1100
0000
0000
0000
1010
0000
0000
0000
0010
0000
0100
0000
0000
0000
0001
0000
1000
0001
,  // measure 57
1000
0000
0010
0100
0000
0100
0010
0000
2000
0000
0000
0000
3002
0000
0000
0000
,  // measure 58
1003
0000
1000
0010
0100
0000
0010
1000
0100
0000
1000
0001
0010
0000
0001
1000
,  // measure 59
0100
0000
0010
0001
0100
0000
0010
0100
0001
0000
0010
0001
1000
0000
0100
1000
,  // measure 60
0001
0000
0010
0100
1000
0000
0001
0010
0100
0000
1000
0010
0001
0000
0010
1000
,  // measure 61
0100
0000
0001
0100
1000
0000
0001
0010
1000
0000
0010
0001
0100
0000
1000
0100
,  // measure 62
0001
0010
0001
0010
0100
1000
0100
1000
0010
1000
0010
1000
0001
0100
0001
0100
,  // measure 63
0010
1000
0100
1000
0001
0010
0001
0100
0010
1000
0010
0100
0001
0100
0010
1000
,  // measure 64
0100
0010
0001
1000
0001
0010
0100
1000
0001
1000
0100
0010
0001
0100
0010
0100
,  // measure 65
0002
0000
0023
0000
2030
0000
3002
0000
0203
0000
0000
0000
1300
0010
0100
0002
,  // measure 66
2000
0000
0000
0000
,  // measure 67
0000
0000
0000
3003
0000
1001
0000
0000
0000
0000
0000
0000
0000
0000
0000
0000
;

//---------------dance-double - ----------------
#NOTEDATA:;
#CHARTNAME:;
#STEPSTYPE:dance-double;
#DESCRIPTION:;
#CHARTSTYLE:;
#DIFFICULTY:Hard;
#METER:13;
#RADARVALUES:0.510981,0.576775,0.287502,0.169119,0.372062,423.000000,389.000000,34.000000,20.000000,0.000000,0.000000,0.000000,0.000000,0.000000,0.510981,0.576775,0.287502,0.169119,0.372062,423.000000,389.000000,34.000000,20.000000,0.000000,0.000000,0.000000,0.000000,0.000000;
#CREDIT:MILEN;
#DISPLAYBPM:125.000000;
#NOTES:
00000000
00000000
00000000
00000000
,
00000000
00000000
00000000
00000000
,
00000000
00000000
00000000
00000000
,
00000000
00000000
00000000
00000000
,
00011000
00000000
00000000
00001000
00010000
00000000
00000010
00000000
00010000
00000000
00000000
00010000
00001000
00000000
00100000
00000000
,
00001000
00000000
00000000
00001000
00010000
00000000
00000100
00000000
00010000
00000000
00000000
00001000
00000000
00000000
00010000
00000000
,
00011000
00000000
00000000
00010000
00001000
00000000
00100000
00000000
00001000
00000000
00000000
00001000
00010000
00000000
00000010
00000000
,
00010000
00000000
00000000
00010000
00001000
00000000
01000000
00000000
00001000
00000000
00000000
00010000
00000000
00000000
00001000
00000000
,
00011000
00000000
00000000
00010000
00000100
00000000
00001000
00000000
00000010
00000000
00000000
00000010
00010000
00000000
00001000
00000000
,
00100000
00000000
00000000
00100000
00010000
00000000
01000000
00000000
00001000
00010000
00001000
00000000
00010000
00000000
00000010
00000000
,
00000110
00000000
00000000
00000100
00000001
00000000
00000010
00000000
00000100
00000000
00000000
00010000
00001000
00000000
00100000
00000000
,
01000000
00000000
00000000
10000000
00100000
00000000
01000000
00000000
00001000
00000000
00000000
00010000
00000000
00000000
00001000
00000000
,
00022000
00000000
00000000
00000000
,
00000000
00000000
00033000
00000000
,
01001000
00000000
00000000
00000000
00010010
00000000
00000000
00000000
00000010
00000000
00000000
00001000
00000000
00000000
00000100
00000000
,
00000010
00000001
00000010
00000000
00000100
00000000
00000010
00000000
00000001
00000100
00000000
00000010
00000000
00001000
00000100
00000000
,
00010100
00000000
00000000
00000000
00101000
00000000
00000000
00000000
00100000
00000000
00000000
00010000
00000000
00000000
01000000
00000000
,
00100000
10000000
00100000
00000000
01000000
00000000
00010000
00000000
00100000
00000000
00001000
00000000
00010000
00001000
00000000
00000000
,
01001000
00000000
00000000
00000000
00010100
00000000
00000000
00000000
00000100
00000000
00000000
00000010
00000000
00000000
00000001
00000000
,
00001000
00000100
00001000
00000000
00000001
00000000
00000010
00000000
00000100
00000000
00001000
00000000
00000010
00000000
00010000
00000000
,
00010100
00000000
00000000
00000000
01001000
00000000
00000000
00000000
01000000
00000000
00000000
00100000
00000000
00000000
10000000
00000000
,
01000000
00100000
01000000
00000000
10000000
00000000
00100000
00000000
01000000
00000000
00001000
00000000
00010000
00000000
00000000
00000000
,
00022000
00000000
00000000
00000000
,
00000000
00000000
00000000
00000000
,
00033000
00000000
00000000
00000000
,
01001000
00000000
00000000
00001000
00000000
00000000
00011000
00000000
00000000
00010000
00000000
00000000
00010200
00000000
00000000
00000000
,
00000310
00000000
00000001
00000000
00000100
00000000
00001000
00000000
00000100
00000000
00000001
00000000
00000010
00000100
00000010
00000000
,
00001000
00000000
00010000
00000000
01000000
00000000
10000000
00100000
00000000
00100000
01000000
00000000
10000000
00000000
01000000
00000000
,
00010000
00100000
00010000
01000000
00010000
00001000
00000100
00001000
,
00000010
00000000
00000000
00001000
00000000
00000000
00000100
00000000
00000000
00000010
00000000
00000000
00000001
00000000
00000100
00000000
00001000
00000000
00010000
00000000
00000000
00000000
00000000
00000000
,
00011000
00000000
00000000
00000000
00001000
00010000
00001000
00000000
02000000
00000000
03000000
00000000
00001000
00010000
00001000
00000000
,
00200000
00000000
00300000
00000000
00001000
00010000
00001000
00000000
00000010
00000000
00000001
00000000
00001000
00000000
00000100
00000000
,
00000010
00000000
00001000
00010000
00001000
00000000
00100000
00000000
01000000
00000000
10000000
00000000
00100000
00000000
00010000
00000000
,
00002000
00000000
00103000
00010000
02010000
00000000
03100000
00000000
,
00100000
00000000
10000000
00000000
01000000
00000000
00010000
00000000
01000000
00000000
10000000
00000000
00100000
01000000
00100000
00000000
,
00010000
00000000
00001000
00000000
00000100
00000000
00000001
00000010
00000000
00000010
00000100
00000000
00000001
00000000
00000100
00000000
,
00001000
00000010
00001000
00000100
00001000
00010000
01000000
00010000
,
00100000
00000000
00000000
00010000
00000000
00000000
01000000
00000000
00000000
00100000
00000000
00000000
10000000
00000000
01000000
00000000
00010000
00000000
00001000
00000000
00000000
00000000
00000000
00000000
,
00011000
00000000
00000000
00000000
00000000
00000000
00000000
00000000
00000000
00000000
00000000
00000000
00010000
00000000
00000000
00001000
00000000
00000000
00010000
00000000
00000000
00000000
00000000
00000000
00000200
00000000
00000000
00000000
00000000
00000000
00000000
00000000
00000300
00000000
00000000
00000000
00010000
00000000
00000000
00001000
00000000
00000000
00010000
00000000
00000000
00000000
00000000
00000000
,
00000020
00000000
00000000
00000000
00000000
00000000
00000000
00000000
00000030
00000000
00000000
00000000
00010000
00000000
00000000
00001000
00000000
00000000
00010000
00000000
00000000
00000000
00000000
00000000
00100000
00000000
00000000
00000000
00000000
00000000
10000000
00000000
00000000
00000000
00000000
00000000
00010000
00000000
00000000
00000000
00000000
00000000
01000000
00000000
00000000
00000000
00000000
00000000
,
00100000
00000000
00010000
00001000
00010000
00000000
00000010
00000000
00000100
00000000
00000001
00000000
00000010
00000000
00001000
00000000
,
00020000
00000000
00030010
00001000
00001200
00000000
00000310
00000000
,
00000011
00000000
00000000
00000000
00000000
00000000
00000000
00000000
00000000
00001001
00000000
00000000
00000000
00000000
00000000
00000000
00000000
00000000
00001100
00000000
00000000
00000000
00000000
00000000
00000000
00000000
00000000
00000000
00001000
00000000
00000000
00000000
00000010
00000000
00000000
00000000
00010000
00000000
00000000
00000000
00001000
00000000
00000000
00000000
00100000
00000000
00000000
00000000
,
00010000
00000000
00000000
00000000
01000000
00000000
00000000
00000000
00001000
00000000
00000000
00000000
00020000
00000000
00000000
00000000
00000000
00000000
00030000
00000000
00000000
00000000
00000000
00000000
00010100
00000000
00000000
00000000
00000000
00000000
00000000
00000000
00000000
00011000
00000000
00000000
00000000
00000000
00000000
00000000
00000000
00000000
01001000
00000000
00000000
00000000
00000000
00000000
,
01000000
00000000
00000000
00010000
00000000
00000000
00100000
00000000
00000000
01000000
10000000
02000000
03000000
10000000
00010000
00000000
,
00100000
00000000
00000000
00001000
00000000
00000000
00010000
00000000
00000000
00000010
00001000
00000020
00000030
00000100
00000001
00000000
,
00000010
00000001
00000010
00000001
00000000
00000000
00001000
00000010
00001000
00000010
00000000
00000000
00011000
00000000
00000000
00000000
,
01000000
00010000
01000000
00010000
00000000
00000000
10000000
01000000
10000000
01000000
00000000
00100000
00000000
00200000
00000000
00000000
,
00301000
00000000
00000000
00001000
00000000
00010000
00000000
00100000
00000000
00010000
00000000
00001000
00010000
00000000
00000010
00000000
,
00001010
00000000
00000000
00000101
00000000
00000000
00000120
00000000
00000000
00000000
00010030
00000000
00011000
00000000
00000000
00000000
,
00001000
00010000
00100000
00010000
00001000
00010000
01000000
00010000
,
00001000
00000100
00001000
00010000
00001000
00000010
00001000
00010000
,
00100000
10000000
01000000
00010000
00001000
00000010
00000001
00000100
,
00001000
00100000
01000000
00010000
00001000
00000010
00000100
00010000
,
00001000
00000100
00001000
00000000
00010000
00000000
00001000
00000000
00010000
01000000
00010000
00000000
00001000
00000000
00010000
00000000
,
00001000
00000010
00001000
00000000
00010000
00000000
00001000
00000000
00010000
00100000
00010000
00000000
00001000
00000000
00010000
00000000
,
00001000
01000000
00001000
00000000
00100000
00000000
01000000
00000000
00010000
00000100
00010000
00000000
00000010
00000000
00000100
00000000
,
00001000
00000000
01000000
00000000
00100000
00000000
00010000
00000000
00000100
00000000
00000010
00000000
00001000
00010000
00001000
00000000
,
00022000
00000000
00000000
00000000
,
00000000
00000000
00033000
00000000
00000000
00011000
00000000
00000000
00000000
00000000
00000000
00000000
00000000
00000000
00000000
00000000
;

//---------------dance-double - ----------------
#NOTEDATA:;
#CHARTNAME:;
#STEPSTYPE:dance-double;
#DESCRIPTION:;
#CHARTSTYLE:;
#DIFFICULTY:Challenge;
#METER:16;
#RADARVALUES:0.690971,0.939165,0.684932,0.693387,0.761035,572.000000,491.000000,81.000000,82.000000,0.000000,0.000000,1.000000,0.000000,39.000000,0.690971,0.939165,0.684932,0.693387,0.761035,572.000000,491.000000,81.000000,82.000000,0.000000,0.000000,1.000000,0.000000,39.000000;
#CREDIT:MILEN;
#OFFSET:0.071000;
#BPMS:0.000000=124.999992
;
#STOPS:;
#DELAYS:;
#WARPS:54.000000=32.000000
;
#TIMESIGNATURES:0.000000=4=4
;
#TICKCOUNTS:0.000000=2
;
#COMBOS:0.000000=1
;
#SPEEDS:0.000000=0.250000=0.000000=0
,0.020833=0.500000=1.497000=0
,3.000000=1.000000=3.000000=0
,6.000000=0.700000=0.125000=0
,6.125000=1.000000=0.125000=0
,88.000000=0.700000=0.125000=0
,88.125000=1.000000=0.875000=0
,89.000000=0.700000=0.125000=0
,89.125000=1.000000=0.875000=0
,96.000000=0.700000=0.125000=0
,96.125000=1.000000=0.875000=0
,97.000000=0.700000=0.125000=0
,97.125000=1.000000=0.875000=0
,103.250000=999.000000=0.000000=0
,103.375000=1.000000=0.000000=0
,104.000000=0.700000=0.125000=0
,104.125000=1.000000=0.875000=0
,105.000000=0.700000=0.125000=0
,105.125000=1.000000=0.875000=0
,112.000000=0.700000=0.125000=0
,112.125000=1.000000=0.875000=0
,113.000000=0.700000=0.125000=0
,113.125000=1.000000=0.875000=0
,119.000000=0.700000=0.125000=0
,119.125000=1.000000=0.125000=0
,119.250000=0.700000=0.125000=0
,119.375000=1.000000=0.125000=0
,119.500000=0.700000=0.125000=0
,119.625000=1.000000=0.125000=0
,120.000000=0.000000=0.000000=0
,120.020836=0.500000=9.979000=0
,132.000000=0.600000=0.125000=0
,132.750000=0.700000=0.125000=0
,133.500000=0.800000=0.125000=0
,134.250000=0.900000=0.125000=0
,135.000000=1.000000=0.125000=0
,152.000000=0.700000=0.125000=0
,152.125000=1.000000=0.875000=0
,231.000000=1.300000=0.250000=0
,231.250000=1.000000=0.750000=0
,264.000000=0.250000=5.250000=0
;
#SCROLLS:0.000000=0.000000
,6.000000=0.500000
,8.000000=1.000000
,48.000000=0.500000
,56.000000=1.000000
,86.000000=0.500000
,88.000000=1.000000
;
#FAKES:56.000000=16.000000
;
#LABELS:0.000000=Song Start
;
#DISPLAYBPM:125.000000;
#NOTES:
00000000
00000000
00000000
00000000
,
00000000
00000000
00000000
00000000
,
00022000
00033000
00000000
00001000
00000000
01000000
00001000
00000000
00010000
00001000
00000000
00010000
00000000
00000100
00010000
00001000
,
00010000
00000000
00000010
00010000
00000000
00001000
00100000
00000000
00002000
00000000
00000000
00020000
00033000
00000000
00000000
00000000
,
00020200
00030300
00000000
00000100
00001000
00000000
00000001
00000000
00001000
00000100
00000000
00001000
00000010
00010000
00001000
01000000
,
00010000
00000000
00100000
00010000
00000000
10000000
01000000
00000000
00200000
00000000
00000000
00002000
00303000
00000000
00000000
00000000
,
02002000
03003000
00000000
01000000
00010000
00000000
10000000
00000000
00010000
01000000
00000000
00010000
00100000
00001000
00010000
00000100
,
00001000
00000000
00000010
00001000
00000000
00000001
00000100
00000000
00000020
00000000
00000000
00020000
00030030
00000000
00000000
00000000
,
00011000
00000000
00002000
00000000
01003000
00000000
00002000
00000000
00013000
00000000
00020000
00000000
00030010
00001000
00000010
00001000
,
00000100
00000000
00000010
00000001
00000000
00001000
00000100
00000000
00010000
00001000
00010000
00001000
00100000
01000000
00100000
01000000
,
20000000
00000000
00000000
30010000
00100000
00000000
00020000
00000000
02030000
00000000
03002000
00000000
00013000
00000010
00010000
00000010
,
00000100
00000000
00000001
00001000
00000000
00000100
00000010
00000000
00000001
00000000
00000000
00000100
00000000
00000000
00001000
00000000
,
00022000
00000000
00000000
00000000
,
00000000
00000000
00000000
00000000
00000000
00000000
00000000
00033000
,
00011000
00000000
00000000
00000000
01001000
00000000
00000000
00000000
00010100
00000000
00000000
00001100
00000000
00000000
00001001
00000000
,
00000001
00000100
00001000
00000000
00000100
00000000
00000001
00000000
00000010
00000100
00000000
00000010
00000000
00001000
00010000
00000000
,
00011000
00000000
00000000
00000000
00010100
00000000
00000000
00000000
01001000
00000000
00000000
01010000
00000000
00000000
10010000
00000000
,
10000000
00100000
00010000
00000000
00100000
00000000
10000000
00000000
01000000
00000000
00100000
00000000
00001000
00010000
00000000
00000000
,
00000000
00000000
00000000
00000000
,
00000000
00000000
00000000
00000000
,
00000000
00000000
00000000
00000000
,
00000000
00000000
00000000
00000000
,
00011000
00000000
00000000
00000000
01001000
00000000
00000000
00000000
00010100
00000000
00000000
00001100
00000000
00000000
00001001
00000000
,
00000001
00000100
00001000
00000000
00000100
00000000
00000001
00000000
00000010
00000100
00000000
00000010
00000000
00001000
00010000
00000000
,
00011000
00000000
00000000
00000000
00010100
00000000
00000000
00000000
01001000
00000000
00000000
01010000
00000000
00000000
10010000
00000000
,
10000000
00100000
00010000
00000000
00100000
00000000
10000000
00000000
01000000
00000000
00100000
00000000
00001000
00010000
00000000
00000000
,
00011000
00000000
00000000
00000000
00010010
00000000
00000000
00000000
00001100
00000000
00000000
00000011
00000000
00000000
00001001
00000000
,
00001000
00000010
00000100
00000000
00001000
00000000
00000100
00000000
00000001
00000000
00000010
00000000
00001000
00000000
00010000
00000000
,
00011000
00000000
00000000
00000000
00101000
00000000
00000000
00000000
01010000
00000000
00000000
10100000
00000000
00000000
10010000
00000000
,
00010000
00100000
01000000
00000000
00010000
00000000
01000000
00000000
10000000
00000000
00100000
00000000
00040000
00000000
00030000
00000000
,
00022000
00000000
00000000
00000000
,
00000000
00000000
00000000
00000000
,
00000000
00000000
00033000
00000000
,
01001000
00000000
00000000
00010100
00000000
00000000
00101000
00000000
00000000
00010010
00000000
00000000
00022000
00000000
00033000
00000000
,
00001000
00000000
00100000
00000000
00001000
00000000
00100000
00000000
00010000
00000000
01000000
00000000
00100000
00000000
10000000
00000000
02000000
03000000
00000000
00000000
00100000
00000000
01000000
00000000
10000000
00000000
00100000
00000000
01000000
00000000
00010000
00000000
,
00200000
00300000
00000000
00000000
01000000
00000000
00010000
00000000
00001000
00000000
00000010
00000000
00000100
00000000
00000010
00000000
00000001
00000000
00000100
00000000
00001000
00000000
00000100
00000000
00000001
00000000
00000100
00000000
00001000
00000000
00010000
00000000
,
00200000
00300000
00000000
00000000
10000000
00000000
01000000
00000000
00100000
00000000
00000000
00000000
00101000
00000000
00000000
00000000
00001000
00000000
00000000
00000000
00011000
00000000
00000000
00000000
00010000
00000000
00000000
00000000
00010010
00000000
00000000
00000000
,
00000020
00000000
00000000
00002030
00000000
00000000
00003200
00000000
00000000
00000320
00000000
00000000
00000031
00000000
00000100
00000000
00001000
00000000
00010000
00000000
00000000
00001000
00000000
00000000
,
00011000
00000000
00000000
00000000
00010000
00001000
00010000
00001000
02000000
00000000
03000000
00000000
00001000
00010000
00001000
00010000
,
02000000
00000000
03000000
00000000
00010000
00001000
00010000
00001000
02000000
00000000
03020000
00000000
00230000
00000000
02300000
00000000
,
13000000
00000000
00000000
00100000
00000000
01000000
00010000
00000000
00000000
00110000
00000000
00000000
00101000
00000000
00000000
00011000
00000000
00000000
00010010
00000000
00000000
00011000
00000000
00000000
,
02001000
00000000
00000000
00000000
00000000
00000000
00000000
00000000
00000000
00000000
00000000
00000000
00000000
00000000
00000000
00000000
00000000
00000000
00000000
00000000
00000000
00000000
00000000
00000000
00000000
00000000
00000000
00000000
00000000
00000000
00000000
00000000
00000000
00000000
00000000
00000000
00000000
00000000
00000000
00000000
00000000
00000000
00000000
00000000
00000000
00000000
00000000
00000000
03010000
00000000
00000000
00000000
00000000
00000000
00000000
00000000
00000000
00000000
00000000
00000000
00000000
00000000
00000000
00000000
00000000
00000000
00000000
00000000
00000000
00000000
00000000
00000000
00001000
00000000
00000000
00000000
00000000
00000000
00000000
00000000
00000000
00000000
00000000
00000000
00000000
00000000
00000000
00000000
00000000
00000000
00000000
00000000
00000000
00000000
00000000
00000000
00001200
00000000
00000000
00000000
00000000
00000000
00000000
00000000
00000000
00000000
00000000
00000000
00000000
00000000
00000000
00000000
00000000
00000000
00000000
00000000
00000000
00000000
00000000
00000000
00000000
00000000
00000000
00000000
00000000
00000000
00000000
00000000
00000000
00000000
00000000
00000000
00000000
00000000
00000000
00000000
00000000
00000000
00000000
00000000
00000000
00000000
00000000
00000000
00020000
00000000
00000000
00000000
00000000
00000000
00000300
00000000
00030000
00000000
00000000
00000000
00000000
00000000
00000000
00000000
00000000
00000000
00000000
00000000
00000000
00000000
00000000
00000000
00000000
00000000
00000000
00000000
00000000
00000000
00000000
00000000
00000000
00000000
00000000
00000000
00000000
00000000
00000000
00000000
00000000
00000000
00000000
00000000
00000000
00000000
00000000
00000000
,
00010000
00000010
00010000
00000010
00001000
00000100
00000010
00000001
00001000
00000001
00000100
00000010
00001000
00000010
00000100
00000001
,
00001000
00000100
00000010
00001000
00010000
00100000
01000000
00100000
10000000
01000000
00010000
01000000
10000000
01000000
00010000
00001000
,
00000020
00000030
00000000
00000000
00000001
00000000
00000100
00000000
00000010
00000000
00000000
00000000
00010010
00000000
00000000
00000000
00010000
00000000
00000000
00000000
00011000
00000000
00000000
00000000
00001000
00000000
00000000
00000000
00101000
00000000
00000000
00000000
,
00200000
00000000
00000000
00320000
00000000
00000000
02030000
00000000
00000000
03200000
00000000
00000000
10300000
00000000
01000000
00000000
00010000
00000000
00001000
00000000
00000000
00000000
00000000
00000000
,
00011000
00000000
00000000
00000000
00001000
00010000
00001000
00010000
00000200
00000000
00000300
00000000
00010000
00001000
00010000
00001000
,
00000200
00000000
00000300
00000000
00001000
00010000
00001000
00010000
00000200
00000000
00002300
00000000
00003020
00000000
00000230
00000000
,
00000301
00000000
00000000
00000010
00000000
00000100
00001000
00000000
00000000
00001010
00000000
00000000
00010010
00000000
00000000
00011000
00000000
00000000
00101000
00000000
00000000
00011000
00000000
00000000
,
00010200
00000000
00000000
00000000
00000000
00000000
00000000
00000000
00001300
00000000
00000000
00000000
00010000
00000000
00000000
00000000
02010000
00000000
00000000
00000000
00000000
00000000
00000000
00000000
00200000
03300000
00000000
00000000
00000000
00000000
00000000
00000000
,
10100000
00000000
00000000
00000000
00000000
00000000
00000000
00000000
00000000
11000000
00000000
00000000
00000000
00000000
00000000
00000000
00000000
00000000
00110000
00000000
00000000
00000000
00000000
00000000
00000000
00000000
00000000
00000000
00010000
00000000
00000000
00000000
01000000
00000000
00000000
00000000
00001000
00000000
00000000
00000000
00010000
00000000
00000000
00000000
00000010
00000000
00000000
00000000
,
00001000
00000000
00000000
00000000
00000100
00000000
00000000
00000000
00000010
00000000
00000000
00000000
00000001
00000000
00000000
00000000
00000000
00000000
00000100
00000000
00000000
00000000
00000000
00000000
00000110
00000000
00000000
00000000
00000000
00000000
00000000
00000000
00000000
00010010
00000000
00000000
00000000
00000000
00000000
00000000
00000000
00000000
00011000
00000000
00000000
00000000
00000000
00000000
,
00001000
00000000
00100000
00010000
00000000
10000000
00010000
00000000
00100000
00010000
01000000
00002000
00003000
00010000
00001000
00000000
,
00010000
00000000
00000010
00001000
00000000
00000001
00001000
00000000
00000010
00001000
00000100
00020000
00030000
00001000
00010000
00000000
,
00001000
00100000
00010000
02000000
03000000
00000000
01000000
00100000
00010000
00002000
00003000
00000000
00011000
00000000
00000000
00000000
,
00010000
00001000
00000100
00000020
00000030
00000000
00010000
00000100
00001000
00000020
00000030
00000200
00000000
00000301
00000000
00000000
,
00000011
00000000
00000000
00001100
00000000
00010000
00000000
00011000
00000000
01000000
00000000
00010000
00100000
00000000
01000000
10000000
,
10100000
00000000
00100000
00010000
00000000
00100000
01000000
00000000
00002000
00000000
00000000
00000000
00020000
00000000
00033000
00000000
,
01002000
00013000
00102000
00013000
01002000
00103000
02100000
03010000
,
00020100
00031000
00020010
00031000
00020100
00030010
00000210
00001300
,
00021000
00130000
20100000
31000000
01200000
00301000
00021000
00030100
,
00000120
00000031
00000201
00001300
00021000
00130000
20100000
30010000
,
00010000
00100000
00010000
00100000
01000000
10000000
01000000
10000000
00010000
01000000
00010000
01000000
00001000
00010000
00001000
00010000
,
00000100
00001000
00000100
00001000
00000001
00000100
00000001
00000100
00000010
00001000
00000010
00001000
00000100
00000010
00000100
00000010
,
00000001
00001000
00000100
00000010
00000100
00001000
00000010
00010000
00001000
00100000
00010000
01000000
00100000
01000000
00010000
10000000
,
01000000
00100000
00010000
01000000
10000000
01000000
00010000
00100000
01000000
00010000
00001000
00000010
00000001
00000100
00000010
00020000
,
00002000
00000000
00000000
00000000
,
00000000
00000000
00000000
00033000
00000000
00011000
00000000
00000000
00000000
00000000
00000000
00000000
00000000
00000000
00000000
00000000
;

//---------------dance-single - CSP no gimmick ver.----------------
#NOTEDATA:;
#CHARTNAME:;
#STEPSTYPE:dance-single;
#DESCRIPTION:CSP no gimmick ver.;
#CHARTSTYLE:;
#DIFFICULTY:Edit;
#METER:16;
#RADARVALUES:0.698219,0.827546,0.439709,0.718755,0.875190,578.000000,526.000000,52.000000,85.000000,0.000000,0.000000,1.000000,0.000000,0.000000,0.698219,0.827546,0.439709,0.718755,0.875190,578.000000,526.000000,52.000000,85.000000,0.000000,0.000000,1.000000,0.000000,0.000000;
#CREDIT:;
#DISPLAYBPM:125.000000;
#NOTES:
// measure 0
0000
0000
0000
0000
,  // measure 1
0000
0000
0000
0000
,  // measure 2
2002
3003
0000
1000
0000
0001
1000
0000
0100
1000
0000
0001
0000
0010
0001
1000
,  // measure 3
0001
0000
0100
0001
0000
1000
0010
0000
2000
0000
0000
0002
3003
0000
0000
0000
,  // measure 4
0202
0303
0000
0001
0010
0000
0001
0000
0100
0001
0000
1000
0001
0010
0001
0100
,  // measure 5
0001
0000
1000
0001
0000
1000
0100
0000
2000
0000
0000
0020
3030
0000
0000
0000
,  // measure 6
2200
3300
0000
1000
0010
0000
1000
0000
0100
1000
0000
0001
1000
0010
1000
0100
,  // measure 7
1000
0000
0001
1000
0000
0001
0100
0000
0002
0000
0000
0020
0033
0000
0000
0000
,  // measure 8
0110
0000
0200
0000
1300
0000
0020
0000
0130
0000
0002
0000
1003
0100
1000
0100
,  // measure 9
0010
0000
0001
0100
0000
0010
1000
0000
0001
0010
0001
0010
0100
1000
0100
1000
,  // measure 10
0020
0000
0000
0130
0001
0000
2000
0000
3200
0000
0320
0000
0031
0100
0001
0100
,  // measure 11
0010
0000
1000
0001
0000
0010
0100
0000
1100
0000
0000
1010
0000
0000
0011
0000
,  // measure 12
2002
0000
0000
0000
,  // measure 13
0000
0000
3003
0000
,  // measure 14
1001
0000
0000
0000
0110
0000
0000
0000
1010
0000
0000
0011
0000
0000
1010
0000
,  // measure 15
1000
0100
0001
0000
0100
0000
1000
0000
0010
0100
0000
0001
0000
0100
0010
0000
,  // measure 16
0110
0000
0000
0000
1001
0000
0000
0000
0011
0000
0000
1010
0000
0000
0011
0000
,  // measure 17
0001
0100
1000
0000
0100
0000
0001
0000
0010
0000
0100
0000
0010
0010
0000
0000
,  // measure 18
0011
0000
0000
0000
1100
0000
0000
0000
1010
0000
0000
0011
0000
0000
1100
0000
,  // measure 19
1000
0010
0100
0000
1000
0000
0100
0000
0001
0000
0010
0000
0100
0000
0001
0000
,  // measure 20
0100
0000
0000
0000
1100
0000
0000
0000
0011
0000
0000
1010
0000
0000
0101
0000
,  // measure 21
0001
0010
0100
0000
0001
0000
0100
0000
1000
0000
0010
0000
4000
0000
3000
0000
,  // measure 22
2002
0000
0000
0000
,  // measure 23
0000
0000
0000
0000
,  // measure 24
0000
0000
3003
0000
,  // measure 25
1010
0000
0000
0011
0000
0000
1100
0000
0000
0101
0000
0000
2002
0000
3003
0000
,  // measure 26
0001
0000
0100
0000
0001
0000
0100
0000
0010
0000
1000
0000
0100
0000
0010
0000
0200
0300
0000
0000
1000
0000
0100
0000
0010
0000
0001
0000
0100
0000
0001
0000
,  // measure 27
2000
3000
0000
0000
0010
0000
1000
0000
0010
0000
0100
0000
0001
0000
1000
0000
0002
0003
0020
0030
0200
0300
2000
3000
0200
0300
0020
0030
0002
0003
2000
3000
,  // measure 28
0010
0000
0000
0100
0000
0000
0001
0000
0000
0100
0000
0000
0010
0000
0000
0000
1000
0000
0010
0000
0000
0000
0100
0000
0010
0000
0000
0000
0100
0000
0001
0000
0000
0000
0010
0000
0001
0000
0000
0000
1000
0000
0001
0000
0000
0000
1000
0000
,  // measure 29
0200
0000
0000
2300
0000
0000
3020
0000
0000
0230
0000
0000
0301
0000
0010
0000
1000
0000
0010
0000
0000
0001
0000
0000
,  // measure 30
0101
0000
0000
0000
0100
0010
1000
0001
0020
0000
0030
0000
0100
0010
0001
1000
,  // measure 31
0020
0000
0030
0000
0100
0010
1000
0001
0020
0000
0230
0000
2300
0000
3020
0000
,  // measure 32
0130
0000
0000
0000
0000
0000
0000
0000
0000
0000
0000
0000
0000
0000
0000
0000
0000
0000
0000
0000
0000
0000
0000
0000
0001
0000
0000
0000
0000
0000
0000
0000
0000
0000
0000
0000
0000
0000
0000
0000
1000
0000
0000
0000
0000
0000
0000
0000
0010
0000
0000
0000
0000
0000
0000
0000
0000
0000
0000
0000
0000
0000
0000
0000
0000
0000
0010
0000
0000
0000
0000
0000
0100
0000
0000
0000
0000
0000
0000
0000
0000
0000
0000
0000
0000
0000
0000
0000
0000
0000
0100
0000
0000
0000
0000
0000
0001
0000
0000
0000
0000
0000
0000
0000
0000
0000
0000
0000
0000
0000
0000
0000
0000
0000
0001
0000
0000
0000
0000
0000
0010
0000
0000
0000
0000
0000
0000
0000
0000
0000
0000
0000
0000
0000
0000
0000
0000
0000
0010
0000
0000
0000
0000
0000
0100
0000
0000
0000
0000
0000
0000
0000
0000
0000
0000
0000
0000
0000
0000
0000
0000
0000
0100
0000
0000
0000
0000
0000
1000
0000
0000
0000
0000
0000
0000
0000
0000
0000
0000
0000
0000
0000
0000
0000
0000
0000
0000
0000
0000
0000
0000
0000
,  // measure 33
1020
0000
0000
0000
0000
0000
0000
0000
0130
0000
0000
0000
0001
0000
0000
0000
0021
0000
0000
0000
0000
0000
0000
0000
0200
0330
0000
0000
0000
0000
0000
0000
,  // measure 34
1000
0100
1000
0100
0010
0001
0100
0010
0100
0001
1000
0010
0100
0001
0010
0001
,  // measure 35
1000
0000
0010
0000
0100
0000
0001
0000
0100
0000
0010
0000
1000
0000
0001
0000
2000
3000
0020
0030
0200
0300
0002
0003
0200
0300
0020
0030
2000
3000
0002
0003
,  // measure 36
0010
0000
0000
0100
0000
0000
1000
0000
0000
0100
0000
0000
0010
0000
0000
0000
0001
0000
0010
0000
0000
0000
0100
0000
0010
0000
0000
0000
0100
0000
1000
0000
0000
0000
0010
0000
1000
0000
0000
0000
0001
0000
1000
0000
0000
0000
0001
0000
,  // measure 37
0200
0000
0000
0302
0000
0000
0023
0000
0000
0230
0000
0000
1300
0000
0010
0000
0001
0000
0010
0000
0000
0000
0000
0000
,  // measure 38
1010
0000
0000
0000
1000
0001
0010
0100
2000
0000
3000
0000
0001
1000
0010
0100
,  // measure 39
0002
0000
0003
0000
1000
0001
0010
0100
2000
0000
3020
0000
0230
0000
0302
0000
,  // measure 40
1003
0000
0000
0000
0100
0000
0000
0010
0100
0000
0000
0100
1000
0000
0000
1000
0001
0000
0000
0001
0100
0000
0000
0100
0010
0000
0000
0010
1000
0000
0000
0000
,  // measure 41
1200
0000
0000
0000
0301
0000
0000
0000
0100
0000
0000
0000
1000
0000
0000
0000
1020
0000
0000
0000
0000
0000
0000
0000
0200
0330
0000
0000
0000
0000
0000
0000
,  // measure 42
0101
0000
0000
0000
0000
0000
0000
0000
0000
1010
0000
0000
0000
0000
0000
0000
0000
0000
1001
0000
0000
0000
0000
0000
0000
0000
0000
0000
0001
0000
0000
0000
0001
0000
0000
0000
0001
0000
0000
0000
1000
0000
0000
0000
1000
0000
0000
0000
,  // measure 43
1000
0000
0000
0000
0010
0000
0000
0000
0010
0000
0000
0000
0010
0000
0000
0000
0000
0000
0100
0000
0000
0000
0000
0000
0101
0000
0000
0000
0000
0000
0000
0000
0000
0011
0000
0000
0000
0000
0000
0000
0000
0000
1100
0000
0000
0000
0000
0000
,  // measure 44
1000
0000
0010
0100
0000
0010
0001
0000
0010
0100
0010
2000
3000
0100
1000
0000
,  // measure 45
0001
0000
0010
0100
0000
0010
1000
0000
0010
0100
0010
0002
0003
0100
0001
0000
,  // measure 46
1000
0100
0010
0002
0003
0000
1000
0100
0010
0002
0003
0000
1001
0000
0000
0000
,  // measure 47
0001
0100
0010
2000
3000
0000
0001
0100
0010
2000
3000
0200
0000
0310
0000
0000
,  // measure 48
1100
0000
0000
0000
0000
0000
0011
0000
0000
0000
0101
0000
0000
0000
1100
0000
0000
0000
1010
0000
0000
0000
0010
0000
0100
0000
0000
0000
0001
0000
1000
0001
,  // measure 49
1000
0000
0010
0100
0000
0100
0010
0000
2000
0000
0000
0000
3002
0000
0000
0000
,  // measure 50
1003
0000
1000
0010
0100
0000
0010
1000
0100
0000
1000
0001
0010
0000
0001
1000
,  // measure 51
0100
0000
0010
0001
0100
0000
0010
0100
0001
0000
0010
0001
1000
0000
0100
1000
,  // measure 52
0001
0000
0010
0100
1000
0000
0001
0010
0100
0000
1000
0010
0001
0000
0010
1000
,  // measure 53
0100
0000
0001
0100
1000
0000
0001
0010
1000
0000
0010
0001
0100
0000
1000
0100
,  // measure 54
0001
0010
0001
0010
0100
1000
0100
1000
0010
1000
0010
1000
0001
0100
0001
0100
,  // measure 55
0010
1000
0100
1000
0001
0010
0001
0100
0010
1000
0010
0100
0001
0100
0010
1000
,  // measure 56
0100
0010
0001
1000
0001
0010
0100
1000
0001
1000
0100
0010
0001
0100
0010
0100
,  // measure 57
0002
0000
0023
0000
2030
0000
3002
0000
0203
0000
0000
0000
1300
0010
0100
0002
,  // measure 58
2000
0000
0000
0000
,  // measure 59
0000
0000
0000
3003
0000
1001
0000
0000
0000
0000
0000
0000
0000
0000
0000
0000
;

//---------------dance-double - CDP no gimmick ver.----------------
#NOTEDATA:;
#CHARTNAME:;
#STEPSTYPE:dance-double;
#DESCRIPTION:CDP no gimmick ver.;
#CHARTSTYLE:;
#DIFFICULTY:Edit;
#METER:1;
#RADARVALUES:0.690971,0.827546,0.684932,0.693387,0.727211,572.000000,491.000000,81.000000,82.000000,0.000000,0.000000,1.000000,0.000000,0.000000,0.690971,0.827546,0.684932,0.693387,0.727211,572.000000,491.000000,81.000000,82.000000,0.000000,0.000000,1.000000,0.000000,0.000000;
#CREDIT:;
#DISPLAYBPM:125.000000;
#NOTES:
00000000
00000000
00000000
00000000
,
00000000
00000000
00000000
00000000
,
00022000
00033000
00000000
00001000
00000000
01000000
00001000
00000000
00010000
00001000
00000000
00010000
00000000
00000100
00010000
00001000
,
00010000
00000000
00000010
00010000
00000000
00001000
00100000
00000000
00002000
00000000
00000000
00020000
00033000
00000000
00000000
00000000
,
00020200
00030300
00000000
00000100
00001000
00000000
00000001
00000000
00001000
00000100
00000000
00001000
00000010
00010000
00001000
01000000
,
00010000
00000000
00100000
00010000
00000000
10000000
01000000
00000000
00200000
00000000
00000000
00002000
00303000
00000000
00000000
00000000
,
02002000
03003000
00000000
01000000
00010000
00000000
10000000
00000000
00010000
01000000
00000000
00010000
00100000
00001000
00010000
00000100
,
00001000
00000000
00000010
00001000
00000000
00000001
00000100
00000000
00000020
00000000
00000000
00020000
00030030
00000000
00000000
00000000
,
00011000
00000000
00002000
00000000
01003000
00000000
00002000
00000000
00013000
00000000
00020000
00000000
00030010
00001000
00000010
00001000
,
00000100
00000000
00000010
00000001
00000000
00001000
00000100
00000000
00010000
00001000
00010000
00001000
00100000
01000000
00100000
01000000
,
20000000
00000000
00000000
30010000
00100000
00000000
00020000
00000000
02030000
00000000
03002000
00000000
00013000
00000010
00010000
00000010
,
00000100
00000000
00000001
00001000
00000000
00000100
00000010
00000000
00000001
00000000
00000000
00000100
00000000
00000000
00001000
00000000
,
00022000
00000000
00000000
00000000
,
00000000
00000000
00033000
00000000
,
00011000
00000000
00000000
00000000
01001000
00000000
00000000
00000000
00010100
00000000
00000000
00001100
00000000
00000000
00001001
00000000
,
00000001
00000100
00001000
00000000
00000100
00000000
00000001
00000000
00000010
00000100
00000000
00000010
00000000
00001000
00010000
00000000
,
00011000
00000000
00000000
00000000
00010100
00000000
00000000
00000000
01001000
00000000
00000000
01010000
00000000
00000000
10010000
00000000
,
10000000
00100000
00010000
00000000
00100000
00000000
10000000
00000000
01000000
00000000
00100000
00000000
00001000
00010000
00000000
00000000
,
00011000
00000000
00000000
00000000
00010010
00000000
00000000
00000000
00001100
00000000
00000000
00000011
00000000
00000000
00001001
00000000
,
00001000
00000010
00000100
00000000
00001000
00000000
00000100
00000000
00000001
00000000
00000010
00000000
00001000
00000000
00010000
00000000
,
00011000
00000000
00000000
00000000
00101000
00000000
00000000
00000000
01010000
00000000
00000000
10100000
00000000
00000000
10010000
00000000
,
00010000
00100000
01000000
00000000
00010000
00000000
01000000
00000000
10000000
00000000
00100000
00000000
00040000
00000000
00030000
00000000
,
00022000
00000000
00000000
00000000
,
00000000
00000000
00000000
00000000
,
00000000
00000000
00033000
00000000
,
01001000
00000000
00000000
00010100
00000000
00000000
00101000
00000000
00000000
00010010
00000000
00000000
00022000
00000000
00033000
00000000
,
00001000
00000000
00100000
00000000
00001000
00000000
00100000
00000000
00010000
00000000
01000000
00000000
00100000
00000000
10000000
00000000
02000000
03000000
00000000
00000000
00100000
00000000
01000000
00000000
10000000
00000000
00100000
00000000
01000000
00000000
00010000
00000000
,
00200000
00300000
00000000
00000000
01000000
00000000
00010000
00000000
00001000
00000000
00000010
00000000
00000100
00000000
00000010
00000000
00000001
00000000
00000100
00000000
00001000
00000000
00000100
00000000
00000001
00000000
00000100
00000000
00001000
00000000
00010000
00000000
,
00200000
00300000
00000000
00000000
10000000
00000000
01000000
00000000
00100000
00000000
00000000
00000000
00101000
00000000
00000000
00000000
00001000
00000000
00000000
00000000
00011000
00000000
00000000
00000000
00010000
00000000
00000000
00000000
00010010
00000000
00000000
00000000
,
00000020
00000000
00000000
00002030
00000000
00000000
00003200
00000000
00000000
00000320
00000000
00000000
00000031
00000000
00000100
00000000
00001000
00000000
00010000
00000000
00000000
00001000
00000000
00000000
,
00011000
00000000
00000000
00000000
00010000
00001000
00010000
00001000
02000000
00000000
03000000
00000000
00001000
00010000
00001000
00010000
,
02000000
00000000
03000000
00000000
00010000
00001000
00010000
00001000
02000000
00000000
03020000
00000000
00230000
00000000
02300000
00000000
,
13000000
00000000
00000000
00100000
00000000
01000000
00010000
00000000
00000000
00110000
00000000
00000000
00101000
00000000
00000000
00011000
00000000
00000000
00010010
00000000
00000000
00011000
00000000
00000000
,
02001000
00000000
00000000
00000000
00000000
00000000
00000000
00000000
00000000
00000000
00000000
00000000
00000000
00000000
00000000
00000000
00000000
00000000
00000000
00000000
00000000
00000000
00000000
00000000
00000000
00000000
00000000
00000000
00000000
00000000
00000000
00000000
00000000
00000000
00000000
00000000
00000000
00000000
00000000
00000000
00000000
00000000
00000000
00000000
00000000
00000000
00000000
00000000
03010000
00000000
00000000
00000000
00000000
00000000
00000000
00000000
00000000
00000000
00000000
00000000
00000000
00000000
00000000
00000000
00000000
00000000
00000000
00000000
00000000
00000000
00000000
00000000
00001000
00000000
00000000
00000000
00000000
00000000
00000000
00000000
00000000
00000000
00000000
00000000
00000000
00000000
00000000
00000000
00000000
00000000
00000000
00000000
00000000
00000000
00000000
00000000
00001200
00000000
00000000
00000000
00000000
00000000
00000000
00000000
00000000
00000000
00000000
00000000
00000000
00000000
00000000
00000000
00000000
00000000
00000000
00000000
00000000
00000000
00000000
00000000
00000000
00000000
00000000
00000000
00000000
00000000
00000000
00000000
00000000
00000000
00000000
00000000
00000000
00000000
00000000
00000000
00000000
00000000
00000000
00000000
00000000
00000000
00000000
00000000
00020000
00000000
00000000
00000000
00000000
00000000
00000300
00000000
00030000
00000000
00000000
00000000
00000000
00000000
00000000
00000000
00000000
00000000
00000000
00000000
00000000
00000000
00000000
00000000
00000000
00000000
00000000
00000000
00000000
00000000
00000000
00000000
00000000
00000000
00000000
00000000
00000000
00000000
00000000
00000000
00000000
00000000
00000000
00000000
00000000
00000000
00000000
00000000
,
00010000
00000010
00010000
00000010
00001000
00000100
00000010
00000001
00001000
00000001
00000100
00000010
00001000
00000010
00000100
00000001
,
00001000
00000100
00000010
00001000
00010000
00100000
01000000
00100000
10000000
01000000
00010000
01000000
10000000
01000000
00010000
00001000
,
00000020
00000030
00000000
00000000
00000001
00000000
00000100
00000000
00000010
00000000
00000000
00000000
00010010
00000000
00000000
00000000
00010000
00000000
00000000
00000000
00011000
00000000
00000000
00000000
00001000
00000000
00000000
00000000
00101000
00000000
00000000
00000000
,
00200000
00000000
00000000
00320000
00000000
00000000
02030000
00000000
00000000
03200000
00000000
00000000
10300000
00000000
01000000
00000000
00010000
00000000
00001000
00000000
00000000
00000000
00000000
00000000
,
00011000
00000000
00000000
00000000
00001000
00010000
00001000
00010000
00000200
00000000
00000300
00000000
00010000
00001000
00010000
00001000
,
00000200
00000000
00000300
00000000
00001000
00010000
00001000
00010000
00000200
00000000
00002300
00000000
00003020
00000000
00000230
00000000
,
00000301
00000000
00000000
00000010
00000000
00000100
00001000
00000000
00000000
00001010
00000000
00000000
00010010
00000000
00000000
00011000
00000000
00000000
00101000
00000000
00000000
00011000
00000000
00000000
,
00010200
00000000
00000000
00000000
00000000
00000000
00000000
00000000
00001300
00000000
00000000
00000000
00010000
00000000
00000000
00000000
02010000
00000000
00000000
00000000
00000000
00000000
00000000
00000000
00200000
03300000
00000000
00000000
00000000
00000000
00000000
00000000
,
10100000
00000000
00000000
00000000
00000000
00000000
00000000
00000000
00000000
11000000
00000000
00000000
00000000
00000000
00000000
00000000
00000000
00000000
00110000
00000000
00000000
00000000
00000000
00000000
00000000
00000000
00000000
00000000
00010000
00000000
00000000
00000000
01000000
00000000
00000000
00000000
00001000
00000000
00000000
00000000
00010000
00000000
00000000
00000000
00000010
00000000
00000000
00000000
,
00001000
00000000
00000000
00000000
00000100
00000000
00000000
00000000
00000010
00000000
00000000
00000000
00000001
00000000
00000000
00000000
00000000
00000000
00000100
00000000
00000000
00000000
00000000
00000000
00000110
00000000
00000000
00000000
00000000
00000000
00000000
00000000
00000000
00010010
00000000
00000000
00000000
00000000
00000000
00000000
00000000
00000000
00011000
00000000
00000000
00000000
00000000
00000000
,
00001000
00000000
00100000
00010000
00000000
10000000
00010000
00000000
00100000
00010000
01000000
00002000
00003000
00010000
00001000
00000000
,
00010000
00000000
00000010
00001000
00000000
00000001
00001000
00000000
00000010
00001000
00000100
00020000
00030000
00001000
00010000
00000000
,
00001000
00100000
00010000
02000000
03000000
00000000
01000000
00100000
00010000
00002000
00003000
00000000
00011000
00000000
00000000
00000000
,
00010000
00001000
00000100
00000020
00000030
00000000
00010000
00000100
00001000
00000020
00000030
00000200
00000000
00000301
00000000
00000000
,
00000011
00000000
00000000
00001100
00000000
00010000
00000000
00011000
00000000
01000000
00000000
00010000
00100000
00000000
01000000
10000000
,
10100000
00000000
00100000
00010000
00000000
00100000
01000000
00000000
00002000
00000000
00000000
00000000
00020000
00000000
00033000
00000000
,
01002000
00013000
00102000
00013000
01002000
00103000
02100000
03010000
,
00020100
00031000
00020010
00031000
00020100
00030010
00000210
00001300
,
00021000
00130000
20100000
31000000
01200000
00301000
00021000
00030100
,
00000120
00000031
00000201
00001300
00021000
00130000
20100000
30010000
,
00010000
00100000
00010000
00100000
01000000
10000000
01000000
10000000
00010000
01000000
00010000
01000000
00001000
00010000
00001000
00010000
,
00000100
00001000
00000100
00001000
00000001
00000100
00000001
00000100
00000010
00001000
00000010
00001000
00000100
00000010
00000100
00000010
,
00000001
00001000
00000100
00000010
00000100
00001000
00000010
00010000
00001000
00100000
00010000
01000000
00100000
01000000
00010000
10000000
,
01000000
00100000
00010000
01000000
10000000
01000000
00010000
00100000
01000000
00010000
00001000
00000010
00000001
00000100
00000010
00020000
,
00002000
00000000
00000000
00000000
,
00000000
00000000
00000000
00033000
00000000
00011000
00000000
00000000
00000000
00000000
00000000
00000000
00000000
00000000
00000000
00000000
;
