#VERSION:0.83;
#TITLE:Joyeuse;
#SUBTITLE:;
#ARTIST:ke-ji;
#TITLETRANSLIT:;
#SUBTITLETRANSLIT:;
#ARTISTTRANSLIT:;
#GENRE:;
#CREDIT:valgrind;
#MUSIC:joyeuse.ogg;
#BANNER:joyeuse-bn.png;
#BACKGROUND:joyeuse-bg.png;
#CDTITLE:cdtitle.png;
#SAMPLESTART:79.553;
#SAMPLELENGTH:9.635;
#SELECTABLE:YES;
#OFFSET:-0.002;
#BPMS:0.000=260.000
,24.000=274.000
;
#STOPS:;
#TIMESIGNATURES:0.000=4=4,
24.000=3=4,
147.000=4=4,
155.000=3=4,
209.000=4=4,
353.000=3=4,
398.000=4=4
;
#BGCHANGES:;
#FGCHANGES:;

//--------------- dance-single - ----------------
#NOTEDATA:;
#STEPSTYPE:dance-single;
#DESCRIPTION:No Tech;
#DIFFICULTY:Beginner;
#CREDIT:valgrind | 4+ |;
#CHARTNAME:baby gloop;
#METER:5;
#RADARVALUES:0,0,0,0,0;
#NOTES:
0000
0000
0000
0000
,
0000
0000
0000
0000
,
0000
0000
0000
0000
,
0000
0000
0000
0000
,
0000
0000
0000
0000
,
0000
0000
0000
0000
,
0001
0000
0000
0000
,
0000
0000
1000
0000
,
0000
0000
0000
0000
,
0010
0000
0000
0000
,
0000
0000
0100
0000
,
0000
0010
0000
0000
,
1000
0000
0000
0001
,
0000
0000
1000
1000
,
1000
0001
0000
0000
,
0000
0000
0000
0000
,
0000
0000
2000
0000
,
0000
0000
0000
0000
,
0000
0000
0000
3000
,
0000
0002
0000
0000
0000
0000
0000
0000
,
0000
0000
0000
0000
,
0000
0000
0000
0003
0000
0000
0020
0000
,
0000
0000
0000
0000
,
0000
0000
0000
0000
,
0030
0000
0000
0200
0000
0000
0000
0000
,
0000
0000
0000
0000
,
0000
0000
0000
0000
0000
0300
0000
0000
,
1000
0000
0000
0001
0000
0000
1000
0000
,
0010
0000
0000
0010
0000
0000
0100
0000
,
0000
0001
1000
0000
,
0001
0000
0010
0000
0000
0010
0000
0000
,
0100
0000
1000
0001
,
0000
0000
1000
0000
0100
0000
0000
0100
,
0000
0010
0000
0001
,
1000
0000
0001
0100
,
0000
0100
0000
0000
0010
0000
0000
0000
,
1000
0001
0000
0000
,
0000
0000
0000
0000
,
0000
0000
0000
1000
,
0000
0000
0010
0000
,
0000
1000
0000
0000
,
0100
0000
0000
0010
,
0000
0000
0001
0000
,
0000
0100
0000
0000
,
0001
0000
0000
2000
,
0000
0000
3100
0000
,
0000
0020
0000
0000
,
0031
0000
0000
2000
,
0000
0000
3010
0000
,
0000
0100
0001
0100
,
0002
0000
0000
1003
,
0100
1000
0200
0000
,
0000
0310
0000
0001
,
0000
1000
0000
0010
,
0000
0200
0000
0300
,
0000
0002
0000
0023
,
0000
0130
0000
1000
,
0000
0001
0000
0100
,
0000
0020
0000
0030
,
0000
2000
0000
3002
,
0000
1003
0000
0100
,
0000
1000
0000
0000
,
0000
0001
0000
0100
,
0000
0001
0000
0000
,
0000
1000
0000
0010
,
0000
1000
0000
0100
,
0000
0020
0000
0000
,
0000
0000
0000
0030
,
0000
0002
0000
0000
,
0000
2003
0000
0000
,
0000
3010
0000
0100
,
0000
0010
0000
0000
,
0000
1000
0000
0100
,
0000
1000
0000
0000
,
0000
0001
0000
0010
,
0000
0001
0000
0100
,
0000
0010
0000
1000
,
0000
0001
0000
1000
,
0000
0100
0000
0100
,
0000
0100
0000
0100
,
0000
0010
0000
0001
,
0000
0100
0000
0010
,
0000
1000
0000
0001
,
0000
0100
0000
0001
,
0000
0010
0000
0010
,
0000
0010
0000
0010
,
0000
0100
0000
0100
,
0000
0200
0000
0000
,
0000
0000
1300
0000
0000
0001
0000
0000
,
0100
0000
0000
0010
0000
0000
1000
0000
,
0000
0001
0000
0000
1000
0000
0100
0000
,
0000
0100
0000
0000
0010
0000
0000
0000
,
0001
1000
0000
0001
,
0100
0000
0000
0100
0000
0000
0010
0000
,
0000
1000
0001
0000
,
1000
0000
0010
0000
0000
0010
0000
0000
,
0100
0000
0001
1000
,
0000
0000
0001
0000
0010
0000
0000
0010
,
0000
0100
0000
1000
,
0001
0000
0000
0000
,
0000
0000
0000
0000
,
0000
0000
0000
0000
,
0000
0000
0000
0000
,
0000
0000
0000
0000
,
0000
0000
0000
0000
,
0000
0000
2002
0000
,
0000
0000
0000
0000
,
0000
0000
0000
0000
,
0000
0000
0000
3003
;

//--------------- dance-single - ----------------
#NOTEDATA:;
#STEPSTYPE:dance-single;
#DESCRIPTION:No Tech;
#DIFFICULTY:Easy;
#CREDIT:valgrind | 9- |;
#CHARTNAME:gloop;
#METER:9;
#RADARVALUES:0,0,0,0,0;
#NOTES:
0000
0000
0000
0000
,
0000
0000
0000
0000
,
0000
0000
0000
0000
,
0000
0000
0000
0000
,
0001
0000
0000
0000
,
1000
0000
0000
0000
,
0200
0000
0000
0300
,
0010
0001
1000
0000
,
0001
0100
0000
0010
,
1000
0000
0001
0010
,
0000
0100
1000
0000
,
0001
0100
0010
0100
,
0001
0000
1000
0100
,
0010
0001
0100
0010
,
1000
1001
0000
0000
,
0000
0000
0000
0000
,
0000
0000
0002
0000
,
0000
0003
0200
0000
0000
0000
0000
0300
,
0002
0000
0000
0010
,
0000
2003
0000
0000
0000
0000
3000
0200
,
0000
0000
0000
0000
0300
2000
0000
0000
,
0000
0000
0000
0100
0000
0000
3002
0000
,
0000
0000
0000
0003
0020
0000
0000
0000
,
0000
0030
0002
0000
0000
0000
0000
0000
,
0100
0000
0000
2003
0000
0000
0000
0000
,
3000
0020
0000
0000
0000
0000
0030
2000
,
0000
0000
0000
0000
0000
3100
0000
0000
,
0010
0000
0000
0010
0000
0000
0001
0000
,
0200
0000
0000
0302
0000
0000
0013
0000
,
0100
0000
1000
0000
0020
0000
0000
0030
,
1000
0000
0200
0000
0000
2300
0000
0000
,
3001
1000
0010
0200
,
0000
0300
0001
0000
0020
0000
0000
0032
,
0000
0103
0010
1000
,
0200
0000
0000
0300
1000
0000
0020
0000
,
0000
2030
0000
0000
3100
0000
0010
0000
,
0001
0200
0000
0310
,
0000
0000
0000
0000
,
0000
0000
0000
1000
,
0000
0100
0010
0000
,
0001
1000
0000
0010
,
1000
0000
0100
0010
,
0000
0001
1000
0000
,
0100
1000
0000
0010
,
0100
0001
1000
0001
,
0000
0010
0100
0000
,
1000
0001
0000
0100
,
0001
0000
0010
0100
,
0000
1000
0001
0000
,
0010
0001
0001
0001
,
0200
0000
0310
1000
,
1000
1000
0200
0000
,
0300
0010
0001
0010
,
0000
0100
1000
0001
,
0000
1000
0010
1000
,
0000
0200
0000
0320
,
0000
0130
1000
0100
,
0000
0010
0001
1000
,
0000
0001
0100
0001
,
0000
0020
0000
0230
,
0000
0000
1300
0000
0000
0001
0000
0000
,
0100
0002
0000
0000
,
0103
0000
0001
0000
0000
0010
0000
0000
,
0100
2000
0000
3002
,
0000
0000
0103
0000
0000
0010
0000
0000
,
1000
0000
0001
0000
0000
1000
0000
0000
,
0100
0020
0000
0000
,
0000
0031
0000
1000
,
0000
0020
0000
0000
,
0000
0230
0000
0000
,
0000
0310
1000
0010
,
0000
0100
0001
1000
,
0000
0200
0000
0310
,
0000
0100
1000
0001
,
0000
0100
0010
0100
,
0000
0001
0010
0100
,
0000
1000
0000
0001
,
0000
0100
0000
0010
,
0000
1000
0000
1000
,
0000
1000
0000
1000
,
0000
0001
0100
0001
,
1000
0100
0010
0001
,
0000
0100
0001
0100
,
0000
0001
0010
0100
,
0000
1000
0010
1000
,
0010
0100
0001
0100
,
0001
0010
0100
0010
,
0100
0020
0000
0000
,
0000
0000
0031
0000
0000
1000
0000
0000
,
0010
0000
0000
1000
0000
0000
0100
0000
,
0000
0100
0000
0000
1000
0000
0020
0000
,
0000
2030
0000
0000
3100
0000
0010
0000
,
0001
0000
0200
0000
0000
0300
0001
0000
,
0020
0000
0000
0032
0000
0000
1003
0000
,
0001
0000
0100
0000
0020
0000
0000
0030
,
1000
0000
0200
0000
0000
2300
0000
0000
,
3010
0100
0001
0020
,
0000
0030
0001
0000
0200
0000
0000
0302
,
0000
0013
0100
1000
,
0020
0000
0130
0000
,
0000
0000
0000
0000
,
0000
0000
0000
0000
,
0000
0000
0000
0000
,
0000
0000
0000
0000
,
0000
0000
0000
0000
,
0000
0000
2002
0000
,
0000
0000
0000
0000
,
0000
0000
0000
0000
,
0000
0000
0000
3003
;

//--------------- dance-single - ----------------
#NOTEDATA:;
#STEPSTYPE:dance-single;
#DESCRIPTION:No Tech;
#DIFFICULTY:Medium;
#METER:13;
#RADARVALUES:0,0,0,0,0;
#CREDIT:valgrind | 13 |;
#CHARTNAME:everything below this is gloop;
#NOTES:
0000
0000
0000
0000
,
0000
0000
0000
0000
,
0000
0000
0000
0000
,
0000
0000
0000
0000
,
1100
0000
0000
0000
,
0101
0000
0000
0000
,
1001
0000
0001
0010
0001
0000
0100
0000
,
0010
1000
1100
0100
,
0010
0011
0001
1000
,
1010
0010
0100
0101
,
0001
0010
0110
0100
,
0010
0001
0100
0010
,
1000
0100
0010
0001
,
0010
0100
1100
0101
,
0110
1001
0000
0000
,
0000
0000
0000
0000
,
0000
0000
0000
0000
1000
0000
0000
0002
,
0000
0000
0103
0000
0000
0002
0000
0000
,
0103
0000
0000
0000
0000
0000
0020
0000
0000
0000
0000
0000
1030
0000
0000
1000
,
0000
0001
0000
0000
2000
0000
0000
3100
,
0000
0000
2000
0000
0000
3100
0000
0000
,
0020
0000
0000
0000
0000
0000
0031
0000
0000
0001
0000
0000
1000
0000
0000
0000
,
0000
0002
0000
0000
0013
0000
0000
0002
,
0000
0000
0013
0000
0000
0200
0000
0000
,
1300
0000
0000
1000
0000
0000
0001
0000
0000
0000
0000
0000
2000
0000
0000
0000
,
0000
3010
0000
0000
2000
0000
0000
3010
,
0000
0000
0200
0000
0000
0301
0000
1000
,
0100
0010
0100
0010
0100
0010
0001
0000
,
0200
0000
0000
0302
0000
0000
0013
0000
,
0100
0000
1000
0001
1000
0020
0000
0030
,
1000
0000
0200
0000
0000
2300
0000
0000
,
3010
0000
0100
0000
0001
1000
0010
0200
,
0000
0300
0001
0000
0020
0000
0000
0032
,
0000
0000
0103
0000
0010
0000
1000
0001
,
1000
0200
0000
0300
1000
0000
0020
0000
,
0000
2030
0000
0000
3100
0000
0010
0000
,
0001
1000
0100
0020
0000
0030
0002
0000
,
0203
0320
2030
3200
,
0320
0032
1003
1010
,
0010
0100
0001
0000
,
0010
0110
0100
1000
,
0001
0000
0010
0011
,
0001
0100
0010
1000
,
0100
1100
1000
0001
,
1001
1000
0010
0200
,
0302
0000
0023
0000
0230
0000
1300
0100
,
1000
0002
0203
0320
,
2030
0000
3200
0000
0310
0001
2000
0000
,
0000
3020
2030
3200
,
0320
0000
0031
0010
0001
0010
0001
0010
,
0200
0000
0000
0000
0000
0000
1300
0010
,
1000
0010
1000
0010
0200
0000
0001
0000
,
0301
1000
0100
1000
,
0002
0000
0203
0000
0310
2000
0000
0000
,
3001
1000
0100
0010
,
0001
0200
0000
0320
,
0000
0000
2030
0000
0000
3002
0000
0000
,
2003
0000
3200
0000
0310
0002
0000
0000
,
1003
0020
0130
0010
,
1000
0000
0000
0001
0000
0010
0000
0100
0000
2000
0000
0000
,
0000
0000
3002
0000
0000
0203
0000
0000
,
0302
2003
0000
3100
,
0020
0000
0032
0000
0000
0203
0000
0000
,
0320
2030
0000
3200
,
0000
0000
2300
0000
0000
3002
0000
0000
,
0203
0000
0320
0000
0130
0002
0000
0000
,
2003
3200
0310
0001
,
1000
0000
0010
0000
0100
0001
0100
0000
,
0010
2000
0000
0000
,
3100
0020
0130
1000
,
0010
1000
0020
0000
0000
0230
0000
0000
,
0302
0000
2003
0000
0000
3200
0000
0000
,
0310
0100
2000
0000
0000
0000
0000
0000
,
0000
3002
0000
0203
,
0000
0000
0310
0000
0000
1000
0000
0000
,
0001
0000
0010
0000
0000
0100
0000
0000
,
1000
0001
0100
0010
,
1000
0000
0100
0010
0100
0000
1000
0000
,
0001
0200
0310
0200
,
0301
0200
0310
0200
,
0301
0000
1000
0000
0100
1000
0100
0000
,
0010
0000
0001
0000
1000
0010
2000
0000
,
0000
3001
1000
0100
,
0010
0001
0100
0010
,
1000
0000
0001
0010
0001
0000
1000
0100
,
1000
0000
0001
0100
0001
0000
1000
0010
,
1000
0000
0100
0010
0100
0000
1000
0001
,
1000
0020
0000
0000
,
0000
0000
1030
0000
0000
1100
0000
0000
,
0011
0000
0000
1010
0000
0000
0010
0100
,
0010
0100
0010
0100
0001
0000
0020
0000
,
0000
0032
0000
0000
0103
0000
0010
0000
,
1000
0001
1000
0200
0000
0300
1000
0000
,
0020
0000
0000
2030
0000
0000
3100
0000
,
0010
0000
0001
1000
0100
0020
0000
0030
,
0001
0000
0200
0000
0000
0302
0000
0000
,
0013
0000
0100
0000
1000
0001
1000
0020
,
0000
0030
1000
0000
0200
0000
0000
2300
,
0000
0000
3010
0000
0100
0000
0001
1000
,
0010
0200
0000
0300
0002
0000
0023
0000
,
0230
2300
3020
0230
,
0302
0000
1003
0000
0100
0000
0010
0001
,
0010
0000
0100
1000
0100
0000
1000
0001
,
1000
0020
0000
0000
0000
0000
0000
0000
,
0000
0000
0000
0000
0000
0000
0000
0000
0030
0000
0000
0000
,
0000
0000
2002
0000
,
0000
0000
0000
0000
,
0000
0000
0000
0000
,
0000
0000
0000
3003
;

//--------------- dance-single - BU ----------------
#NOTEDATA:;
#STEPSTYPE:dance-single;
#DESCRIPTION:BU;
#DIFFICULTY:Hard;
#METER:16;
#RADARVALUES:0,0,0,0,0;
#CREDIT:valgrind | 16+ |;
#CHARTNAME:Team Invisibility nanmin;
#NOTES:
0000
0000
0000
0000
,
0000
0000
0000
0000
,
0000
0000
0000
0000
,
0000
0000
0000
0000
,
0101
0000
0000
0000
,
1100
0000
0000
0000
,
0001
0000
0100
0001
0020
0000
0230
0000
,
1300
0001
0100
0010
2000
0000
3001
1000
,
0100
0010
0002
0000
0013
0100
1000
0001
,
0200
0000
0310
1000
0001
0010
0200
0000
,
0310
0001
0100
0010
2000
0000
3010
1000
,
0001
0010
0100
1000
0010
0100
0001
1000
,
0100
0010
0001
0100
0010
1000
0100
0010
,
0001
0010
0100
1000
0001
0000
0101
0000
,
0110
1001
0000
0000
,
0000
0000
0000
0000
0000
0000
1000
0100
,
1000
0001
0010
0001
1000
0000
0000
0001
,
0100
0001
0100
0000
0000
0010
1000
0010
,
1000
0000
0000
0000
0000
0000
0001
0000
0100
0000
0001
0000
1000
0000
0000
1000
,
0000
0001
0000
0000
1000
0100
1000
0100
,
0000
0000
0010
0001
0010
0001
0000
0000
,
1000
0000
0100
0000
1000
0000
0010
0000
0000
0010
0000
0000
1000
0000
0000
0000
,
0000
0001
0010
0001
0010
0000
0000
0100
,
1000
0100
1000
0000
0000
0001
0010
0001
,
1000
0000
0000
1000
0000
0000
0001
0000
0000
0000
0000
0000
1000
0000
0010
0000
,
1000
0010
0000
0000
0100
0001
0100
0001
,
0000
0000
1000
0010
1000
0001
0100
0001
,
0010
0100
0010
0001
1000
0001
0200
0000
,
0310
0200
0000
0301
0100
0001
0010
0100
,
1000
0000
0000
0001
0000
0000
1000
0000
0010
0000
1000
0000
0010
0000
0100
0000
0002
0000
0000
0000
0000
1003
0000
0000
,
0200
0000
0310
0200
0000
1300
0100
1000
,
0010
0000
0000
0100
0000
0000
0001
0000
0000
1000
0000
0000
0001
0000
0010
0000
0001
0000
0010
0000
0100
0000
2000
0000
,
0000
3001
0020
0000
0130
0020
0000
0031
,
0010
0000
0000
0001
0000
0000
0100
0000
0000
0010
0000
0000
1000
0000
0000
0001
0000
0000
1000
0000
0100
0000
1000
0000
,
0100
0000
0010
0000
0002
0000
0000
0000
0000
1003
0000
0000
0020
0000
0000
0000
0000
0000
0130
0000
0000
0020
0000
0000
,
0000
1030
0010
1000
0100
0010
0001
1000
,
0001
0000
0100
0000
0001
0000
0100
0000
0010
0000
2000
0000
0000
0000
0000
3001
0000
0000
0020
0000
0000
0000
0000
0000
,
0230
2300
3002
0203
,
0302
0023
0230
1300
,
0001
0010
0100
0010
0001
0000
1000
0001
,
0100
0010
1000
0000
0001
0100
0001
1000
,
0100
0000
0010
0001
0100
0010
1000
0000
,
0100
0010
0001
1000
0010
0000
1000
0001
,
0010
0001
0100
0000
0010
1000
0100
1000
,
0001
0100
0001
1000
0100
0010
0002
0000
,
2003
0000
3020
0000
0230
0000
0310
1000
,
0002
0000
0023
0000
0130
1000
0001
0010
,
0002
0000
0103
0010
1000
0001
2000
0000
,
3200
0320
0032
0203
,
0310
0000
0000
1000
0010
1000
0010
1000
0010
1000
0010
1000
,
0002
0000
0000
0000
0000
0000
0103
0000
0000
0001
0010
0001
,
0010
0001
0010
0001
0010
0001
1000
0000
0000
1100
0000
0000
,
0101
1002
0000
1003
,
0020
0000
0230
0000
0310
2000
0000
0000
,
3200
0000
0320
0000
0031
0000
1000
0100
,
1000
0020
0000
0230
,
0000
0000
0302
0000
0000
2003
0000
0000
,
3002
0000
0023
0000
0130
2000
0000
0000
,
3020
0000
0230
0000
0301
0000
1000
0010
,
1000
0000
0000
0100
0000
0010
0000
0001
0000
2000
0000
0000
,
0000
0000
3020
0000
1030
0002
0000
0003
,
0020
0000
0230
0000
1300
0000
0001
1000
,
0001
0000
0020
0000
0031
0200
0000
0000
,
0310
0000
2000
0000
3010
0100
0002
0000
,
0000
0000
2003
0000
0000
3200
0000
0000
,
0320
0000
0230
0000
1300
0002
0000
0000
,
0203
0000
0320
0000
0130
0000
0001
0100
,
0001
0000
1000
0010
1000
0001
0010
0100
,
1000
0020
0000
0000
,
0230
0302
0000
0000
,
1003
0100
2000
0000
0000
3020
0000
0000
,
0230
0000
0302
0000
0000
2003
0000
0000
,
3100
0010
0002
0000
0000
0000
0000
0000
,
0000
0000
1003
0000
0001
0100
0020
0000
,
1030
0000
0001
0000
0020
0000
0000
0000
0031
0000
0100
0000
0001
0000
0000
1000
,
0000
0000
0010
0000
1000
0000
0000
0100
0000
0000
0010
0000
0001
0000
0000
1000
,
0000
0010
0200
0000
0301
1000
0200
0000
,
0310
0001
0100
0010
1000
0010
1000
0001
,
0010
0100
2000
0000
3100
0010
0002
0000
,
0013
0100
2000
0000
3100
0010
0002
0000
,
0013
0100
1000
0010
0100
0001
1000
0001
,
0010
0100
0010
0001
0100
0010
2000
0000
,
0000
0000
3001
0000
0010
0100
1000
0001
,
0100
0010
1000
0100
0010
0001
1000
0010
,
0100
0000
0000
0001
0000
0000
1000
0000
0100
0000
1000
0000
0100
0000
0000
0000
0000
0000
0010
0000
0001
0000
0010
0000
,
0001
0000
0000
1000
0010
1000
0010
0000
0000
0100
0001
0100
,
0001
0000
0000
0010
0100
0010
0100
0000
0000
1000
0001
1000
,
0001
0200
0000
0000
,
0000
0000
0301
0010
0100
1000
0001
0100
,
0010
0000
0000
1000
0000
0000
0100
0000
0010
0000
0100
0000
0010
0000
0000
0001
0000
0000
0100
0000
0000
0010
0000
0000
,
0100
0001
1000
0001
0020
0000
0130
0020
,
0000
0031
0010
0001
0100
0010
1000
0001
,
1000
0000
0100
0000
1000
0000
0100
0000
0010
0000
0002
0000
0000
0000
0000
1003
0000
0000
0020
0000
0000
0000
0000
0000
,
0130
0020
0000
1030
0010
1000
0100
0010
,
0001
0000
0000
1000
0000
0000
0001
0000
0100
0000
0001
0000
0100
0000
0010
0000
2000
0000
0000
0000
0000
3001
0000
0000
,
0200
0000
0310
0200
0000
0301
0100
0001
,
0010
0000
0000
0100
0000
0000
1000
0000
0000
0001
0000
0000
1000
0000
0010
0000
1000
0000
0010
0000
0100
0000
0002
0000
,
0000
1003
0200
0000
0310
0200
0000
1300
,
0100
0000
0000
1000
0000
0000
0010
0000
0000
0100
0000
0000
0001
0000
0000
1000
0000
0000
0001
0000
0010
0000
0001
0000
,
0010
0000
0100
0000
2000
0000
0000
0000
0000
3001
0000
0000
0200
0000
0000
0000
0000
0000
0320
0000
0000
0000
0000
0000
,
2030
3002
0023
0032
,
0203
0000
0320
0000
1030
0001
0010
0100
,
1000
0010
0100
0001
0010
0001
1000
0010
,
1000
0200
0000
0000
0000
0000
0000
0000
,
0000
0000
0000
0000
0000
0000
0000
0000
0300
0000
0000
0000
,
0000
0000
2002
0000
,
0000
0000
0000
0000
,
0000
0000
0000
0000
,
0000
0000
0000
3003
;

//--------------- dance-single - BU+ XO- FS- ----------------
#NOTEDATA:;
#STEPSTYPE:dance-single;
#DESCRIPTION:BU+ XO- FS-;
#DIFFICULTY:Challenge;
#METER:18;
#RADARVALUES:0,0,0,0,0;
#CREDIT:valgrind | 18 |;
#CHARTNAME:BMS Overjoyeuse;
#NOTES:
0000
0000
0000
0000
,
0000
0000
0000
0000
,
0000
0000
0000
0000
,
0000
0000
0000
0000
,
1100
0000
0000
0000
,
0101
0000
0000
0000
,
1000
0001
1000
0100
0010
0001
0100
0010
1000
0001
1000
0100
,
0010
0000
0001
0000
0010
0000
0001
0000
0000
1000
0000
0000
0010
0000
0000
0100
0000
0000
0010
0000
0000
1000
0000
0000
,
0100
0010
0001
1000
0010
0100
0001
0010
,
0100
0010
0001
1000
0100
1000
0010
0100
,
0001
1000
0100
0010
0001
0100
0010
1000
,
0001
0010
0100
1000
0010
0100
0001
1000
,
0001
0000
0100
0000
0001
0000
1000
0000
0010
0000
1000
0000
0001
0000
0000
1000
0000
0000
0100
0000
0000
0010
0000
0000
,
0001
0010
0100
1000
1100
0000
0011
0000
,
0110
1001
0000
0000
,
0000
0000
0000
0000
0000
0000
1000
0100
,
1000
0001
0010
0001
1000
0000
0000
0001
,
0100
0010
1000
0000
0000
0001
0100
0010
,
1000
0000
0000
0000
0000
0000
0001
0000
0100
0000
0001
0000
0010
0000
0000
0010
,
0000
0001
0000
0000
1000
0100
0010
0001
,
0000
0000
1000
0100
0010
0001
0000
0000
,
1000
0000
0100
0000
1000
0000
0001
0000
0000
0001
0000
0000
1000
0000
0000
0000
,
0000
0001
0010
0100
1000
0000
0000
0001
,
0010
0100
1000
0000
0000
0001
0010
0001
,
0100
0000
0000
0100
0000
0000
0001
0000
0000
0000
0000
0000
1000
0000
0010
0000
,
0100
0001
0000
0000
1000
0010
0100
0001
,
0000
0000
1000
0010
1000
0001
0010
0001
,
0100
0100
0100
0010
0010
0010
2000
0000
,
3100
2000
0000
3010
1000
0100
0010
0100
,
1000
0000
0000
0001
0000
0000
0100
0000
0010
0000
1000
0000
0001
0000
0010
0000
0200
0000
0000
0000
0000
0310
0000
0000
,
0002
0000
0103
0002
0000
0013
0001
0100
,
0010
0000
0000
0100
0000
0000
0001
0000
0000
1000
0000
0000
0010
0000
1000
0000
0001
0000
0100
0000
0001
0000
0020
0000
,
0000
0130
2000
0000
3010
2000
0000
3100
,
1000
0000
0000
0010
0000
0000
0100
0000
0000
0010
0000
0000
1000
0000
0000
0001
0000
0000
0010
0000
0100
0000
1000
0000
,
0001
0000
0100
0000
0020
0000
0000
0000
0000
0130
0000
0000
0002
0000
0000
0000
0000
0000
0013
0000
0000
0002
0000
0000
,
0000
0103
0001
0010
0100
0010
0001
1000
,
0100
0000
1000
0000
0001
0000
0010
0000
0001
0000
0200
0000
0000
0000
0000
0310
0000
0000
1000
0000
0100
0000
0010
0000
,
0001
1000
0001
0100
0010
1000
0001
0010
0001
1000
0010
1000
,
0001
0000
0010
0000
0100
0000
1000
0000
0000
0100
0000
0000
0010
0000
0000
0001
0000
0000
1000
0000
0000
0010
0000
0000
,
1000
0001
0100
0001
0010
0100
1000
0001
,
0100
0010
1000
0100
1000
0001
0010
0001
,
0100
0010
0100
0001
0010
0001
1000
0010
,
1000
0100
0010
0001
0100
0010
0100
0001
,
0010
0100
0010
0001
1000
0100
1000
0010
,
0100
0001
1000
0010
1000
0100
0020
0000
,
0032
0000
0000
0203
0000
0000
0320
0000
0000
1030
0001
0100
,
0002
0000
0000
2003
0000
0000
3001
0010
0001
1000
0100
1000
,
0020
0000
0000
0000
0030
0000
0100
0000
0001
0000
0100
0000
0010
0000
0000
1000
0000
0000
0002
0000
0000
0000
0000
0000
,
1003
0100
0010
0100
2000
0000
3020
0000
,
2030
0000
0000
3001
0100
0001
1000
0010
1000
0001
0010
0100
,
2000
0000
0000
0000
0000
0000
3001
0000
0000
1000
0000
0000
0100
0000
0000
1000
0000
0000
0010
0000
0100
0000
0010
0000
,
1000
0001
1000
0100
0010
0001
1000
0000
0000
1010
0000
0000
,
0110
0000
1001
0000
1000
0100
0000
0010
,
0200
0000
2300
0000
3010
0200
0000
0301
,
2000
0000
3200
0000
0310
0000
0100
0010
,
0001
0000
0100
0001
1000
0000
0010
0100
,
0001
0000
0020
0000
0130
2000
0000
3001
,
0200
0000
0320
0000
0130
0002
0000
0000
,
0023
0000
0130
0000
1000
0000
0001
0010
,
0001
0000
0000
1000
0000
0100
0000
1000
0000
0020
0000
0000
,
1030
0000
0200
0000
0310
0002
0000
1003
,
0020
0000
0230
0000
0310
0000
1000
0010
,
2000
0000
3200
0000
0310
2000
0000
3010
,
0002
0000
1003
0100
1000
0000
0001
0100
,
0001
0000
0020
0000
0130
2000
0000
3001
,
0200
0000
0320
0000
1030
0002
0000
1003
,
0200
0000
0320
0000
0031
0000
1000
0100
,
1000
0000
0001
1000
0100
1000
0001
0100
,
0001
0000
0020
0000
0130
0010
0000
0001
,
0200
0000
0310
1000
0001
0010
0100
1000
,
0010
1000
0200
0000
0310
2000
0000
3010
,
0002
0000
2003
0000
3010
0200
0000
0000
,
0301
0000
1000
0000
0001
0000
0020
0000
0000
0000
0000
0000
0130
0000
0000
0000
0000
0000
1000
0000
0000
0001
0000
0000
,
1000
0000
0010
0000
1000
0001
0020
0000
,
0031
0000
0100
0000
0010
0000
0000
0000
1000
0000
0100
0000
0010
0000
0000
0001
,
0000
0000
1000
0000
0010
0000
0000
0001
0000
0000
0010
0000
0100
0000
0000
0001
,
0000
1000
0200
0000
1300
0010
0200
0000
,
0310
0000
0000
1000
0000
0000
0100
0000
0000
0010
0000
0000
0100
0000
1000
0000
0001
0000
0100
0000
0010
0000
1000
0000
,
0001
0010
0100
2000
0000
0000
3001
0010
0100
2000
0000
0000
,
3001
0100
0010
2000
0000
0000
3001
0100
0010
2000
0000
0000
,
3001
0010
0100
1000
0010
0100
0001
1000
0100
0010
0001
0100
,
0010
1000
0001
0010
0100
1000
0010
0100
0001
2000
0000
0000
,
3001
0000
0010
0100
1000
0001
0100
0001
,
0010
0000
0000
0100
0000
0000
1000
0000
0000
0010
0000
0000
0100
0000
0000
0001
0000
0000
1000
0000
0010
0000
1000
0000
,
0001
0000
0000
0100
0000
0000
0001
0000
0010
0000
0001
0000
0100
0000
0010
0000
1000
0000
0001
0000
0010
0000
0001
0000
,
0100
0010
1000
0001
0100
0001
0010
0100
1000
0001
0100
0001
,
0010
0100
1000
0010
1000
0001
0010
0100
1000
0010
1000
0001
,
0100
0000
0010
0000
1000
0000
0200
0000
0000
0000
0310
0000
0000
0000
0100
0000
0000
0000
1000
0000
0000
0001
0000
0000
,
0010
0001
1000
0100
0010
1000
0010
0100
,
1000
0000
0000
0010
0000
0000
0100
0000
0000
0001
0000
0010
0000
0100
0000
1000
0000
0000
0100
0000
0000
0100
0000
0000
,
0100
0010
0010
0010
0002
0000
0103
0002
,
0000
0013
0001
0100
0010
0100
0001
1000
,
0100
0000
0010
0000
0001
0000
1000
0000
0010
0000
0200
0000
0000
0000
0000
0310
0000
0000
2000
0000
0000
0000
0000
0000
,
3100
2000
0000
3010
1000
0100
0010
0100
,
1000
0000
0000
0001
0000
0000
0010
0000
0001
0000
1000
0000
0100
0000
1000
0000
0020
0000
0000
0000
0000
0130
0000
0000
,
0002
0000
0013
0002
0000
0103
0001
0010
,
0100
0000
0000
0010
0000
0000
0001
0000
0000
1000
0000
0000
0010
0000
0100
0000
0001
0000
1000
0000
0100
0000
0020
0000
,
0000
0130
2000
0000
3010
2000
0000
3100
,
1000
0000
0000
0010
0000
0000
0100
0000
0000
0010
0000
0000
1000
0000
0000
0001
0000
0000
0100
0000
0001
0000
1000
0000
,
0010
0000
1000
0000
0200
0000
0000
0000
0000
0310
0000
0000
0001
0000
0100
0000
0010
0000
1000
0000
0001
0000
1000
0000
,
0100
0010
0001
1000
0010
1000
0001
0010
0001
1000
0010
0100
,
0001
0010
0100
1000
0010
0100
0001
1000
,
0001
0000
0010
0000
0100
0000
1000
0000
0001
0000
0100
0000
0010
0000
0000
1000
0000
0000
0010
0000
0000
0100
0000
0000
,
0001
0020
0000
0000
0000
0000
0000
0000
,
0000
0000
0000
0000
0000
0000
0130
1000
0001
0000
0000
0000
,
0000
0000
2002
0000
,
0000
0000
0000
0000
,
0000
0000
0000
0000
,
0000
0000
0000
3003
;
