#VERSION:0.83;
#TITLE:イザナミノナゲキ;
#SUBTITLE:;
#ARTIST:猫叉Master;
#TITLETRANSLIT:Izanami no nageki;
#SUBTITLETRANSLIT:;
#ARTISTTRANSLIT:Nekomata Master;
#GENRE:;
#CREDIT:chronon;
#MUSIC:Izanami no nageki.ogg;
#BANNER:Izanami no nageki.png;
#BACKGROUND:Izanami no nageki-bg.png;
#CDTITLE:;
#SAMPLESTART:84.503;
#SAMPLELENGTH:25.846;
#SELECTABLE:YES;
#OFFSET:-0.195;
#BPMS:0.000=195.000;
#STOPS:;
#BGCHANGES:4.000=Izanami no nageki.mp4=1.000=0=0=0=StretchNoLoop====,
99999.000=-nosongbg-=1.000=0=0=0=StretchNoLoop====
;
#FGCHANGES:;

//--------------- dance-single - chronon ----------------
#NOTEDATA:;
#STEPSTYPE:dance-single;
#DESCRIPTION:chronon;
#DIFFICULTY:Beginner;
#METER:3;
#RADARVALUES:0,0,0,0,0;
#NOTES:
0000
0000
0000
0000
,
0000
0000
0000
0000
,
0000
0000
0000
0000
,
0000
0000
0000
0000
,
0000
0000
0000
0000
,
0000
0000
0000
0000
,
0000
0000
0000
0000
,
0000
0000
0000
0000
,
0000
0000
0000
0000
,
0001
0000
0000
0000
,
0100
0000
0000
0001
,
0000
0000
0000
0000
,
0000
0000
1000
0000
,
0000
0000
0100
0000
,
0000
1000
0000
0000
,
0000
0000
0000
0000
,
0001
0000
0000
0001
,
0000
0000
0000
1000
,
0000
0000
1000
0000
,
0000
0000
0010
0000
,
0000
0010
0000
0000
,
0000
0100
0000
0000
,
0100
0000
0000
0000
,
0001
0000
0000
0001
,
0000
0000
0000
1000
,
0000
0000
1000
0000
,
0000
0000
0100
0000
,
0000
0100
0000
0000
,
0000
0010
0000
0000
,
0020
0030
0000
0000
,
0001
0000
0000
0010
,
0000
0000
0001
1000
,
0000
0000
0010
0000
,
0000
0000
1000
0000
,
0000
0010
0000
0000
,
1000
0001
0000
0000
,
0010
0000
0000
0000
,
0001
0000
0000
0100
,
0000
0000
0001
1000
,
0000
0000
0100
0000
,
0000
0000
1000
0000
,
0000
0100
0000
0000
,
0000
0010
0000
0000
,
0001
0000
0000
0000
,
2000
0000
0000
3000
,
0001
0000
0000
0002
,
0000
0000
0003
1000
,
0000
0000
2000
0000
,
0000
3000
0001
0000
,
0000
0002
0000
0000
,
0003
1000
0000
0000
,
0001
0000
0001
0000
,
0001
0000
0000
0010
,
0000
0010
0000
0010
,
0000
0000
0100
0000
,
0100
0000
0100
0000
,
0000
1000
0000
1000
,
0000
1000
0000
0000
,
0001
0000
0000
0000
,
0000
0000
0000
0000
,
0000
0000
0000
0000
,
0000
0000
1000
0000
,
1000
0000
1000
0000
,
0000
0010
0000
0010
,
0000
0010
0000
0000
,
1000
0000
1000
0000
,
1000
0000
0000
0001
,
0000
0001
0000
0001
,
0000
0000
1000
0000
,
0100
0000
0010
0000
,
0000
0100
0000
0010
,
0000
0001
0000
0000
,
0001
0000
0100
0000
,
0010
0000
0000
0100
,
0000
0010
0000
1000
,
0000
0000
0001
0000
,
0000
0001
0000
0000
,
0000
1000
0000
0000
,
1000
0000
0000
0000
,
0100
0000
0000
0100
,
0000
0000
0000
0010
,
0000
0000
0010
0000
,
0000
0000
0001
0000
,
0010
0000
0100
0000
,
1000
0000
0001
0000
,
1000
0000
0010
0000
,
0100
0000
0001
0000
,
1000
0000
0001
0000
,
0010
0000
0100
0000
,
1000
0000
0001
0000
,
0000
0000
0000
0000
,
0000
0000
0000
0000
,
0000
0000
0000
0000
,
1000
0000
0000
0000
,
1000
0000
0000
0001
,
0000
0000
0000
0001
;

//--------------- dance-single - chronon ----------------
#NOTEDATA:;
#STEPSTYPE:dance-single;
#DESCRIPTION:chronon;
#DIFFICULTY:Easy;
#METER:8;
#RADARVALUES:0,0,0,0,0;
#NOTES:
0000
0000
0000
0000
,
0000
0000
0000
0000
,
0000
0000
0000
0000
,
0000
0000
0000
0000
,
0000
0000
0000
0000
,
0000
0000
0000
0000
,
0000
0000
0000
0000
,
0000
0000
0000
0000
,
0000
0000
0000
0000
,
1000
0000
0100
0000
,
0010
0000
0000
0001
,
0000
0100
0000
0010
,
0000
0000
1000
0000
,
0010
0000
0100
0000
,
0000
0001
0000
0010
,
0000
0100
0000
1000
,
0001
0000
0000
0100
0000
0000
0001
0000
,
0000
0100
0000
0000
0001
0000
1000
0000
,
0000
0100
0000
0000
0010
0000
0001
0000
,
1000
0000
0010
0000
1000
0000
0000
0010
,
0000
0000
1000
0000
0000
0010
0000
0000
,
1000
0000
0001
0000
0000
0010
0000
0000
,
0100
1000
0001
0100
,
0001
0000
0000
0100
0000
0000
0010
0000
,
0000
0100
0000
0000
0001
0000
1000
0000
,
0000
0100
0000
0000
0010
0000
0001
0000
,
1000
0000
0010
0000
1000
0000
0000
0010
,
0000
0100
0000
0001
,
0000
0000
0001
0000
0000
0010
0000
0000
,
0200
0300
0000
0000
,
1000
0100
0100
0010
,
0100
0100
1000
0001
,
0100
0100
0010
1000
,
0001
0010
0100
1000
,
1000
0001
1000
1000
,
0010
0100
0001
0001
,
1000
0100
0010
0000
,
0001
0010
0010
0100
,
0010
0010
0001
1000
,
0010
0010
0100
0001
,
1000
0000
0100
0000
0010
0000
0000
0001
,
0000
1000
0000
0001
,
0100
0000
0010
0000
0000
1000
0000
0000
,
0001
0001
1000
1000
,
0010
0000
0000
0010
0000
0000
0200
0000
,
0301
1000
0001
0010
,
0000
0010
0000
0000
0200
0000
1300
0000
,
0001
0000
1000
0000
0010
0000
0000
0010
,
0000
0200
0301
1000
,
0001
0000
0010
0000
0000
0010
0000
0000
,
0200
1300
0001
1000
,
0001
0100
0001
0100
,
0010
1000
0001
1000
,
0100
1000
0100
0010
,
0001
1000
0010
1000
,
0010
1000
0001
1000
,
0100
0010
0001
0010
,
0001
1000
0001
1000
,
0001
0000
0000
0000
,
0000
0000
0000
0000
,
0000
0000
0000
0000
,
0000
0000
1000
0010
,
0010
0000
0100
0001
,
1000
0001
0010
0010
,
0000
0100
1000
0001
,
1000
0010
0010
0000
,
0100
0000
0001
1000
,
0000
0000
0001
0010
,
0100
1000
0001
0010
,
0100
0010
0001
1000
,
0001
1000
0010
0100
,
0010
1000
0001
1000
,
0100
1000
0100
0010
,
0100
0001
0100
0010
,
0100
1000
0001
1000
,
0010
0000
0100
0000
0001
0000
0000
0100
,
0000
0000
0010
0000
0000
1000
0000
0000
,
0001
0000
1000
0000
0000
0100
0000
0000
,
0010
0000
0000
0001
0000
0000
1000
0000
,
0001
0000
0000
0100
0000
0000
0010
0000
,
0000
1000
0000
0000
0001
0000
1000
0000
,
0000
0100
0000
0000
0010
0000
0001
0000
,
1000
0001
1000
0010
,
0100
1000
0100
0010
,
1000
0001
0010
0100
,
0001
0100
0010
0001
,
1000
0100
0010
1000
,
0010
0100
1000
0001
,
0100
0010
0001
0010
,
0100
0001
2000
0000
,
0000
0000
0000
0000
,
0000
0000
0000
0000
,
0000
0000
0000
3000
,
0001
0000
0010
0000
,
0010
0000
0010
0100
,
0000
1000
0000
1000
,
0000
1000
0001
0000
;

//--------------- dance-single - chronon ----------------
#NOTEDATA:;
#STEPSTYPE:dance-single;
#DESCRIPTION:chronon;
#DIFFICULTY:Medium;
#METER:11;
#RADARVALUES:0,0,0,0,0;
#NOTES:
0000
0000
0000
0000
,
0000
0000
0000
0000
,
0000
0000
0000
0000
,
0000
0000
0000
0000
,
0000
0000
0000
0000
,
0000
0000
0000
0000
,
0000
0000
0000
0000
,
0000
0000
0000
0000
,
0000
0000
0000
0000
,
0001
0000
0010
0100
0000
1000
0100
0000
,
1000
0000
0001
1000
0000
0001
1000
0000
,
0010
0100
0000
0001
0100
0000
0001
1000
,
0000
0001
1000
0000
0001
0000
0010
0100
,
0000
1000
0100
0000
1000
0001
1000
0001
,
1000
0001
1000
0000
0010
0100
0000
0001
,
0100
0000
0001
1000
0001
0000
1000
0100
,
0010
0002
1000
0013
,
0001
1000
0010
0100
,
0002
1000
0103
0010
,
1000
0100
0100
2000
,
0001
3100
1000
0001
,
0100
0010
2000
0001
,
3010
0000
0100
0000
0001
1000
0001
0000
,
0010
0000
0002
1000
0000
0000
0013
0000
,
0001
1000
0000
0000
0010
0000
0100
0000
,
0002
1000
0000
0000
0103
0000
0010
0000
,
1000
0000
0100
0000
1000
0000
0000
1100
,
0000
0001
0000
0101
,
0000
0000
1000
0000
0000
1010
0000
0000
,
2002
3003
0000
0000
,
0001
0000
1000
0010
0100
0000
0001
0000
,
1000
0010
0100
0000
0001
0000
1000
0000
,
0001
0010
0100
0000
0010
0000
0100
0000
,
1000
0000
0010
0000
1000
0000
0001
0100
,
0010
0000
1000
0000
0001
0100
0010
0000
,
1000
0000
0001
0000
1000
0100
0010
0000
,
0100
0010
0001
0100
,
0001
0000
0100
0010
1000
0000
0001
0000
,
0100
0010
1000
0000
0100
0000
1000
0000
,
0100
0010
0001
0000
0010
0000
0100
0000
,
1000
0000
0010
0000
1000
0000
0000
1010
,
0000
0001
0000
0011
,
0000
0000
1000
0000
0000
1100
0000
0000
,
0002
0203
0320
2030
,
3001
0100
0000
0002
0100
0000
0013
0000
,
0001
0000
0010
0000
0100
0000
1000
0100
,
0000
2000
0100
0000
3010
0000
1000
0000
,
0010
0000
0100
0000
0001
0100
0000
0002
,
0100
0013
0001
0010
,
0100
0000
1000
0100
0000
2000
0100
0000
,
3010
1000
0010
0100
,
0001
0100
0010
0100
,
1000
0100
0001
1000
,
0100
0010
0100
0001
,
0100
1000
0001
0010
,
0100
0010
1000
0010
,
0001
1000
0010
0100
,
0010
0001
0010
1000
,
0001
0000
0000
0000
,
0000
0000
0000
0000
,
0000
0000
0000
0000
,
0000
0000
2000
0010
,
3002
0010
1003
0100
,
0010
0002
0100
2003
,
0100
3001
0100
0010
,
2000
0010
3001
0010
,
0100
1000
0001
0100
,
0001
0100
0000
0010
1000
0000
0001
0000
,
1000
0000
0100
0000
1000
0000
0001
0010
,
0100
0000
0010
0100
1000
0000
0100
1000
,
0001
0000
0001
0000
1000
0010
0100
0000
,
0010
0100
0001
0000
0100
0001
1000
0000
,
1000
0000
0001
0010
0100
0000
0010
0000
,
0001
1000
0010
0100
,
0001
0100
0000
0010
1000
0000
0010
0000
,
0001
0000
1000
0000
0100
0000
0000
0101
,
0000
0000
0001
0000
0000
0011
0000
0000
,
0010
0000
0100
0000
0000
1100
0000
0000
,
1000
0000
0000
1010
0000
0000
0010
0000
,
0100
0000
0000
0101
0000
0000
0001
0000
,
0000
0011
0000
0000
0010
0000
0100
0000
,
0000
1100
0000
0000
2000
0000
3020
0000
,
0230
0301
2000
3020
,
0032
0023
2030
3001
,
1000
0002
0023
2030
,
3010
0100
1000
0001
,
0100
1000
0001
0010
,
1000
0001
1000
0100
,
0001
1000
0010
0001
,
1000
0010
0200
0000
,
0000
0000
0000
0000
,
0000
0000
0000
0000
,
0000
0000
0000
0000
,
0310
0100
0010
0000
0100
0010
0100
0000
,
0001
0000
1000
0000
0001
0000
0010
0100
,
0010
0000
0100
0010
0100
0000
1000
0000
,
0001
1000
0010
0000
;

//--------------- dance-single - chronon ----------------
#NOTEDATA:;
#STEPSTYPE:dance-single;
#DESCRIPTION:chronon;
#DIFFICULTY:Hard;
#METER:15;
#RADARVALUES:0,0,0,0,0;
#NOTES:
0000
0000
0000
0000
,
0000
0000
0000
0000
,
0000
0000
0000
0000
,
0000
0000
0000
0000
,
0000
0000
0000
0000
,
0000
0000
0000
0000
,
0000
0000
0000
0000
,
0000
0000
0000
0000
,
0000
0000
0000
0000
,
1000
0010
0100
0010
0000
0100
0001
1000
,
0001
0010
0100
0010
0000
0100
1000
0100
,
0010
0100
0000
0010
0001
1000
0001
0100
,
0010
1000
0010
0100
0001
0100
0010
0100
,
0000
0010
1000
0001
1000
0100
0010
0100
,
0010
0100
0010
0001
1000
0100
1000
0001
,
0100
0001
1000
0010
1000
0001
0010
0200
,
1000
0000
0000
0000
0310
0000
0001
0010
0200
0000
0000
0000
1000
0000
0000
0000
,
0310
0000
0001
0010
0100
0000
1000
0000
0001
0000
0200
0000
0001
0000
0000
0000
,
0310
0000
1000
0010
0200
0000
0000
0000
0302
0000
0000
0000
2003
0000
0000
0000
,
3200
0000
0000
0000
0320
0000
0000
0000
0001
0000
0000
0000
0130
0000
1000
0100
,
0020
0000
0000
0000
0001
0000
0000
0000
0130
0000
1000
0100
0010
0000
0001
0000
,
1000
0000
0020
0000
1000
0000
0000
0000
0130
0000
0001
0100
0010
0000
1000
0000
,
0001
0010
0100
0001
0100
1000
0100
0020
,
0001
0000
0130
0120
0000
0000
0001
0000
,
0130
0110
0010
0001
1000
0020
1000
0000
,
0130
0120
0000
0000
2030
0000
3002
0000
,
0023
0000
0230
0000
1300
0000
0000
1100
,
0000
0001
0000
0101
,
0000
0000
1000
0000
0000
1010
0000
0000
,
2002
0000
3003
0000
0001
0020
0000
0230
,
1000
0000
0310
0000
0001
0000
1000
0001
0100
0000
0020
0000
1000
0000
0130
0000
,
0001
0000
1000
0001
0010
0000
0001
0000
1000
0000
0200
0000
1000
0000
0310
0000
,
0001
0000
1000
0001
0100
0000
0001
0000
0010
0000
0100
0000
1000
0000
0010
0000
,
0100
0000
0001
0000
0010
0000
0002
0000
0010
0000
1003
0000
0001
0000
1000
0010
,
0100
0000
0002
0000
0100
0000
1003
0000
0001
0000
1000
0100
0010
0000
0001
0000
,
1000
0000
0002
0000
0010
0000
1003
0000
0001
0000
1000
0010
0100
0000
0001
0000
,
1000
0000
0010
0000
0100
0000
1000
0000
0100
0010
0100
0000
0001
0000
0200
0000
,
0001
0000
0310
0000
1000
0000
0001
1000
0100
0000
0020
0000
0001
0000
0130
0000
,
1000
0000
0001
1000
0010
0000
1000
0000
0001
0000
0200
0000
0001
0000
0310
0000
,
1000
0000
0001
1000
0100
0000
1000
0000
0010
0000
0100
0000
0001
0000
0010
0000
,
0100
1000
0010
1000
0010
0000
0000
0101
,
0000
0001
0010
0000
0000
0000
1100
0000
,
1000
0000
0010
0000
0000
0101
0001
1000
,
0200
2300
3002
0203
,
0301
0100
0000
0010
1000
0000
0200
0000
,
1300
0100
0010
0100
0001
0100
1000
0100
,
0000
0010
0001
0000
0200
0000
0301
0100
,
0010
0100
1000
0100
0001
0100
0000
0010
,
1000
0000
0200
0000
1300
0100
0010
0100
,
0001
0100
1000
0100
0000
0010
0001
0000
,
0200
0000
0301
0100
0010
0100
1000
0100
,
0001
0100
0001
0000
0100
0000
0010
0000
1000
0000
0001
0000
0010
0000
0100
0000
,
1000
0100
1000
0000
0001
0010
0001
0000
1000
0010
1000
0000
0001
0100
0001
0000
,
0100
0000
0001
0000
1000
0000
0001
0000
0010
0000
0100
0000
1000
0100
1000
0000
,
0100
0000
0010
0001
0010
0000
0001
0000
1000
0010
1000
0000
0010
0000
0100
0000
,
0001
0000
1000
0000
0100
0000
0010
0000
0001
0010
0001
0000
1000
0100
1000
0000
,
0001
0100
0001
0000
1000
0010
1000
0000
0010
0000
1000
0000
0001
0000
1000
0000
,
0100
0000
0010
0000
0001
0000
0010
0100
1000
0000
0001
1000
0001
0000
0100
0010
,
1000
0000
0010
0000
,
0010
0000
1000
0001
,
0000
0010
0000
0010
,
0000
0000
0002
0000
0010
0000
1003
0020
,
0100
0000
1030
0002
1000
0000
0013
0100
,
2000
0000
0100
0000
3001
0200
0010
0000
,
0301
2000
0001
0000
3100
0010
0002
0000
,
0010
0000
0000
0000
1003
0001
1000
0000
0010
0000
0100
0010
0100
0000
0001
0000
,
0010
0100
1000
0100
0010
0001
0011
0000
,
0010
0200
0000
1300
1100
1000
0001
0100
,
0010
0000
1000
0010
0100
0000
0002
0000
0100
0000
1003
0000
0100
0000
0020
0000
,
0001
0130
1000
0002
1000
0103
0010
0100
,
0001
0100
0010
2000
0010
0000
3001
0000
0010
0000
0200
0000
1000
0000
0310
0000
,
0001
0000
2000
0000
0001
0000
3010
0000
0100
0000
0010
0000
1000
0010
0100
0002
,
0100
0000
1003
0000
0001
0010
0100
1000
0100
0000
0010
0100
0010
0000
0001
0000
,
0100
0010
1000
0010
0100
0001
1000
0100
,
0001
0000
0100
0000
0010
0000
0100
1000
0001
0000
1000
0000
0010
0000
0100
0000
,
1000
0001
0010
0100
0101
0000
0000
0011
,
0000
0000
1100
0000
0000
1010
0000
1000
,
0001
1000
1010
0000
0000
1100
0000
0000
,
0011
0000
0000
0101
0000
0001
1000
0001
,
0101
0000
0000
0011
0000
0000
1100
0000
,
0000
1010
0000
1000
0001
1000
1010
0000
,
0000
0000
0101
0000
0000
0000
0001
0010
0200
0000
0000
0000
2300
0000
0000
0000
,
3002
0000
0000
0000
1003
0001
1000
0010
0100
0000
0010
0000
0001
0000
1000
0000
,
0100
0000
0010
0100
0001
0000
1000
0000
0100
0000
0010
0000
0001
0000
1000
0000
,
0001
1000
0001
0010
0100
0000
0010
0000
1000
0000
0001
0000
0100
0000
0010
0100
,
1000
0100
0010
0001
0100
0010
1000
0001
,
0100
0010
0100
1000
0100
0010
0100
0001
,
0010
0000
0100
0010
0001
0000
0010
0000
0100
0000
1000
0000
0100
0000
0010
0000
,
0100
0000
0001
0000
0100
0000
1000
0000
0001
0000
1000
0010
0200
0000
0000
0000
,
0302
0000
2003
0000
3001
1000
0100
0000
,
1000
0001
0100
0000
0001
1000
0100
0010
,
0001
0010
0001
1000
0010
0000
1000
0001
,
0010
0000
0001
1000
0010
0100
0001
0100
,
0010
1000
0001
0000
0010
0001
1000
0000
,
0010
1000
0001
1000
0100
0010
0100
1000
,
0001
0000
0100
0001
1000
0000
0100
1000
,
0001
0100
0010
0100
1000
0000
0000
0000
;
