#VERSION:0.83;
#TITLE:イスカノサイ;
#SUBTITLE:;
#ARTIST:kemu feat. あらき;
#TITLETRANSLIT:Isukanosai;
#SUBTITLETRANSLIT:;
#ARTISTTRANSLIT:kemu feat. ARAKI;
#GENRE:;
#CREDIT:chronon;
#MUSIC:Isukanosai.ogg;
#BANNER:Isukanosai.png;
#BACKGROUND:Isukanosai-bg.png;
#CDTITLE:;
#SAMPLESTART:45.097;
#SAMPLELENGTH:14.455;
#SELECTABLE:YES;
#OFFSET:-0.003;
#BPMS:0.000=133.000;
#STOPS:;
#BGCHANGES:;
#FGCHANGES:;

//--------------- dance-single - chronon ----------------
#NOTEDATA:;
#STEPSTYPE:dance-single;
#DESCRIPTION:chronon;
#DIFFICULTY:Beginner;
#METER:3;
#RADARVALUES:0,0,0,0,0;
#NOTES:
0000
0000
0000
0000
,
0000
0000
0000
0000
,
0000
0000
0000
0000
,
0000
0000
0000
0000
,
0000
0000
0000
0000
,
0001
0000
0010
0000
,
0001
0000
0000
0000
,
1000
0000
0100
0000
,
1000
0000
0000
0000
,
0001
0000
0001
0000
,
1000
0000
1000
0000
,
0010
0000
0010
0000
,
0100
0000
0200
0300
,
0001
0000
0100
0000
,
0001
0000
1000
0000
,
0100
0000
0100
0000
,
0010
0000
0010
0000
,
0001
0000
1000
0000
,
0001
0000
1000
0000
,
0010
0000
0010
0000
,
0000
0000
0000
0000
,
1000
0000
0001
0000
,
1000
0000
0001
0000
,
0100
0000
0100
0000
,
0000
0000
0000
0000
,
0001
0001
0001
0000
,
0100
0000
0010
0000
,
1000
0000
0001
0000
,
1000
0000
0100
0000
,
1000
1000
1000
0000
,
0100
0000
0010
0000
,
0001
0000
1000
0000
,
0001
0000
0100
0000
,
0000
0000
0000
0000
,
0000
0000
0000
0000
,
0000
0000
0000
0000
,
0000
0000
0000
0000
,
0000
0001
0000
1000
,
0000
0001
0000
1000
,
0000
0000
0001
1000
,
0001
0000
0010
0000
,
0100
0100
0100
0000
,
1000
0000
0001
0000
,
0100
0000
0010
0000
,
1000
0000
0001
0000
,
0010
0010
0010
0000
,
0001
0000
1000
0000
,
0010
0000
0100
0000
,
0001
0000
1000
0000
,
0001
1000
0001
0000
,
0100
0000
0010
0000
,
1000
0001
1000
0000
,
0100
0000
0010
0000
,
0001
1000
0001
0000
,
0100
0000
0010
0000
,
2000
0000
0000
0000
0002
0000
0000
3003
,
0000
0000
0000
0000
,
1000
0000
0010
0000
,
1000
0000
0000
0000
,
0001
0000
0100
0000
,
0001
0000
2000
3000
,
0000
0000
0000
0000
,
0000
0000
0000
0000
,
0000
0000
0000
0000
,
0000
0000
0110
0000
;

//--------------- dance-single - chronon ----------------
#NOTEDATA:;
#STEPSTYPE:dance-single;
#DESCRIPTION:chronon;
#DIFFICULTY:Easy;
#METER:7;
#RADARVALUES:0,0,0,0,0;
#NOTES:
0000
0000
0000
0000
,
0000
0000
0000
0000
,
0000
0000
0000
0000
,
0000
0000
0000
0000
,
0000
0000
0000
0000
,
1000
0200
0310
0200
,
1300
0000
0200
0000
0310
0000
0001
1000
,
0001
0200
0310
0200
,
0301
0000
0200
0000
0310
0000
1000
0001
,
0100
0001
0010
0010
,
0100
1000
0010
0010
,
2000
0010
3002
0010
,
1003
0100
0010
1001
,
0001
0010
0001
0000
1000
0100
1000
0000
,
0001
0100
0001
0000
1000
0010
1000
0000
,
0010
0010
0100
0100
,
0001
0001
1000
1000
,
0200
0000
0000
0310
0000
0000
0000
0000
0200
0000
0000
0310
0000
0000
0000
0000
,
0200
0000
0000
0310
0000
0000
0000
0000
1001
0000
0000
0000
0001
0000
1000
0000
,
0200
0000
1300
0001
0200
0000
0301
1000
,
0010
0100
0001
1000
,
0020
0000
0000
0130
0000
0000
0000
0000
0020
0000
0000
0130
0000
0000
0000
0000
,
0020
0000
0000
0130
0000
0000
0000
0000
1001
0000
0000
0000
1000
0000
0001
0000
,
0200
0000
0301
1000
0200
0000
0310
0000
,
0000
0000
0000
1001
,
0001
0010
0001
0000
0010
0000
0100
0000
,
1000
0010
0100
0001
,
0100
0001
0100
0000
0010
1000
0010
0000
,
1000
0000
0001
0000
1000
0001
1000
0000
,
0001
0100
0001
0000
0100
0000
0010
0000
,
1000
0100
0010
0001
,
0010
0001
0010
0000
0100
1000
0100
0000
,
1000
0000
0001
0000
1000
0001
1000
0000
,
0000
0010
0000
0010
,
0000
0010
0000
0010
,
0100
0000
0100
0000
,
0001
1000
0001
0000
,
0000
0010
0000
0010
,
0000
0010
0000
0010
,
0100
0000
0100
0000
,
1000
0001
1000
0001
,
1000
0010
1000
0010
1000
0000
0010
0000
,
0100
0001
0010
0100
,
1000
0100
1000
0000
0001
0010
0001
0000
,
0100
0010
1000
0001
,
1000
0100
1000
0100
1000
0000
0100
0000
,
0010
0001
0100
0010
,
1000
0010
1000
0000
0001
0100
0001
0000
,
0010
0000
0100
0000
1000
0001
1000
0000
,
0010
0100
0010
0100
0010
0000
0100
0000
,
0001
0010
0100
1000
,
0100
0010
0100
0010
0100
0000
0010
0000
,
0001
0100
0010
1000
,
0010
0100
0010
0100
0010
0000
0100
0000
,
0001
0010
0100
1000
,
0100
0000
0000
0000
0010
0000
0000
2002
,
0000
0000
0000
3003
,
0001
0020
0130
0020
,
0031
0000
0020
0000
0130
0000
1000
0001
,
1000
0020
0130
0020
,
1030
0020
0130
2002
,
3003
0000
0000
0000
,
0000
0000
0000
0000
,
0000
0000
0000
0000
,
0000
0000
0220
0000
,
0330
0000
0000
0000
;

//--------------- dance-single - chronon ----------------
#NOTEDATA:;
#STEPSTYPE:dance-single;
#DESCRIPTION:chronon;
#DIFFICULTY:Medium;
#METER:11;
#RADARVALUES:0,0,0,0,0;
#NOTES:
0000
0000
0000
0000
,
0000
0000
0000
0000
,
0000
0000
0000
0000
,
0000
0000
0000
0000
,
0000
0000
0000
0000
,
0001
0100
0020
0000
1030
0100
0020
0000
,
0031
0100
0020
0000
1030
0001
1000
0100
,
1000
0100
0020
0000
0031
0100
0020
0000
,
1030
0100
0020
0000
0031
1000
0001
0100
,
0001
0000
0100
0000
0010
0000
1000
0000
0100
0000
0000
0010
0000
0100
0000
1000
,
0000
0000
0100
0000
0010
0000
0001
0000
0100
0000
0000
0010
0000
0000
0100
0000
,
0010
1000
0100
0010
0001
0100
0000
0010
,
1000
0001
1000
0100
0002
0000
1000
0000
,
0103
0020
0001
0130
1000
0001
0100
0010
,
0100
0020
1000
0130
0001
0010
0100
0000
,
0010
0000
1001
0000
1000
0001
0100
0000
,
0010
0000
1001
0000
0001
1000
0100
0000
,
1000
0000
0000
0100
0000
0000
0100
0000
0010
0000
0000
0001
0000
0000
0001
0000
,
1000
0000
0000
0000
0000
0000
0000
0000
0000
0010
0000
0000
0000
0000
0000
0000
0000
0000
0010
0000
0000
0000
0000
0000
0100
0000
0000
0000
0000
0000
0000
0000
0000
0000
0000
0000
0010
0000
0000
0000
0000
0000
0000
0000
0100
0000
0000
0000
,
2000
0000
0000
3100
0000
0010
0002
0000
0000
0013
0000
0100
,
0001
0000
0001
0010
0000
0010
0100
0000
0100
1000
0000
0000
,
0001
0000
0000
0010
0000
0000
0010
0000
0100
0000
0000
1000
0000
0000
1000
0000
,
0001
0000
0000
0000
0000
0000
0000
0000
0000
0100
0000
0000
0000
0000
0000
0000
0000
0000
0100
0000
0000
0000
0000
0000
0010
0000
0000
0000
0000
0000
0000
0000
0000
0000
0000
0000
0100
0000
0000
0000
0000
0000
0000
0000
0010
0000
0000
0000
,
0002
0000
0000
0013
0000
0100
2000
0000
0000
3100
0000
0000
,
0000
0000
0000
1001
,
0001
0100
0001
0100
0010
0000
1000
0200
,
0000
0310
0001
0200
0000
0310
0100
0000
,
0001
0001
0010
0000
0100
0100
1000
0002
,
0000
0103
0010
2000
0000
3100
0010
0100
,
1000
0100
1000
0100
0010
0000
0001
0200
,
0000
0310
1000
0200
0000
0310
0002
0010
,
2003
0010
3001
0100
0010
0000
1000
0002
,
0000
0013
0100
2000
0000
3010
0100
0000
,
0002
0103
0002
1003
,
0002
0013
0002
1003
,
2000
3100
2000
3001
,
2000
3010
2000
3001
,
1000
0010
0100
0001
,
0001
0000
0010
0000
0100
0000
1000
0001
,
1000
0000
0010
0100
0001
0000
0010
0200
,
0000
1300
0010
0200
0000
0301
1000
0100
,
1000
0100
0001
0100
1000
0000
0100
1000
,
0010
0100
0001
0010
0001
0000
0010
0001
,
0100
0010
1000
0000
0010
1000
0100
0010
,
0001
1000
0001
1000
0010
0100
0010
0100
,
0001
0100
1000
0100
0001
0000
0100
0001
,
0010
0100
1000
0010
1000
0000
0020
1000
,
0230
0001
0310
1000
0001
0010
0100
2000
,
0000
3010
0100
0002
0000
0000
0000
0000
,
2003
0010
3002
0100
1003
0000
0010
1000
,
0100
0010
0001
0100
0010
1000
0100
0000
,
2000
0100
3002
0010
1003
0000
0100
1000
,
0010
0100
0001
0010
0100
1000
0010
0100
,
0002
0100
2003
0010
3001
0000
0100
0001
,
0010
0100
1000
0010
0100
0001
0010
0000
,
0011
0000
0000
0000
1001
0000
0000
1010
,
0000
1000
0010
1000
0010
0100
0001
0000
,
1000
0010
0200
0000
0301
0010
0200
0000
,
1300
0010
0200
0000
0301
1000
0001
0010
,
0001
0010
0200
0000
1300
0010
0200
0000
,
0301
0010
0200
0000
0310
0001
0200
0000
,
0310
0000
0000
0000
,
0000
0000
0000
0000
,
0000
0000
0000
0000
,
0000
0000
0000
0000
0000
0000
0000
0000
0100
0010
0000
0100
0000
0010
0000
0100
;

//--------------- dance-single - chronon ----------------
#NOTEDATA:;
#STEPSTYPE:dance-single;
#DESCRIPTION:chronon;
#DIFFICULTY:Hard;
#METER:15;
#RADARVALUES:0,0,0,0,0;
#NOTES:
0000
0000
0000
0000
,
0000
0000
0000
0000
,
0000
0000
0000
0000
,
0000
0000
0000
0000
,
0000
0000
0000
0000
,
1000
0010
0000
0100
1000
0000
0100
0000
0001
0010
0000
0100
0001
0000
0100
0000
,
1000
0010
0000
0100
1000
0000
0100
0000
0001
0100
0010
1000
0001
1000
0100
0010
,
0001
0010
0000
0100
0001
0000
0100
0000
1000
0010
0000
0100
1000
0000
0100
0000
,
0001
0010
0000
0100
0001
0000
0100
0000
1000
0100
0010
0001
1000
0001
0100
0010
,
1000
0000
0001
0100
0001
1000
0010
1000
0100
0000
0010
0100
0000
1000
0000
0001
,
0000
0010
0100
1000
0100
0000
0010
0001
0100
0000
0010
0100
0000
0000
0001
0000
,
1000
0010
0100
0001
0010
0000
0001
0010
0100
1000
0010
0000
0100
0010
1000
0001
,
1000
0000
0100
0000
0010
0000
0100
0002
0000
0000
0000
0000
1000
0000
0000
0000
,
0103
1000
0001
1000
0020
1000
0000
0130
0001
1000
0001
0010
0000
0100
1000
0100
,
0010
0001
1000
0001
0200
0001
0000
0310
1000
0001
1000
0100
0000
0000
0010
0000
,
0100
0000
0000
1001
0000
0000
0001
1000
0100
1000
0001
0100
,
0010
0000
0000
0000
1001
0000
0000
1000
0010
0000
0100
0000
0001
0000
0010
0000
,
0012
0000
0000
1003
0000
0000
0100
0000
2100
0000
0000
3001
0000
0000
0100
0000
,
0102
0000
0000
0000
0000
0000
0000
0000
0000
1003
0000
0000
0000
0000
0000
0000
0000
0000
0010
0000
0000
0000
0000
0000
1010
0000
0000
0000
0000
0000
0000
0000
1000
0000
0010
0000
1000
0000
0000
0000
0001
0000
0000
0000
0100
0000
0000
0000
,
2000
0000
3100
0001
1000
0100
0002
0000
0103
1000
0001
0100
,
0010
1000
0100
0010
0001
0100
0010
0000
0000
1001
0000
0000
,
0101
0000
0000
0110
0000
0000
1010
0000
1100
0000
0000
0110
0000
0000
0011
0000
,
0101
0000
0000
0000
0000
0000
0000
0000
0000
0110
0000
0000
0000
0000
0000
0000
0000
0000
1010
0000
0000
0000
0000
0000
1001
0000
0000
0000
0000
0000
0000
0000
0000
0000
0000
0000
0001
0000
0000
0000
1000
0000
0000
0000
0100
0000
0000
0000
,
2200
0000
0000
3300
0000
0000
1000
0000
0001
0000
0100
0000
0202
0000
0000
0303
0000
0000
0000
0000
0000
0000
0000
0000
,
0000
0000
0000
1001
,
2000
0010
3002
0100
0013
0000
0001
0010
,
1000
0001
0100
1000
0010
0000
1000
0001
,
0100
0000
0001
1000
0100
0000
1000
0001
0100
0010
0000
0100
0001
0000
0020
0000
,
0000
0130
1000
0020
0000
0130
1001
0000
,
0002
0010
2003
0100
3010
0000
1000
0010
,
0001
1000
0100
0001
0010
0000
0001
0010
,
1000
0000
0010
0000
0100
0000
0010
0001
0100
0000
0001
0100
0010
0000
1001
0000
,
0000
0000
1000
0000
0100
0000
0010
0000
1001
0000
0001
0100
0010
1000
0010
0100
,
0002
0103
0200
0310
,
0020
0000
1030
0000
2000
0000
3001
1000
,
0001
1000
0100
0000
1000
0001
0100
0010
,
0000
1000
0100
0010
0110
0000
1001
0000
,
0001
0011
0010
0110
,
0100
0000
0000
0000
1100
0000
0000
0000
1000
0000
0000
0000
1001
0000
0001
1000
,
0001
0000
0000
0001
0100
0010
1000
0001
1000
0100
0010
0001
1000
0000
1001
0000
,
0000
0001
1000
0010
0100
0000
0010
0100
0001
0100
0010
1000
0001
0010
0100
0000
,
2001
3100
1002
0013
0101
0100
0001
0100
,
1000
0001
0010
1000
0100
0010
0001
0010
,
0100
0000
1000
0010
0100
0000
0001
0010
0100
1000
0000
0001
0100
0000
0101
0000
,
0000
0001
1000
0000
0100
0000
1100
0000
1000
0100
0010
0001
1000
0010
0100
0000
,
1002
0103
2001
3010
1100
0100
1000
0100
,
0001
1000
0010
0001
0100
0010
1000
0010
,
0001
0000
0010
0100
0001
0000
0010
0100
1000
0000
0100
0000
0001
0000
0201
0000
,
0000
0000
0310
0000
0100
0000
2000
0010
0000
0010
0000
0010
0000
3010
1000
0010
,
0200
0000
0001
0000
0320
0000
1000
0000
0130
0000
0001
0000
0100
0000
0010
1000
,
0200
0000
0310
0100
0010
0001
0200
0000
0310
0100
0010
1000
0200
0000
0000
0000
,
0320
0000
0001
0000
0230
0000
1000
0000
0310
0000
0001
0000
0010
0100
1000
0000
,
0020
0000
0130
0010
0100
0001
0020
0000
0130
0010
0100
1000
0010
1000
0010
1000
,
0020
0000
1000
0000
0230
0000
0001
0000
0310
0000
1000
0000
0001
0100
0010
1000
,
0200
0000
1300
0100
0010
0001
0200
0000
0301
0100
0010
1000
0200
0000
0300
0000
,
2200
0000
3300
0000
2002
0000
3003
0202
,
0303
0000
0100
0000
0001
0000
1000
0000
0100
0000
0010
0001
0100
0000
0000
0000
,
0001
0100
0000
0010
0001
0000
0010
0000
1000
0100
0000
0010
1000
0000
0010
0000
,
0001
0100
0000
0010
0001
0000
0010
0000
1000
0010
0100
0001
1000
0001
0010
0100
,
1000
0100
0000
0010
1000
0000
0010
0000
0001
0100
0000
0010
0001
0000
0010
0000
,
1000
0100
0000
0010
1000
0000
0010
0000
0001
0000
0010
0001
0200
0000
0310
1000
,
0001
0000
0000
0000
,
0000
0000
0000
0000
,
0000
0000
0000
0000
,
0000
0000
0000
0000
0000
0000
1000
0001
0010
0100
0000
0010
0000
0100
0010
0100
;

//--------------- dance-double - short people torture simulator ----------------
#NOTEDATA:;
#STEPSTYPE:dance-double;
#DESCRIPTION:short people torture simulator;
#DIFFICULTY:Hard;
#METER:15;
#RADARVALUES:0,0,0,0,0;
#NOTES:
00000000
00000000
00000000
00000000
,
00000000
00000000
00000000
00000000
,
00000000
00000000
00000000
00000000
,
00000000
00000000
00000000
00000000
,
00000000
00000000
00000000
00000000
,
00010000
00001000
00000000
00010000
01000000
00000000
00010000
00000000
00001000
00010000
00000000
00001000
00000100
00000000
00001000
00000000
,
00010000
00001000
00000000
00010000
01000000
00000000
00010000
00000000
01000000
10000000
00010000
10000000
00100000
01000000
00001000
00010000
,
00001000
00010000
00000000
00001000
00000100
00000000
00001000
00000000
00010000
00001000
00000000
00010000
01000000
00000000
00010000
00000000
,
00001000
00010000
00000000
00001000
00000100
00000000
00001000
00000000
00000100
00000001
00001000
00000001
00000010
00000100
00001000
00000001
,
00001000
00000000
00000001
00001000
00000001
00000100
00000010
00000100
00001000
00000000
00010000
00001000
00000000
01000000
00000000
00010000
,
00000000
10000000
00010000
10000000
01000000
00000000
00100000
01000000
00010000
00000000
00001000
00020000
00000000
00000000
00030100
00000000
,
00000010
00000001
00001000
00000001
00000100
00000000
00000010
00001000
00000001
00001000
00000100
00000000
00000010
00000100
00001000
00000001
,
00001000
00000000
00000010
00000000
00010000
00000000
00002000
00020000
00000000
00000000
00000000
00033000
02000200
00000000
03000300
00000000
,
01000000
00010000
10000000
00100000
02000000
00010000
00000000
03100000
10000000
00100000
01000000
00010000
00000000
01000000
00001000
00010000
,
00000100
00001000
00000001
00000010
00000200
00001000
00000000
00000310
00000001
00000010
00000100
00001000
00000000
00000000
00000001
00000000
,
00001000
00000000
00000000
00011000
00000000
00000000
00001000
00010000
01000000
10000000
00010000
01000000
,
00010000
00000000
00000000
00000000
00011000
00000000
00000000
00010000
00001000
00000000
00000100
00000000
00000001
00000000
00001000
00000000
,
00002001
00000000
00000000
00003010
00000000
00000000
00001000
00000000
00020010
00000000
00000000
00031000
00000000
00000000
00010000
00000000
,
02001000
00000000
00000000
00000000
00000000
00000000
00000000
00000000
00000000
03010000
00000000
00000000
00000000
00000000
00000000
00000000
00000000
00000000
10000000
00000000
00000000
00000000
00000000
00000000
10100000
00000000
00000000
00000000
00000000
00000000
00000000
00000000
10000000
00000000
00000000
00000000
01000000
00000000
00000000
00000000
00010000
00000000
00000000
00000000
00001000
00000000
00000000
00000000
,
00000020
00000000
00000031
00000100
00001000
00010000
00200000
00000000
10300000
00010000
10000000
01000000
,
00100000
00001000
00010000
00001000
00010000
00000010
00010000
00000000
00000000
00011000
00000000
00000000
,
10020000
00000000
00000000
00130000
00000000
00000000
00010000
00000000
00102000
00000000
00000000
00013000
00000000
00000000
00001000
00000000
,
00010200
00000000
00000000
00000000
00000000
00000000
00000000
00000000
00000000
00001300
00000000
00000000
00000000
00000000
00000000
00000000
00000000
00000000
00000001
00000000
00000000
00000000
00000000
00000000
00000011
00000000
00000000
00000000
00000000
00000000
00000000
00000000
00000000
00000000
00000000
00000000
00000001
00000000
00000000
00000000
00000100
00000000
00000000
00000000
00001000
00000000
00000000
00000000
,
00022000
00033000
00000000
10000000
01000000
00010000
00022000
00033000
00000000
00000000
00000000
00000000
,
00000000
00000000
00000000
00001001
,
00000002
00001000
00020003
00001000
02030000
00000000
13000000
01000000
,
00100000
00010000
00001000
00000100
00000010
00000001
00001000
00000100
,
00100000
00000000
00000100
00000000
10000000
00000000
00000100
00000000
01000000
00001000
00000000
00010000
00001000
00000000
00000020
00000000
,
00000000
00000000
00001030
00000000
00010000
00000000
00200000
00000000
00000000
00310000
00001000
00000000
01000000
00000000
00010000
00000000
,
20000000
00010000
30002000
00010000
00003020
00000000
00000031
00000010
,
00000100
00001000
00010000
00100000
01000000
10000000
00010000
00100000
,
00000100
00000000
00100000
00000000
00000001
00000000
00100000
00000000
00000010
00000000
00010000
00001000
00010000
00000000
02000000
00000000
,
00000000
00000000
03010000
00000000
00001000
00000000
00000200
00000000
00000000
00000000
00001300
00010000
00001000
00000000
01000000
00010000
,
20000000
31000000
02000000
03100000
,
00200000
00000000
00310000
00000000
00020000
00000000
10030000
00010000
,
10000000
00010000
01000000
00000000
00010000
10000000
01000000
00100000
,
00000000
01000000
00100000
00001000
00010000
00000000
00000010
00001000
,
00000002
00000103
00000200
00000310
,
00000020
00000000
00001030
00000000
00002000
00000000
00003001
00001000
,
00000001
00000000
00000000
00000001
00000100
00000010
00001000
00000001
00001000
00000100
00000010
00000001
00001000
00000000
00001001
00000000
,
00000000
00000001
00001000
00000010
00000100
00000000
00000010
00000100
00000001
00001000
00000010
00010000
00001000
01000000
00100000
00000000
,
20100000
00000000
30010000
00000000
00010020
00000000
00001030
00000000
00000011
00000000
00000001
00001000
00000001
00000000
00000010
00000000
,
00000100
00001000
00010000
00100000
01000000
10000000
00010000
01000000
,
00000010
00000000
01000000
00000010
00010000
00000000
00000100
00100000
00001000
00100000
00000000
00001000
00010000
00000000
00200000
00000000
,
00000000
00000000
00310000
00000000
00001000
00000000
00000020
00000000
00001030
00010000
00001000
00010000
00000010
00001000
00000001
00000000
,
00000102
00000000
00001003
00000000
02001000
00000000
03010000
00000000
11000000
00000000
10000000
00010000
10000000
00000000
01000000
00000000
,
00100000
00010000
00001000
00000100
00000010
00000001
00001000
00000010
,
01000000
00000000
00000010
01000000
00001000
00000000
00100000
00000100
00010000
00000000
00000010
01000000
00001000
00000000
00200200
00000000
,
00300300
00000000
00001000
00000000
00010000
00000000
00000020
00000100
00000000
00000100
00000000
00000100
00000000
00000130
00000001
00001000
,
00000200
00000000
00001000
00000000
00000320
00000000
00000001
00000000
00000130
00000000
00001000
00000000
00000001
00000100
00000010
00000100
,
00001000
00000000
00000100
00001000
00010000
00001000
01000000
00000000
00001000
01000000
00100000
10000000
02000000
00000000
00000000
00000000
,
03200000
00000000
00010000
00000000
02300000
00000000
10000000
00000000
03100000
00000000
00010000
00000000
10000000
00100000
01000000
00100000
,
00010000
00000000
00100000
00010000
00001000
00010000
00000010
00000000
00010000
00000010
00000100
00000001
00000020
00000000
00000000
00000000
,
00000230
00000000
00001000
00000000
00000320
00000000
00000001
00000000
00000130
00000000
00001000
00000000
00000001
00000100
00000010
00000100
,
00001000
00000000
00000100
00001000
00010000
00001000
01000000
00000000
00001000
01000000
00100000
10000000
02000000
00000000
03000000
00000000
,
22000000
00000000
33000000
00000000
00220000
00000000
00330000
00011000
,
00000000
00000000
00001000
00000000
00010000
00000000
00001000
00000000
00010000
00000000
00000010
00010000
00001000
00000000
00000000
00000000
,
00010000
00001000
00000000
00010000
00100000
00000000
00010000
00000000
00001000
00010000
00000000
00001000
00000010
00000000
00001000
00000000
,
00010000
00001000
00000000
00010000
00100000
00000000
00010000
00000000
00100000
10000000
00010000
10000000
01000000
00100000
00001000
00010000
,
00001000
00010000
00000000
00001000
00000010
00000000
00001000
00000000
00010000
00001000
00000000
00010000
00100000
00000000
00010000
00000000
,
00001000
00010000
00000000
00001000
00000010
00000000
00001000
00000000
00000010
00001000
00010000
00000000
00200020
00000000
00300030
00000000
,
00011000
00000000
00000000
00000000
,
00000000
00000000
00000000
00000000
,
00000000
00000000
00000000
00000000
,
00000000
00000000
00000000
00000000
00000000
00000000
00100000
00001000
00010000
00001000
00000000
00010000
00000000
00001000
00010000
00001000
;
