#VERSION:0.83;
#TITLE:色を喪った街;
#SUBTITLE:;
#ARTIST:かめりあ feat. かめりあ;
#TITLETRANSLIT:Iro wo ushinatta machi;
#SUBTITLETRANSLIT:;
#ARTISTTRANSLIT:Camellia feat. Camellia;
#GENRE:;
#CREDIT:chronon;
#MUSIC:Iro wo ushinatta machi.ogg;
#BANNER:Iro wo ushinatta machi.png;
#BACKGROUND:Iro wo ushinatta machi-bg.png;
#CDTITLE:;
#SAMPLESTART:77.228;
#SAMPLELENGTH:27.470;
#SELECTABLE:YES;
#OFFSET:0.844;
#BPMS:0.000=166.000;
#STOPS:;
#BGCHANGES:;
#FGCHANGES:;

//--------------- dance-single - chronon ----------------
#NOTEDATA:;
#STEPSTYPE:dance-single;
#DESCRIPTION:chronon;
#DIFFICULTY:Beginner;
#METER:8;
#RADARVALUES:0,0,0,0,0;
#NOTES:
0000
0000
0000
0000
,
0000
0000
0000
0000
,
0000
0000
0000
0000
,
0000
0000
0000
0000
,
0000
0000
0000
0000
,
0000
0000
0000
0000
,
2002
0000
0000
0000
,
0000
0000
0000
3003
,
0002
0000
0000
0103
0000
0000
0001
0000
,
2000
0000
0000
3100
0000
0000
1000
0000
,
0002
0000
0000
0013
0000
0000
0001
0000
,
2000
0000
0000
3001
0000
0000
0000
0000
,
1001
0000
0000
0000
,
0110
0000
0000
0000
,
1001
0000
0000
0000
,
0110
0000
0000
0000
,
1001
0000
0001
0000
,
0010
0000
0100
0000
,
1000
0100
0010
0001
,
2000
0000
0000
3000
,
0002
0103
0001
0100
,
0010
0000
1000
0000
0010
0000
1000
0001
,
2000
3100
1000
0100
,
0010
0001
1000
0001
,
2000
3010
1000
0010
,
0100
0000
0001
0000
0100
0000
0001
1000
,
0002
0013
0100
1000
,
0000
0001
0000
0000
1000
0000
0000
0001
0000
0000
1000
0000
0000
0001
0000
0000
,
1000
0000
0010
0000
0100
0001
0100
0000
,
0001
0000
0010
0000
0100
1000
0100
0000
,
0000
0000
0010
0000
0100
1000
0100
0000
,
1000
0000
0010
0000
0100
0001
0100
0000
,
0001
0000
0000
0100
0000
0000
0000
0000
0001
0000
0000
0000
1000
0000
0000
0000
,
0001
0010
0100
1000
,
0001
0000
0000
0001
0000
0000
1000
0000
0000
0000
0000
0000
0001
0000
0000
0000
,
1000
0000
0000
1000
0000
0000
0001
0000
0000
0000
0000
0000
1000
0000
0000
0000
,
0002
0000
0000
0003
,
2000
0000
0000
3000
,
0001
0001
0110
0000
,
1000
1000
0110
0000
,
0002
0000
0000
0000
,
2003
0000
0000
3000
,
1000
1000
0110
0000
,
0001
0001
0110
0000
,
1000
0001
1000
0100
,
0010
0010
0010
0000
,
0001
1000
0001
0100
,
0010
0010
0010
0000
,
1000
0010
0100
0000
,
0010
0100
0001
0000
,
0000
0100
0000
0000
0001
0000
0000
0100
0000
0000
0001
0000
0000
0100
0000
0000
,
0000
0001
0000
0000
1000
0000
0000
0001
0000
0000
1000
0000
0000
0001
0000
0000
,
0000
1000
0000
0000
0100
0000
0000
1000
0000
0000
0100
0000
0000
1000
0000
0000
,
0001
0000
0000
1000
0000
0000
0001
0000
0000
0000
0000
0000
0000
0000
0000
0000
,
0001
0100
0010
0100
,
0001
0100
1000
0100
,
0001
0010
0100
1000
,
0001
1000
0001
0000
2002
0000
3003
0000
,
1000
0100
0010
0100
,
1000
0100
0001
0100
,
1000
0010
0100
0001
,
1000
0001
0000
0000
2002
0000
3003
0000
,
0000
0001
0100
0010
,
1000
1000
0100
0010
,
0000
0001
0010
0100
,
1000
0001
1000
0000
2002
0000
3003
0000
,
0001
0000
0000
0001
0000
0000
0001
0000
0000
0000
0000
0000
0000
0000
0000
0000
,
1000
0000
0000
1000
0000
0000
1000
0000
0000
0000
0000
0000
0000
0000
0000
0000
,
0010
0000
0000
0010
0000
0000
0010
0000
0000
0000
0000
0000
0000
0000
0000
0000
,
0100
0000
0000
0100
0000
0000
0100
0000
0000
0000
0000
0000
0000
0000
0000
0000
,
0001
0000
0000
0001
0000
0000
0001
0000
0000
0000
0000
0000
0000
0000
0000
0000
,
2002
0000
0000
3003
,
2000
0000
0000
3001
0000
0000
0000
0000
,
2000
3100
1000
0100
,
0010
0000
0001
0000
0010
0000
0001
1000
,
0002
0103
0002
0103
,
0002
0000
0103
0000
0002
0000
1003
0001
,
2000
3010
1000
0001
,
0010
0000
0001
0000
1000
0000
0001
1000
,
0002
0000
0013
0000
0100
1000
0100
0000
,
1000
0000
0010
0000
0100
0001
0100
0000
,
2002
0000
0000
3003
,
0001
0000
1000
0000
0000
0001
0000
0000
1000
0000
0000
0001
0000
0000
0000
0000
,
0110
0000
0000
0000
;

//--------------- dance-single - chronon ----------------
#NOTEDATA:;
#STEPSTYPE:dance-single;
#DESCRIPTION:chronon;
#DIFFICULTY:Easy;
#METER:12;
#RADARVALUES:0,0,0,0,0;
#NOTES:
0000
0000
0000
0000
,
0000
0000
0000
0000
,
0000
0000
0000
0000
,
0000
0000
0000
0000
,
0000
0000
0000
0000
,
0000
0000
0000
0000
,
2002
0000
0000
0000
,
0000
0000
0000
3003
,
1000
0000
0000
0001
0000
0000
0200
0000
0000
0000
0000
0000
0300
0000
0000
0000
,
0001
0000
0000
1000
0000
0000
0200
0000
0000
0000
0000
0000
0300
0000
0000
0000
,
1000
0000
0000
0001
0000
0000
0020
0000
0000
0000
0000
0000
0130
0000
0000
0000
,
1000
0000
0000
0001
0000
0000
1000
0000
0000
0000
0000
0000
0000
0000
0000
0000
,
2002
0000
0000
3003
,
0110
0110
0000
0000
0000
0000
0000
0000
,
2002
0000
0000
3003
,
0110
0000
0110
0000
0000
0000
0000
0000
1001
0000
0000
1001
0000
0000
1001
0000
,
0001
0100
0010
0000
1000
0100
0010
0000
,
0001
0010
0100
0000
1000
0010
0100
0000
,
0001
0100
0001
0100
0010
1000
0010
1000
,
0200
0000
0000
0300
,
1200
0000
1300
0100
0010
0100
1000
0001
,
1000
0010
0100
0001
0100
0000
0001
0100
,
0201
0000
0301
0100
0010
0100
0001
1000
,
0001
1000
0000
0001
1000
0000
0010
0000
1000
0001
0000
1000
0001
0000
0010
0000
,
0021
0000
0031
0010
0100
0010
0001
1000
,
0001
0000
0000
0000
1000
0000
0000
0010
0000
0000
0100
0000
0020
0000
1030
0000
,
1020
0000
1030
0010
0100
0001
0010
0001
,
0000
0011
0000
0000
0011
0000
0000
1100
0000
0000
1100
0000
0000
1001
0000
0000
,
1000
0010
1000
0010
0100
0001
0100
0001
,
1000
0100
1000
0100
0010
0001
0010
0001
,
0000
0000
0001
0010
0100
1000
0100
1000
,
0001
0100
0001
0100
0010
1000
0010
1000
,
0001
0100
0000
0001
0100
0000
0000
0000
0010
0000
1000
0000
0001
0000
0000
0000
,
1000
0000
0000
0100
0000
0000
1000
0000
0000
0000
0100
0000
0000
0000
0010
0000
0000
0000
0001
0000
0000
0000
0000
0000
1000
0000
0000
0000
0000
0000
0000
0000
,
0001
0100
0000
0001
0100
0000
0010
1000
0000
0000
0100
0000
1000
0000
0100
0000
,
1000
0000
0000
0100
0000
0000
1000
0000
0000
0000
0000
0000
0100
0000
0000
0000
0010
0000
0000
0000
0001
0000
0000
0000
0100
0000
0000
0000
0001
0000
0000
0000
,
0200
0000
0000
0000
,
0320
0000
0000
0030
,
1010
0000
0000
0000
0101
0000
0000
0000
1001
0000
0001
0010
0000
0001
0010
0000
,
0011
1100
1001
1010
,
0020
0000
0000
0000
,
0230
0000
0000
0300
,
0101
0000
0000
0000
1010
0000
0000
0000
1001
0000
1000
0100
0000
1000
0100
0000
,
1100
0011
1001
0101
,
0001
0100
0001
0000
0101
0000
1001
0000
,
1000
0100
1000
0000
1100
0000
1001
0000
,
0011
1001
1010
1001
,
0101
1001
1100
1001
,
1000
0010
0000
1000
0010
0000
0100
0000
0001
0000
0000
0000
0020
0000
0000
0000
,
0031
0010
0000
0001
0010
0000
0100
0000
1000
0000
0000
0000
0020
0000
0000
0000
,
0030
1000
0010
0000
0100
0000
0000
0010
0100
0000
0001
0000
0000
1000
0000
0000
,
0000
0001
0010
0000
0100
0000
0000
0010
0100
0000
1000
0000
0000
0001
0000
0000
,
0000
1000
0001
0000
0100
0000
0000
0001
1000
0000
0100
0000
0000
1000
0000
0000
,
0001
1000
0000
0010
0000
0000
1000
0001
0200
0000
0000
0000
0320
0000
0000
0000
,
1030
0010
0100
0001
0010
0001
0010
0100
,
1000
0100
0010
0001
0100
0001
0100
0010
,
1000
0010
0100
0000
0001
0010
0100
0000
,
1000
0100
0000
0000
0010
0001
0000
0000
0200
0000
0000
0000
0301
0000
0000
0000
,
0001
0100
0010
1000
0100
1000
0100
0010
,
0001
0010
0100
1000
0010
1000
0010
0100
,
0001
0100
0010
0000
1000
0100
0010
0000
,
0001
1000
0001
0000
0000
0000
1000
0000
2002
0000
0000
0000
3003
0000
0000
0000
,
0000
0000
1000
0010
0100
0001
1000
0001
,
0010
0000
0001
0010
0100
1000
0100
1000
,
0010
0010
0100
0001
0010
0010
0100
1000
,
0001
0010
0000
0000
0100
1000
0000
0000
0020
0000
0000
0000
1030
0000
0000
0000
,
1000
0000
0000
0010
0000
0000
0100
0000
0001
0000
0000
0000
1001
0000
0000
0000
,
0001
0000
0000
0010
0000
0000
0100
0000
1000
0000
0000
0000
1001
0000
0000
0000
,
1001
0000
0000
1001
0000
0000
1001
0000
0000
0000
0000
0000
0000
0000
0000
0000
,
0110
0000
0000
0110
0000
0000
0110
0000
0000
0000
0000
0000
0000
0000
0000
0000
,
1001
0000
0000
1001
0000
0000
1001
0000
0000
0000
0000
0000
0110
0000
0000
0000
,
2002
0000
0000
3003
,
0001
0000
0000
1000
0000
0000
0001
0000
0000
0000
0000
0000
0000
0000
0000
0000
,
0011
0000
0001
0010
0100
0010
0001
1000
,
0001
1000
0000
0001
1000
0000
0000
0010
0000
0000
1000
0000
0010
0000
0000
0000
,
2010
3001
2010
3001
,
2010
0000
3001
0000
1010
0000
1000
0100
,
1100
0000
1000
0100
0010
0001
1000
0000
,
0001
1000
0000
0001
1000
0000
0100
0000
1000
0001
0000
1000
0001
0000
0100
0000
,
0101
0000
0001
0100
0010
1000
0010
1000
,
0001
0010
0001
0010
0100
1000
0100
1000
,
2002
0000
0000
3003
,
1001
0000
1001
0000
0000
1100
0000
0000
1100
0000
0000
0011
0000
0000
0001
0000
,
0100
0000
0000
0000
;

//--------------- dance-single - chronon ----------------
#NOTEDATA:;
#STEPSTYPE:dance-single;
#DESCRIPTION:chronon;
#DIFFICULTY:Medium;
#METER:15;
#RADARVALUES:0,0,0,0,0;
#NOTES:
0000
0000
0000
0000
,
0000
0000
0000
0000
,
0000
0000
0000
0000
,
0000
0000
0000
0000
,
0000
0000
0000
0000
,
0000
0000
0000
0000
,
2002
0000
0000
0000
,
0000
0000
0000
3003
,
0001
0000
0000
1000
0000
0000
0020
0000
0000
0000
0000
0000
0000
0000
0000
0000
,
1030
0000
0000
0001
0000
0000
0020
0000
0000
0000
0000
0000
0000
0000
0000
0000
,
0031
0000
0000
1000
0000
0000
0200
0000
0000
0000
0000
0000
0310
0000
0000
0000
,
0001
0010
0000
0100
1000
0000
0001
1000
0000
0000
0000
0000
0000
0000
0000
0000
,
1001
1000
0010
0100
0010
1000
0001
1000
,
1001
1001
0000
0000
0000
0000
0000
0000
,
1001
0001
0010
0100
0010
0001
1000
0001
,
1001
0000
1001
0000
0000
0000
0000
0000
1010
0000
0000
0101
0000
0000
1001
0000
,
1000
0000
0100
0000
0010
0000
0001
1000
0001
0000
0100
0000
0010
0000
1000
0001
,
1000
0000
0100
0000
0010
0000
0001
1000
0001
0000
0100
0000
0010
0000
1000
0001
,
1000
0010
1000
0000
0001
0100
0001
0000
0010
0001
0010
0000
0100
1000
0100
0000
,
2000
0000
3001
1001
,
1020
0000
0000
0000
1030
0010
0000
0100
0001
0000
0100
0000
0001
0000
0010
0000
,
0001
0010
0100
0000
1000
0100
0000
0010
0001
0000
0010
0000
0002
0000
0103
0000
,
0201
0000
0000
0000
0301
0100
0000
0010
1000
0000
0010
0000
1000
0000
0100
0000
,
1000
0100
0000
1000
0010
0000
0100
0000
0001
0100
0000
0001
0000
0010
0001
0000
,
0021
0000
0000
0000
0031
0010
0000
0100
1000
0000
0100
0000
1000
0000
0010
0000
,
1000
0010
1000
0010
0200
0000
0000
0302
0000
0000
1003
0000
0100
0000
0000
0000
,
1200
0000
0000
0000
1300
0100
0000
0010
0001
0000
1000
0001
1000
0001
1000
0001
,
1000
0001
0000
0100
0010
0000
1000
0001
0000
0010
0100
0000
1000
0100
0010
0001
,
1000
0100
0010
0100
0001
0100
0010
0001
,
0100
0001
0100
0010
0001
0010
0100
0010
,
2000
3002
0103
0010
0001
0010
0100
0010
,
1000
0100
0010
0100
0001
0100
0010
0100
,
1000
0001
0000
0100
0001
0000
0000
0000
0001
1000
0100
0000
1000
0000
0000
0000
,
0001
0000
0000
1000
0000
0000
0001
0000
0000
0000
0100
0000
0000
0000
0001
0000
0000
0000
1000
0000
0100
0000
0000
0000
1000
0000
0000
0000
0000
0000
0000
0000
,
0001
0010
0100
0000
0010
0100
1000
0000
0001
0100
0010
0000
0100
0010
1000
0000
,
0001
0000
0000
1000
0000
0000
0001
0000
0000
0000
0000
0000
1000
0000
0000
0000
0100
0000
0010
0000
0001
0000
0000
0000
0100
0000
0010
0000
1000
0000
0000
0000
,
0001
0002
0000
0000
0000
0000
0000
0000
,
0103
0200
0000
0000
0000
0000
0300
0000
,
0001
0100
0001
0000
1000
0100
1000
0000
1100
0000
1000
0100
0000
0010
0001
0000
,
1000
0100
1000
0000
0001
0100
0001
0000
0101
0000
0001
0000
1000
0000
0010
0000
,
1000
2000
0000
0000
0000
0000
0000
0000
,
3010
0020
0000
0000
0000
0000
0030
0000
,
1000
0010
1000
0000
0001
0010
0001
0000
0011
0000
0001
0010
0000
0100
1000
0000
,
0001
0000
0000
0010
0000
0000
0001
0000
0000
0000
0000
0000
1000
0000
0000
0010
0000
0000
1000
0000
0000
0000
0000
0000
0001
0000
0000
0000
0010
0000
0000
0000
0100
0000
0000
0000
1000
0000
0000
0000
0010
0000
0000
0000
0100
0000
0000
0000
,
0001
0000
0001
0000
0001
0000
0000
0000
0100
0000
0000
0100
0010
0000
1000
0000
,
0001
0000
0001
0000
0001
0000
0000
0010
0100
0000
0000
1000
0020
0000
0000
0000
,
1030
0000
1000
1000
0010
0000
0010
0020
,
0130
0000
0000
0000
0001
0000
0000
0000
1000
0000
0000
0000
0001
0000
0000
0000
0000
0000
0000
0000
0000
0001
0000
0000
0010
0000
0000
0100
0000
0000
0000
0000
0000
0100
0000
0000
1000
0000
0000
0001
0000
0000
2000
0000
0000
0000
0000
0000
,
3001
0000
0000
1000
0000
0000
0000
0000
0000
0001
0000
0000
1000
0000
0000
0000
0000
0000
0001
0000
0000
0000
0000
0000
0100
0000
0000
0000
0010
0000
0000
0000
1000
0000
0000
0000
0200
0000
0000
0000
0000
0000
0000
0000
0000
0000
0000
0000
,
1300
0001
0000
1000
0001
1000
0000
0001
1000
0100
0010
0001
0200
0000
0000
0000
,
0300
0001
0100
0000
0001
0100
0000
0010
1000
0000
0010
1000
0000
0100
0000
0000
,
0000
1000
0100
0000
1000
0100
0000
0010
0001
0000
0010
0001
0000
0100
0000
0000
,
0000
0001
0100
0000
0010
0100
0000
0001
0100
0000
0010
0100
0000
0001
0000
0000
,
1000
0100
0000
0010
0100
0000
1000
0100
2000
0000
0000
0000
3001
0000
0000
0000
,
1000
0010
0100
0000
0001
0010
0000
0011
0000
0000
0010
0000
0100
0000
0010
0000
,
0001
0010
0100
0000
1000
0010
0000
1010
0000
0000
0010
0000
0100
0000
0010
0000
,
1000
0010
0100
0001
0000
0100
0000
0000
0001
0010
0100
1000
0000
0100
0000
0000
,
1000
0100
1000
0000
0001
0010
0001
0000
0100
0001
0100
0001
0200
0000
0000
0000
,
0301
0100
0010
0000
1000
0100
0000
1100
0000
0000
0100
0000
0010
0000
0100
0000
,
1000
0100
0010
0000
0001
0100
0000
0101
0000
0000
0100
0000
1000
0000
0100
0000
,
0001
0100
0010
1000
0000
0010
0000
0000
1000
0100
0010
0001
0000
0100
0000
0000
,
0001
0100
0001
0000
0000
0000
1000
0000
0001
1000
0001
1000
0002
0000
0000
0000
,
1003
0000
0100
0010
0000
0100
1000
0000
0001
0000
1000
0000
0010
0000
0100
0000
,
0001
0000
0100
0010
0000
0100
0001
0000
1000
0001
0000
0010
0000
0000
0100
0000
,
1000
0100
0010
0000
0001
0000
1000
0000
0001
0100
0010
0000
1000
0000
0010
0000
,
1000
0010
1000
0000
0001
0100
0001
0000
0010
0001
0010
0001
0020
0000
0000
0000
,
0031
0000
0000
0010
0000
0000
0100
0000
1100
0000
0000
0000
1001
0000
0000
0000
,
1000
0000
0000
0010
0000
0000
0100
0000
0101
0000
0000
0000
1001
0000
0000
0000
,
0011
0000
0000
0110
0000
0000
1100
0000
1000
0000
0000
0000
0001
0000
0000
0000
,
1010
0000
0000
0110
0000
0000
0101
0000
0001
0000
0000
0000
1000
0000
0000
0000
,
0011
0000
0000
0110
0000
0000
1100
0000
1000
0000
0000
0000
0001
0000
0000
0000
,
2002
0000
0000
3003
,
0001
0100
0000
0010
1000
0000
0001
1000
0000
0000
0000
0000
0000
0000
0000
0000
,
1200
0000
0000
0000
1300
0100
0000
1000
0001
0000
1000
0010
0100
0001
1000
0000
,
0001
0010
0000
0010
0100
0000
0100
1000
0000
1000
0001
0000
0200
0000
0300
0000
,
0201
0310
0102
0013
,
0201
0000
0310
0000
0101
0001
0010
0000
,
0021
0000
0000
0000
0031
0010
0000
0001
1000
0010
0100
0001
1000
0000
0010
0000
,
1000
0010
0000
1000
0000
0100
0010
0000
0001
0100
0000
0010
0000
1000
0010
0000
,
1020
0000
0130
0010
0001
0010
0100
0010
,
1000
0100
0010
0100
0001
0100
0010
0001
,
1001
1000
0010
0100
0010
1000
0001
1000
,
1001
0000
1001
0000
0000
0011
0000
0000
0110
0000
0000
1100
0000
0000
1000
0000
,
0010
0000
0000
0000
;

//--------------- dance-single - chronon ----------------
#NOTEDATA:;
#STEPSTYPE:dance-single;
#DESCRIPTION:chronon;
#DIFFICULTY:Hard;
#METER:17;
#RADARVALUES:0,0,0,0,0;
#NOTES:
0000
0000
0000
0000
,
0000
0000
0000
0000
,
0000
0000
0000
0000
,
0000
0000
0000
0000
,
0000
0000
0000
0000
,
0000
0000
0000
0000
,
2002
0000
0000
0000
,
0000
0000
0000
3003
,
1000
0000
0000
0010
0000
0000
0200
0000
0000
0000
0000
0000
0000
0000
0000
0000
,
0301
0000
0000
0010
0000
0000
0200
0000
0000
0000
0000
0000
0000
0000
0000
0000
,
1300
0000
0000
0010
0000
0000
0200
0000
0010
0000
0000
0000
0301
0000
0000
0000
,
1000
0010
0000
0100
0001
0000
1000
0001
0000
0000
0000
0000
0000
0000
0000
0000
,
1001
0000
1000
0000
0100
0010
0100
0000
0010
0000
0001
0000
1000
0000
0001
0000
,
1001
1001
0001
0100
0010
1000
0001
1000
,
1001
0000
0001
0000
0010
0100
0010
0000
0100
0000
1000
0000
0001
0000
1000
0000
,
1001
0000
1001
0000
1000
0000
0010
0100
0010
0000
0000
0110
0000
0000
1001
0000
,
0001
1000
0001
1000
0001
0000
0010
0100
1000
0001
1000
0001
1000
0000
0010
0100
,
0001
1000
0001
1000
0001
0000
0100
0010
1000
0001
1000
0001
1000
0000
0100
0010
,
0001
0010
0001
0010
0100
1000
0100
1000
0001
0100
0001
0100
0010
1000
0010
1000
,
0002
0000
0000
0003
,
0101
0000
0000
0000
0002
0100
0000
2003
0100
0000
3001
1000
0100
0010
0001
0000
,
1000
0001
0100
0010
2000
0010
0000
3002
0010
0000
1003
0001
0010
0000
0100
0000
,
1100
0000
0000
0000
2000
0100
0000
3002
0100
0000
1003
0001
0100
0010
1000
0000
,
0010
1000
0000
0001
1000
0100
0010
0000
0100
1000
0000
0001
0000
1000
0010
0000
,
1010
0000
0000
0000
2000
0010
0000
3002
0010
0000
1003
0001
0010
0100
1000
0000
,
0100
1000
0100
1000
0001
0000
0000
1001
0000
0000
0101
0000
0001
0010
0000
0000
,
0011
0000
0000
0000
0001
0010
0100
1000
0001
0000
1000
0010
1000
0010
1000
0010
,
1000
0010
0000
0100
0001
0000
1000
0100
0000
0010
0001
0000
1000
0001
0100
0010
,
1000
0010
1000
0000
0001
0100
0001
0000
1000
0100
1000
0000
0001
0010
0001
0000
,
1000
0100
1000
0000
0001
0100
0001
0000
1000
0100
1000
0000
0001
0100
0001
0000
,
2000
0000
3002
0000
1003
0010
1000
0000
0001
0010
0001
0000
1000
0100
1000
0000
,
0001
0010
0001
0000
1000
0010
1000
0000
0001
0010
0001
0000
1000
0010
1000
0000
,
0001
0100
0000
0100
0010
0000
0000
0000
1000
0001
0010
0100
2000
0000
0100
0000
,
3001
0000
0000
0010
0000
0000
0100
0000
0000
0000
1000
0000
0000
0000
0001
0000
0000
0000
1000
0000
0010
0000
0100
0000
0002
0000
0000
0000
0100
0000
0000
0000
,
1003
0001
0010
0001
1000
0010
1000
0001
0010
0100
1000
0000
0010
0100
0001
0000
,
1000
0000
0000
0010
0000
0000
0100
0000
0000
0000
0000
0000
0001
0000
1000
0000
0010
0000
0100
0000
0001
0000
1000
0000
0100
0000
0010
0000
0001
0000
0000
0000
,
1000
2000
0000
0000
0000
0000
0000
0000
,
3100
0200
0000
0000
0000
0000
0300
0000
,
1000
0100
0010
0000
0100
0010
0001
0000
0101
0000
0001
0100
0000
0010
0100
0010
,
0000
0100
0001
0000
0100
0010
1000
0000
1100
0000
1000
0100
0010
0001
1000
0000
,
0001
0002
0000
0000
0000
0000
0000
0000
,
0103
0200
0000
0000
0000
0000
0300
0000
,
0001
0100
0010
0000
0100
0010
1000
0000
1010
0000
1000
0100
0000
0010
0100
0010
,
0000
0000
0000
0100
0000
0000
1000
0000
0000
0000
0000
0000
0100
0000
0000
0010
0000
0000
0001
0000
0000
0000
0000
0000
0010
0000
0000
0000
0100
0000
0000
0000
1000
0000
0000
0000
0010
0000
0000
0000
0100
0000
0000
0000
0001
0000
0000
0000
,
1000
0000
0001
1000
0010
0000
1000
0000
1010
0000
0000
1000
0001
0000
0010
0000
,
0011
0000
0001
0000
1000
0000
0100
0000
1100
0000
0000
1000
0001
0000
0100
0000
,
0101
0000
0101
0110
1010
0000
1001
1100
,
1000
0000
0000
0000
0100
0000
0000
0000
0010
0000
0000
0000
0001
0000
0000
0000
0000
0000
0000
0000
0000
1000
0000
0000
0001
0000
0000
0100
0000
0000
0000
0000
0000
0001
0000
0000
0100
0000
0000
0010
0000
0000
1000
0000
0000
0000
0000
0000
,
0010
0000
0000
1000
0000
0000
0000
0000
0000
0010
0000
0000
0100
0000
0000
0000
0000
0000
0001
0000
0000
0000
0000
0000
0010
0000
0000
0000
0001
0000
0000
0000
0010
0000
0000
0000
0000
0000
0000
0000
0000
0000
0000
0000
0000
0000
0000
0000
,
0010
0001
0000
0010
0100
1000
0100
0000
1000
0010
1000
0010
0000
0000
0000
0000
,
0100
0001
0100
0000
0001
0100
0000
0010
1000
0000
0010
1000
0000
0001
1000
0100
,
0000
1000
0100
0000
1000
0100
0000
0010
0001
0000
0010
0001
0000
1000
0001
0000
,
0000
0100
0001
0000
0100
0010
0000
0100
1000
0000
0100
0010
0000
0100
0001
0000
,
1000
0100
0000
0010
0100
0000
0001
0100
0010
0100
1000
0001
2000
0000
0000
0000
,
3001
1000
0010
1000
0001
0100
0001
0020
0000
0000
0031
0000
0010
0000
0100
0000
,
1000
0001
0010
0001
1000
0100
1000
0020
0000
0000
1030
0000
0010
0000
0100
0000
,
0001
0100
0010
1000
0000
0001
0000
0100
0001
0100
0010
1000
0000
0001
1000
0100
,
1000
0100
0010
0000
0100
0010
0001
0000
0100
0001
0100
0001
0100
0010
1000
0001
,
1000
0001
0100
0001
1000
0010
1000
0200
0000
0000
1300
0000
0100
0000
0010
0000
,
0001
1000
0100
1000
0001
0010
0001
0200
0000
0000
0301
0000
0100
0000
0010
0000
,
1000
0010
0100
0001
0000
1000
0000
0010
1000
0010
0100
0001
0000
1000
0001
0010
,
0001
0010
0100
0000
0000
0000
1000
0000
0010
1000
0010
1000
0010
0100
0001
1000
,
0002
0000
0000
0100
0000
0000
1003
0000
0001
1000
0001
0010
0100
1000
0001
0000
,
2000
0000
0000
0100
0000
0000
3001
0000
1000
0001
0000
1000
0000
0010
0100
0000
,
0001
0010
0100
0000
1000
0000
0100
0000
1000
0010
0100
0000
0001
0100
0000
0010
,
1000
0010
0100
0000
0010
0100
0001
0000
0010
0001
0010
0001
0010
0000
0000
0000
,
0011
0000
0000
0110
0000
0000
1100
0000
2000
0000
0001
0000
3010
0000
1000
0000
,
1010
0000
0000
0110
0000
0000
0101
0000
0002
0000
1000
0000
0013
0000
0001
0010
,
0001
0000
0000
0011
0000
0000
1010
0000
0000
0000
1000
0010
1000
0001
1000
0010
,
1000
0000
0000
1010
0000
0000
0011
0000
0000
0000
0001
0010
0001
1000
0001
0010
,
0001
0000
0000
0011
0000
0000
1010
0000
0000
0000
1000
0010
1000
0001
1000
0010
,
2000
0000
0000
0000
0000
0000
0000
0000
0000
0000
0000
0000
3001
1000
0001
1000
,
0001
0010
0000
0010
0100
0000
0100
1000
0002
0000
0000
0000
0003
0000
0000
0000
,
0101
0000
0000
0000
0002
0100
0000
2003
0100
0000
3001
0100
0010
1000
0001
0000
,
1000
0100
0000
0100
0010
0000
0000
0110
0000
0000
1001
0000
0001
0000
0100
0000
,
0020
0031
0210
1300
,
0110
0000
0010
0100
1001
0001
1000
0100
,
1000
0100
1000
0100
2000
0100
0000
3001
0100
0001
0100
0010
1000
0010
0100
0000
,
0010
1000
0000
0001
0000
1000
0100
0010
0100
1000
0000
0001
0000
1000
0010
0000
,
1010
0000
0000
0000
1000
0010
1000
0010
0000
0100
0001
0100
0001
1000
0001
0000
,
0010
0000
0100
0000
0100
1000
0001
0000
0100
0000
0010
0100
0000
0010
0100
0000
,
2002
0000
0000
3003
,
1001
0000
1001
0000
0000
0011
0000
0000
1100
0000
0000
1000
0001
0100
0010
0100
,
1000
0000
0000
0000
;

//--------------- dance-single - chronon ----------------
#NOTEDATA:;
#STEPSTYPE:dance-single;
#DESCRIPTION:chronon;
#DIFFICULTY:Challenge;
#METER:19;
#RADARVALUES:0,0,0,0,0;
#NOTES:
0000
0000
0000
0000
,
0000
0000
0000
0000
,
0000
0000
0000
0000
,
0000
0000
0000
0000
,
0000
0000
0000
0000
,
0000
0000
0000
0000
,
2002
0000
0000
0000
,
0000
0000
0000
0000
0000
0000
3003
1000
,
0001
0000
0000
0010
0000
0000
0200
0000
0000
0000
0000
0000
1300
0000
0001
0000
,
1000
0000
0000
0010
0000
0000
0200
0000
0000
0000
0000
0000
0301
0000
1000
0000
,
0001
0000
0000
0010
0000
0000
0100
0000
1000
0100
1000
0000
0001
1000
0010
0100
,
0001
0100
0000
0100
0010
0000
0010
1000
0000
0000
0000
0000
0001
1000
0100
0010
,
0001
0000
0010
0000
0100
0010
0100
0000
1000
0000
0001
0000
1000
0000
0010
0000
,
0110
0000
0110
0000
0100
0000
0010
0000
1000
0000
0001
0000
1000
0001
0010
0100
,
1000
0000
0100
0000
0010
0100
0010
0000
0001
0000
1000
0000
0010
0000
0100
0000
,
0110
0000
0110
0000
0010
0000
0100
0001
0010
0000
0000
0011
0000
0000
1100
0000
,
1000
0100
1000
0100
0010
0100
1000
0001
1000
0010
1000
0010
0100
0010
1000
0001
,
1000
0100
0010
0100
1000
0100
0010
0001
1000
0010
0100
0010
1000
0010
0100
0001
,
1000
0100
0010
0001
1000
0010
0100
0001
1000
0100
0010
0001
0100
0010
1000
0001
,
2000
0000
0000
0000
0000
0000
0000
0000
3001
1000
0010
1000
0001
0100
0010
0100
,
2000
0000
0000
0000
3100
0010
0100
0001
1000
0000
0100
0010
0100
1000
0001
0000
,
1000
0000
0001
0000
0100
0001
0100
0000
0001
0000
1000
0000
0000
0000
0010
0000
1000
0000
0000
0000
0010
0000
1000
0000
0200
0000
0010
0000
0000
0000
0000
0000
,
0302
0000
0000
0000
0103
0010
0100
1000
0001
0000
0100
0010
0100
0001
1000
0000
,
0002
1000
0000
0013
0000
0100
0010
0001
2000
0001
0000
3010
0000
0100
0010
0000
,
0002
0000
0000
0000
0013
0100
0010
1000
0001
0000
0010
0100
0010
0001
1000
0000
,
0001
1000
0001
0000
1000
0000
0010
0000
1000
0000
0000
0000
0000
0000
1020
0000
0000
0000
0000
0000
0130
0000
0001
0000
0020
0000
0100
0000
0000
0000
0000
0000
,
2030
0000
0000
0000
0000
0000
0000
0000
3010
0000
0100
0000
1000
0000
0001
1000
0001
0000
0000
0000
0100
0000
0010
0000
0100
0000
0010
0000
1000
0000
0000
0000
,
0001
1000
0001
0100
0001
1000
0100
1000
0001
0010
0001
1000
0010
1000
0001
0010
,
0001
1000
0100
1000
0100
1000
0001
1000
0001
1000
0010
1000
0010
1000
0001
1000
,
0100
0010
0100
0010
0001
1000
0001
1000
0010
0100
0010
0100
0001
1000
0001
0000
,
2000
0000
3002
0000
0103
0001
1000
0001
1000
0001
0010
0001
0010
0001
1000
0001
,
0010
0100
0010
0100
1000
0001
1000
0001
0100
0010
0100
0010
1000
0001
1000
0001
,
1000
0000
0010
0000
0000
0000
0010
0000
0100
0000
0000
0000
0000
0000
0000
0000
0001
1000
0001
0000
1000
0000
0100
0000
0020
0000
0000
0000
0100
0000
0000
0000
,
0031
0000
0000
0010
0000
0000
0010
0000
0000
0000
0100
0000
0000
0000
1000
0000
0000
0000
0001
1000
0001
0000
0100
0000
0020
0000
0000
0000
0100
0000
0000
0000
,
1030
0010
0100
0001
1000
0001
0010
0100
1000
0100
0010
0001
1000
0001
0100
0010
,
1000
0000
0000
0000
0000
0000
0000
0000
0000
0010
0000
0000
0000
0000
0000
0000
0000
0000
0010
0000
0000
0000
0000
0000
0100
0000
0000
0000
0000
0000
0000
0000
0000
0000
0000
0000
0001
0000
0000
0000
0000
0000
0000
0000
0000
0000
0000
0000
1000
0000
0000
0000
0100
0000
0000
0000
1000
0000
0000
0000
0100
0000
0000
0000
1000
0000
0000
0000
0100
0000
0000
0000
0010
0000
0000
0000
0001
0000
0000
0000
0010
0000
0000
0000
0001
0000
0000
0000
0010
0000
0000
0000
0001
0000
0000
0000
,
1000
2000
0000
0000
0000
0000
0000
0000
,
3010
0000
0020
0000
0000
0000
0000
0000
0000
0000
0130
0010
0100
0001
1000
0000
,
0001
0000
0010
0000
0001
0000
0010
0000
0000
0000
0000
0000
0100
0000
1000
0000
0100
0000
1000
0000
0000
0000
0000
0000
1100
0000
0000
0000
0000
0000
1000
0000
0000
0001
0000
0000
0000
0000
0000
1000
0000
0000
0001
0000
0000
0100
0000
0000
,
0000
0000
0000
0001
0000
0000
1000
0000
0000
0000
0000
0000
0001
0000
0010
0000
0001
0000
0010
0000
0000
0000
0000
0000
0011
0000
0000
0000
0000
0000
0001
0000
0000
0010
0000
0000
0100
0000
0000
1000
0000
0000
0010
0000
0000
0100
0000
0000
,
0001
0002
0000
0000
0000
0000
0000
0000
,
0103
0000
0200
0000
0000
0000
0000
0000
0000
0000
0310
0100
0010
1000
0001
0000
,
1000
0000
0100
0000
1000
0000
0100
0000
0000
0000
0000
0000
0010
0000
0001
0000
0010
0000
0001
0000
0000
0000
0000
0000
0011
0000
0000
0000
0000
0000
0001
0000
0000
1000
0000
0000
0000
0000
0000
0001
0000
0000
1000
0000
0000
0010
0000
0000
,
0000
0000
0000
1000
0000
0000
0001
0000
0000
0000
0000
0000
1000
0000
0100
0000
1000
0000
0100
0000
0000
0000
0000
0000
1100
0000
0000
0000
1000
0000
0000
0000
0001
0000
0000
0000
0100
0000
0000
0000
0010
0000
0000
0000
0100
0000
0000
0000
,
0101
0000
0000
0000
0001
0100
0001
0000
1000
0000
0000
0000
0010
0000
0000
0000
1010
0000
0000
0000
1000
0000
0001
0000
1000
0000
0000
0000
0100
0000
0000
0000
,
1100
0000
0000
0000
0110
0000
0000
0000
0011
0000
0000
0000
0001
0000
0010
0001
0010
0000
0000
0000
0001
0000
1000
0000
0020
0000
0000
0000
0030
0000
0000
0000
,
1010
0000
1010
0110
0101
0000
0101
0011
,
0001
0000
0000
0000
0000
0000
0000
0000
0010
0000
0000
0000
0000
0000
0000
0000
0100
0000
0000
0000
0000
0000
0000
0000
1000
0000
0000
0000
0000
0000
0000
0000
0000
0000
0000
0000
0100
0000
0000
0000
0000
0000
1000
0000
0000
0100
0000
0000
1000
0000
0000
0000
0000
0000
0001
0000
0000
0000
0000
0000
0000
0000
0000
0000
0000
0000
1000
0000
0000
0010
0000
0000
1000
0000
0000
0000
0000
0000
0001
0000
0000
0000
0000
0000
0100
0000
0000
0000
0000
0000
0000
0000
0000
0000
0000
0000
,
0001
0000
0000
0100
0000
0000
0000
0000
0000
0100
0000
0000
0010
0000
0000
0000
0000
0000
0010
0000
0000
0000
0000
0000
1000
0000
0000
0000
0001
0000
0000
0000
1000
0000
0000
0000
0200
0000
0000
0000
0000
0000
0000
0000
0000
0000
0000
0000
,
1300
0000
0100
0000
0000
0000
0010
0000
0100
0010
0100
0000
1000
0000
0001
0000
1000
0000
0010
0000
0100
0000
0001
0000
0200
0000
0000
0000
0000
0000
0000
0000
,
0301
0100
0001
0000
0100
0010
0000
1000
0010
0000
1000
0001
0000
1000
0100
1000
,
0000
0100
1000
0000
0100
0010
0000
0001
0010
0000
0001
1000
0000
0001
0100
0000
,
0000
0100
0001
0000
0100
0010
0000
0100
1000
0000
0100
0010
0000
0100
0001
1000
,
0100
1000
0000
0100
0010
0000
0100
0001
0100
0010
0100
1000
0001
1000
0010
0100
,
0001
1000
0010
1000
0001
0100
0001
0010
0100
1000
0100
1000
0100
0010
0001
0010
,
0001
1000
0100
1000
0001
0010
0001
0100
0010
1000
0010
1000
0010
0100
0001
0100
,
0001
0000
0100
0000
0001
0100
0010
0000
1000
0000
0001
0000
1000
0000
0100
0000
1000
0100
0010
0000
0001
0000
1000
0000
0001
0000
0100
0000
0010
0000
0100
0000
,
0001
0000
0100
0000
0001
0000
0100
0000
0010
0000
1000
0000
0001
0000
0010
0000
0001
0000
0010
0000
0100
0000
1000
0000
0001
0000
1000
0000
0001
0000
1000
0000
0001
0000
1000
0000
0010
0000
0000
0100
0000
0000
0001
0000
0000
0100
0000
0000
,
0001
1000
0010
1000
0001
0100
0001
0010
0100
1000
0100
1000
0100
0010
0001
0010
,
0001
1000
0100
1000
0001
0010
0001
0100
0010
1000
0010
0100
1000
0100
0001
0100
,
0001
0000
0100
0000
0001
0100
0010
0000
1000
0000
0001
0000
1000
0000
0100
0000
1000
0100
0010
0000
0001
0000
1000
0000
0001
0000
0100
0000
0010
0000
1000
0000
,
0001
0000
1000
0000
0001
0000
1000
0000
0000
0000
0000
0000
0000
0000
0000
0000
0000
0000
1001
0000
0000
0000
0000
0000
0001
0000
1000
0000
0001
0000
1000
0000
0001
0000
1000
0000
0001
0000
0000
0100
0000
0000
0010
0000
0000
1000
0000
0000
,
0200
0000
0000
0000
1300
0100
0010
0100
1000
0100
0010
0001
1000
0001
0100
0010
,
0100
0000
0001
0000
1000
0000
0100
0000
0010
0000
0001
0000
1000
0000
0001
1000
0001
0000
1000
0000
0000
0000
1001
0000
0000
0000
0000
0000
0011
0000
0000
0000
,
0010
0000
0001
0000
0100
0000
0000
0000
0001
0000
0100
0000
0010
0000
0100
0000
0001
0100
0001
0000
0100
0000
0010
0000
1000
0000
0001
0000
1000
0000
0100
0000
,
1000
0000
0100
0000
1000
0000
0100
0000
0010
0000
0001
0000
1000
0000
0010
0000
1000
0000
0010
0000
0100
0000
0001
0000
1000
0000
0001
0000
1000
0000
0001
0000
1000
0000
0001
0000
0010
0000
0000
0001
0000
0000
0010
0000
0000
0000
0000
0000
,
0011
0000
0000
1100
0000
0000
1010
0000
2000
0000
0010
0000
3001
0000
1000
0000
,
1010
0000
0000
0101
0000
0000
0011
0000
0001
0010
0100
1000
0001
1000
0001
0000
,
1001
0000
0000
0000
0000
0000
0000
0000
0000
1100
0000
0000
0000
0000
0000
0000
0000
0000
1010
0000
0000
0000
0000
0000
1000
0000
0000
0010
0000
0000
0100
0000
0000
0001
0000
0000
1000
0000
0001
0000
1000
0000
0001
0000
0000
0000
0000
0000
,
1001
0000
0000
0000
0000
0000
0011
0000
0000
0000
0000
0000
0101
0000
0000
0000
0001
0000
0100
0000
0010
0100
0010
0000
1000
0000
0001
0000
1000
0000
0000
0000
,
1001
0000
0000
1010
0000
0000
1100
0000
1000
0100
0010
0001
0200
0000
0000
0000
,
0302
0000
0000
0000
0000
0000
0000
0000
0000
0000
0000
0000
1003
0000
0000
0000
0000
0000
0001
1000
0001
1000
0001
1000
,
0001
0010
0000
0010
0100
0000
0100
1000
0001
1000
0010
0100
0001
0100
0010
0100
,
2000
0000
0000
0000
3100
0010
0100
0001
1000
0100
0010
0100
1000
0001
1000
0010
,
0100
0001
0000
0100
0001
0000
1000
0001
0000
0010
0001
0000
0010
0000
0200
0000
,
0001
0000
0310
0000
1100
2000
0001
3010
,
1010
0000
0000
0000
0000
0000
0000
0000
1000
0000
0000
0000
0010
0000
1000
0010
1000
0000
0000
0000
0010
0000
0000
0000
0100
0000
0001
0000
0010
0000
0000
0000
,
0001
0000
0000
0010
0000
0000
0001
0000
0000
0010
0000
0000
0100
0000
0000
0010
0000
0000
0100
0000
0000
1000
0000
0000
0001
0000
1000
0000
0001
0000
1000
0000
0010
0000
0100
0000
0001
0000
0000
0100
0000
0000
0010
0000
0000
1000
0000
0000
,
0020
0000
0000
0000
0000
0000
1000
0000
0000
0000
0000
0000
0000
0000
0000
0000
0000
0000
0130
0000
0000
0000
0000
0000
0010
0000
0000
0000
0000
0000
1000
0000
0000
0000
0000
0000
0001
0000
0000
1000
0000
0000
0100
0000
0000
0000
0000
0000
0020
0000
0000
0000
0000
0000
0001
0000
0000
0000
0000
0000
0000
0000
0000
0000
0000
0000
0130
0000
0000
0000
0000
0000
0010
0000
0000
0000
0000
0000
0001
0000
0000
0000
0000
0000
1000
0000
0000
0000
0001
0000
0000
0000
0100
0000
0000
0000
,
0001
1000
0010
1000
0010
1000
0001
1000
0001
1000
0100
1000
0100
1000
0001
1000
,
0010
0000
0100
0000
0010
0000
0100
0000
0001
0000
1000
0000
0001
1000
0001
0000
1000
0000
0100
0010
0100
0000
1000
0000
0001
1000
0001
0000
1000
0000
0010
0100
,
0010
0100
0010
0100
0001
1000
0001
1000
0100
0010
0100
0010
0001
1000
0001
1000
,
0001
0010
0001
0010
0100
1000
0100
1000
0001
1000
0001
1000
0001
0100
0010
0100
,
1000
0000
0000
0000
;
