#VERSION:0.83;
#TITLE:Invisible Frenzy;
#SUBTITLE:;
#ARTIST:Kobaryo;
#TITLETRANSLIT:;
#SUBTITLETRANSLIT:;
#ARTISTTRANSLIT:;
#GENRE:SPEEDCORE;
#ORIGIN:;
#CREDIT:;
#BANNER:Invisible Frenzy.png;
#BACKGROUND:Invisible Frenzy-bg.png;
#PREVIEWVID:;
#JACKET:Invisible Frenzy-jacket.png;
#CDIMAGE:;
#DISCIMAGE:;
#LYRICSPATH:;
#CDTITLE:;
#MUSIC:Invisible Frenzy.ogg;
#OFFSET:-0.125000;
#SAMPLESTART:100.032997;
#SAMPLELENGTH:12.000000;
#SELECTABLE:YES;
#BPMS:0.000=245.000,
64.000=122.500,
68.000=245.000,
164.000=122.500,
172.000=245.000,
188.000=122.500,
196.000=245.000,
204.000=122.500,
220.000=245.000,
228.000=122.500,
240.000=245.000,
264.000=61.250,
272.000=122.500,
288.000=245.000,
312.000=122.500,
316.000=245.000,
380.000=122.500,
396.000=245.000;
#STOPS:408.750=0.122,
409.250=0.122;
#DELAYS:;
#WARPS:;
#TIMESIGNATURES:0.000=4=4;
#TICKCOUNTS:0.000=4;
#COMBOS:0.000=1;
#SPEEDS:0.000=1.000=0.000=0;
#SCROLLS:0.000=1.000,
287.000=0.500,
288.000=1.000;
#FAKES:;
#LABELS:0.000=Song Start;
#BGCHANGES:;
#KEYSOUNDS:;
#ATTACKS:
;

//---------------dance-single - ----------------
#NOTEDATA:;
#CHARTNAME:;
#STEPSTYPE:dance-single;
#DESCRIPTION:;
#CHARTSTYLE:;
#DIFFICULTY:Hard;
#METER:18;
#RADARVALUES:0.845608,1.126282,0.332128,0.516643,0.564617,802.000000,757.000000,45.000000,70.000000,37.000000,0.000000,0.000000,0.000000,0.000000,0.845608,1.126282,0.332128,0.516643,0.564617,802.000000,757.000000,45.000000,70.000000,37.000000,0.000000,0.000000,0.000000,0.000000;
#CREDIT:BlindedVanguard573;
#NOTES:
// measure 0
0000
0000
0000
0000
,  // measure 1
0000
0000
0000
0000
,  // measure 2
0000
0000
0000
0000
,  // measure 3
0000
0000
0000
0000
,  // measure 4
0000
0000
0000
0000
,  // measure 5
0000
0000
0000
0000
,  // measure 6
0000
0000
0000
0000
,  // measure 7
0000
0000
0000
0000
,  // measure 8
0000
0000
0000
0000
,  // measure 9
0000
0000
0000
0000
,  // measure 10
1001
2000
0100
0000
0001
0000
3010
0000
,  // measure 11
1001
0002
0100
0000
1003
0010
0100
0001
,  // measure 12
1001
2000
0010
0000
0001
0000
3100
0000
,  // measure 13
1001
0002
0010
0000
1003
0100
0010
0001
,  // measure 14
1000
0001
0100
0010
1000
1000
0001
0001
,  // measure 15
1000
0010
1000
0000
0001
0010
0001
0000
0100
0010
0100
0010
1000
0001
1000
0001
,  // measure 16
2000
0000
0000
0000
0000
0000
0000
0000
3000
0000
0000
0000
0000
0000
0000
0000
0001
0000
0100
0000
1000
0000
0100
0000
0001
0000
1000
0001
2000
0000
0000
0000
,  // measure 17
3001
0010
0100
1000
0010
1000
0100
0010
,  // measure 18
0001
0100
0010
1000
0100
1000
0010
0100
,  // measure 19
0001
1000
0100
0010
0001
1000
0001
0001
,  // measure 20
0000
0000
1000
0000
1000
0000
0001
0000
1000
0001
1000
0001
2000
0000
3000
0000
,  // measure 21
0001
0010
0001
0010
0100
0001
0100
0001
,  // measure 22
1000
0010
1000
0010
0100
1000
0100
1000
,  // measure 23
1100
0011
0101
1010
,  // measure 24
0001
0000
0100
0000
1000
0000
0100
0000
0001
0000
1000
0001
2000
0000
0000
0000
,  // measure 25
3001
1000
0100
0010
0001
0100
0010
1000
,  // measure 26
0100
0010
0001
0100
0010
0001
0010
0100
,  // measure 27
0001
1000
0100
0010
0001
0100
0001
0001
,  // measure 28
0000
0000
1000
0000
1000
0000
0001
0000
1000
0001
1000
0001
1000
0000
0000
0000
,  // measure 29
1100
0000
0000
0011
0000
0000
1010
0000
,  // measure 30
0000
0101
0000
1001
0000
1100
1000
0000
,  // measure 31
0001
0100
0001
0000
1000
0000
0001
0100
0001
0000
0100
0000
0001
1000
0100
0000
,  // measure 32
1000
0010
1000
0000
0001
0000
1000
0000
0010
0000
0100
0001
2000
0000
0000
0000
,  // measure 33
3001
1000
0010
0100
0001
0010
0100
1000
,  // measure 34
0010
0100
0001
0010
0100
0001
0100
0010
,  // measure 35
0001
1000
0010
0100
0001
0010
0001
0001
,  // measure 36
0000
0000
1000
0000
1000
0000
0001
0000
1000
0001
1000
0001
1000
0000
0000
0000
,  // measure 37
1010
0000
0000
0101
0000
0000
1100
0000
,  // measure 38
0000
0011
0000
1001
0000
1010
1000
0000
,  // measure 39
0001
1000
0100
0000
1000
0001
0100
0000
0001
1000
0010
0000
1000
0001
0010
0000
,  // measure 40
0200
0000
0310
1001
,  // measure 41
0001
0000
0010
0100
1000
0010
0100
0001
0000
0000
0100
0000
0010
0000
0100
0000
,  // measure 42
0001
0000
0010
0100
0000
0001
0100
0010
0001
0100
0010
1000
0001
0010
0100
0000
,  // measure 43
1100
0000
0000
0000
1001
0000
0000
0000
0001
0000
0100
00M0
0100
0000
1000
0000
,  // measure 44
1010
0000
0000
0000
1001
0000
0000
0000
1000
0000
0010
0M00
0010
0000
0001
0000
,  // measure 45
0101
0000
0000
0000
1001
0000
0000
0000
0001
0000
0100
00M0
0100
0000
1000
0000
,  // measure 46
0001
1000
0001
0000
0020
0000
0000
0030
,  // measure 47
1001
0000
0000
0000
,  // measure 48
0000
0000
0000
0000
,  // measure 49
0100
00M0
0100
00M0
0100
00M0
0100
00M0
0100
00M0
0100
00M0
0100
00M0
0100
00M0
,  // measure 50
0100
00M0
0100
00M0
0100
00M0
0100
00M0
0100
00M0
0100
00M0
0100
00M0
0100
0000
,  // measure 51
0000
0001
0010
0100
1000
0001
2002
3003
,  // measure 52
1000
0020
0100
0000
0001
0000
1030
0010
1000
0100
0010
0000
0001
0100
0010
1000
,  // measure 53
0001
0020
0100
0000
1000
0000
0031
0010
0100
0001
0100
0000
0010
0001
1000
0010
,  // measure 54
1000
0200
0010
0000
0001
0000
1300
0100
1000
0010
0100
0000
0001
0010
0100
1000
,  // measure 55
1200
0000
0000
0300
M200
0000
0001
0000
0000
0300
020M
0000
1000
0000
0000
0300
,  // measure 56
M200
0000
0001
0000
0000
0300
010M
0000
1000
0000
0010
0000
0100
0000
0001
0000
,  // measure 57
2000
0000
0000
0000
3001
0000
2000
0010
0000
3100
0000
2000
0010
0000
0100
0000
,  // measure 58
3002
0000
0010
0000
0100
0000
0013
0000
0002
0100
0000
0013
0000
0100
0001
0000
,  // measure 59
2000
0000
0100
0000
3010
0000
2000
0100
0000
3010
0000
2000
0100
0000
3010
0000
,  // measure 60
1020
0000
0000
0030
M020
0000
0001
0000
0000
0030
002M
0000
1000
0000
0000
0030
,  // measure 61
M020
0000
0001
0000
0000
0030
001M
0000
1000
0000
0100
0000
0010
0000
0100
0000
,  // measure 62
1000
0000
0000
0000
M200
0000
0001
0000
0000
0300
020M
0000
1000
0000
0000
0300
,  // measure 63
M200
0000
0001
0000
0000
0300
010M
0000
1000
0000
0010
0000
0100
0000
0001
0000
,  // measure 64
2000
0000
0000
0010
0000
0000
3002
0000
0000
0100
0000
0000
2003
0000
0000
0100
,  // measure 65
0000
0000
3002
0000
0000
0010
0000
0000
1003
0001
1000
0001
0100
0010
0100
0010
,  // measure 66
2000
0000
0000
3000
0000
0000
0000
0000
0002
0000
0000
0003
0000
0000
0000
0000
,  // measure 67
0020
0000
0000
0030
0000
0000
0000
0000
0200
0000
0300
0000
2000
0000
3001
1000
,  // measure 68
0002
0000
0010
0000
0103
0000
0001
0000
1000
0100
0010
0001
1000
0010
0100
0001
,  // measure 69
2000
0000
0010
0000
3100
0000
1000
0000
0001
0100
0010
1000
0001
0010
0100
1000
,  // measure 70
0002
0000
0100
0000
0013
0000
0001
0000
1000
0001
0010
0100
1000
0001
0100
0010
,  // measure 71
2000
0000
0100
0000
3010
0000
1000
0000
0001
1000
0100
0010
0002
0000
0003
0000
,  // measure 72
0101
0000
0000
0000
,  // measure 73
1010
0000
0000
0000
,  // measure 74
0011
0000
0000
0000
,  // measure 75
1100
0000
0000
0000
0000
1001
0000
0000
,  // measure 76
0101
0000
1010
0000
0001
0001
1000
1000
,  // measure 77
0010
0100
0001
0000
0010
0100
1000
0000
0010
0100
0010
0100
0001
1000
0001
1000
,  // measure 78
0002
0000
0000
0000
0000
0000
0000
0000
0003
0000
0000
0000
0000
0000
0000
0000
1000
0000
0010
0000
0001
0000
0010
0000
1000
0000
0001
1000
0002
0000
0000
0000
,  // measure 79
1003
0100
0001
0100
0010
0100
1000
0100
,  // measure 80
1000
0010
0001
0010
0100
0010
0001
0010
,  // measure 81
1000
0100
0001
0100
0010
0100
1000
0010
,  // measure 82
0100
0000
0110
0000
0000
0000
0101
0000
0000
0000
0001
1000
0200
0000
0000
0000
,  // measure 83
1300
0100
0001
0100
0010
0100
1000
0100
,  // measure 84
1000
0010
0001
0010
0100
0010
0001
0010
,  // measure 85
0200
0000
0001
0000
0000
0300
010M
0000
1000
0000
0000
0000
0020
0000
1000
0000
,  // measure 86
0000
0030
M010
0000
0001
0000
0000
0000
1000
0000
0001
0000
2001
0000
0000
0000
,  // measure 87
3001
0100
1000
0100
0010
0100
0001
0100
,  // measure 88
0001
0010
1000
0010
0100
0010
1000
0010
,  // measure 89
0001
0100
1000
0100
0010
0100
0001
0010
,  // measure 90
0100
0000
0110
0000
0000
0000
1100
0000
0000
0000
1000
0001
0200
0000
0000
0000
,  // measure 91
0301
0100
1000
0100
0010
0100
0001
0100
,  // measure 92
0001
0010
1000
0010
0100
0010
1000
0010
,  // measure 93
0200
1000
0300
M100
0001
0000
0020
0001
,  // measure 94
0000
0030
001M
0000
1000
0000
0000
0000
0001
0000
1000
0000
0010
0100
0010
0100
,  // measure 95
0001
0000
0010
0001
1000
0010
0100
0001
0000
0000
0010
0000
0100
0000
0010
0000
,  // measure 96
0001
0000
0100
0010
0000
0001
0010
0100
0001
0010
0100
1000
0001
0100
0010
1000
,  // measure 97
0001
0010
0200
0000
0001
0000
1300
0000
0001
0100
0020
0000
0001
0000
1030
0000
,  // measure 98
0020
0000
1000
0000
0030
0000
M010
0000
0001
0000
0000
0000
1000
0000
0000
0000
0001
0000
0100
0000
1000
0000
0100
0000
0001
0000
1000
0001
2000
0000
0000
0000
,  // measure 99
3001
0000
0010
0000
1000
0000
0010
0000
0100
0000
0010
0000
0001
0000
0100
0010
,  // measure 100
0100
0000
0001
0000
1000
0000
0100
0010
0100
0000
1000
0000
0001
1000
0001
1000
,  // measure 101
0001
0000
0100
0000
1000
0000
0100
0000
0010
0000
0100
0000
0001
0000
0010
0100
,  // measure 102
1000
0000
0002
0003
2002
3003
0001
0000
0100
0010
0100
0010
1000
0000
0100
0000
,  // measure 103
0001
0000
0100
0000
0010
0000
0100
0000
1000
0000
0010
0100
0010
0000
1000
0000
,  // measure 104
0100
0000
0010
0100
0010
0000
0100
0000
1000
0001
0010
0100
0020
0000
0001
0000
,  // measure 105
0000
0030
001M
0000
1000
0000
0000
0000
0200
0000
1000
0000
0000
0300
M100
0000
,  // measure 106
0001
0000
0000
0000
1000
0000
0001
0000
1002
0000
0000
0000
1003
0010
1000
0010
,  // measure 107
1000
0000
0001
0010
0001
0010
0001
0000
1000
0100
1000
0100
1000
0000
0001
0100
,  // measure 108
0001
0100
0001
0000
1000
0100
0010
0001
0200
0000
0000
0000
0020
0000
0000
0000
,  // measure 109
0330
0000
0000
0000
;

//---------------dance-single - ----------------
#NOTEDATA:;
#CHARTNAME:;
#STEPSTYPE:dance-single;
#DESCRIPTION:;
#CHARTSTYLE:;
#DIFFICULTY:Beginner;
#METER:8;
#RADARVALUES:0.275192,0.361189,0.095948,0.000000,0.000000,261.000000,248.000000,13.000000,0.000000,0.000000,0.000000,0.000000,0.000000,0.000000,0.275192,0.361189,0.095948,0.000000,0.000000,261.000000,248.000000,13.000000,0.000000,0.000000,0.000000,0.000000,0.000000,0.000000;
#CREDIT:BlindedVanguard573;
#NOTES:
0000
0000
0000
0000
,
0000
0000
0000
0000
,
0000
0000
0000
0000
,
0000
0000
0000
0000
,
0000
0000
0000
0000
,
0000
0000
0000
0000
,
0000
0000
0000
0000
,
0000
0000
0000
0000
,
0000
0000
0000
0000
,
0000
0000
0000
0000
,
1001
0000
0000
0000
,
0110
0000
0000
0000
,
1001
0000
0000
0000
,
0110
0000
0000
0000
,
1000
1000
1000
0000
,
0001
0001
0001
0001
,
0001
0000
0000
0000
,
1000
1000
1000
0000
,
0010
0000
0100
0000
,
0001
0001
0001
0000
,
1000
1000
1000
1000
,
1000
0000
1001
0000
,
0010
0000
1001
0000
,
0100
0100
0100
0000
,
0010
0010
0010
0010
,
0010
0000
1000
0000
,
0100
0000
0010
0000
,
0001
0000
0100
0000
,
0010
0010
0010
0010
,
0010
0000
0100
0000
,
0001
0000
1000
0000
,
0100
0000
0010
0000
,
0001
0001
0001
0001
,
0001
0000
0100
0000
,
0010
0000
1000
0000
,
0100
0000
0010
0000
,
0001
0001
0001
0001
,
0001
0000
0100
0000
,
0010
0000
1000
0000
,
0100
0100
0100
0100
,
0100
0000
1000
1000
,
1000
0000
0010
0000
,
0100
0000
0001
0000
,
1000
1000
1000
0000
,
0001
0001
0001
0000
,
0010
0010
0010
0000
,
0100
0100
0100
0000
,
1001
0000
0000
0000
,
0000
0000
0000
0000
,
0010
0010
0010
0010
,
0010
0010
0010
0010
,
0000
0000
0000
1001
,
0001
0001
0001
0000
,
1000
1000
1000
0000
,
0100
0100
0100
0000
,
0010
0000
0000
0100
,
0000
0000
1000
1000
,
1000
0000
0010
0000
,
0100
0000
0001
0000
,
1000
0000
0100
0000
,
0010
0000
0000
0100
,
0000
0000
1000
1000
,
1000
0000
0000
0010
,
0000
0000
0100
0100
,
0100
0000
0000
0001
,
0000
0000
0010
0010
,
0010
0000
0100
0000
,
1000
0000
0001
0000
,
1000
1000
1000
0000
,
0010
0010
0010
0000
,
0100
0100
0100
0000
,
0001
0001
0001
0000
,
1001
0000
0000
0000
,
0110
0000
0000
0000
,
1001
0000
0000
0000
,
0110
0000
0000
0000
,
0001
0001
0001
0000
,
1000
1000
1000
1000
,
1000
0000
0000
0000
,
0001
0001
0001
0000
,
0010
0010
0010
0000
,
0100
0100
0100
0000
,
1000
1000
1000
1000
,
1000
1000
1000
0000
,
0010
0010
0010
0000
,
0100
0000
0000
0001
,
0000
0010
0000
0100
,
0100
0100
0100
0000
,
1000
1000
1000
0000
,
0001
0001
0001
0000
,
0010
0010
0010
0010
,
0010
0010
0010
0000
,
0100
0100
0100
0000
,
1000
0000
0000
0010
,
0000
0100
0100
0100
,
0100
0000
0010
0000
,
1000
0000
0001
0000
,
0010
0010
0010
0000
,
0100
0100
0100
0000
,
1000
1000
1000
0000
,
0001
0001
0001
0000
,
0010
0010
0010
0010
,
0010
0000
0000
0100
,
0100
0100
0000
1000
,
1000
1000
1000
1000
,
0000
0010
0000
0100
,
0000
0001
0000
0010
,
0010
0010
0010
0010
,
0010
0010
0000
1001
;

//---------------dance-single - ----------------
#NOTEDATA:;
#CHARTNAME:;
#STEPSTYPE:dance-single;
#DESCRIPTION:;
#CHARTSTYLE:;
#DIFFICULTY:Easy;
#METER:11;
#RADARVALUES:0.490284,0.724039,0.405934,0.118090,0.000000,465.000000,410.000000,55.000000,16.000000,0.000000,0.000000,0.000000,0.000000,0.000000,0.490284,0.724039,0.405934,0.118090,0.000000,465.000000,410.000000,55.000000,16.000000,0.000000,0.000000,0.000000,0.000000,0.000000;
#CREDIT:BlindedVanguard573;
#NOTES:
0000
0000
0000
0000
,
0000
0000
0000
0000
,
0000
0000
0000
0000
,
0000
0000
0000
0000
,
0000
0000
0000
0000
,
0000
0000
0000
0000
,
0000
0000
0000
0000
,
0000
0000
0000
0000
,
0000
0000
0000
0000
,
0000
0000
0000
0000
,
1001
1000
0100
0000
,
1001
0001
0100
0000
,
1001
1000
0010
0000
,
1001
0001
0010
0001
,
1000
0010
0001
0010
,
1000
0100
0001
0100
,
0010
0000
0000
0000
0110
0110
0110
1001
,
1000
0010
0100
0001
,
0100
0010
1000
0001
,
1000
0100
0010
0001
,
0010
0100
1000
0001
,
0100
0100
0010
0010
,
1000
1000
0001
0001
,
1001
1001
1001
1001
,
0110
0110
0110
1001
,
1000
0100
0010
0001
,
1000
0010
0100
1000
,
0100
0000
0010
0000
1000
0000
0001
1000
,
0000
0001
1000
0000
0020
0000
0030
0000
,
1010
0000
0000
0010
0000
0000
0100
0000
,
0000
0001
0000
0010
0000
0100
1000
0000
,
0001
0000
0000
0101
0000
0000
1010
0000
,
1000
0000
0000
1100
0000
0000
0011
0000
,
0001
0100
0010
1000
,
0001
0010
0100
0001
,
0100
0000
0010
0000
0001
0000
1000
0001
,
0000
1000
0001
0000
0020
0000
0030
0000
,
0011
0000
0000
0010
0000
0000
0100
0000
,
0000
1000
0000
0010
0000
0100
0001
0000
,
1000
0001
1000
0000
0001
1000
0001
0000
,
0010
0000
0100
1001
,
1000
0000
0001
0000
0100
0010
0100
0000
,
0001
0000
1000
0000
0100
0010
0100
0010
,
0100
0000
1100
1000
,
0001
0000
0101
0001
,
1000
0000
1010
0010
,
1000
0001
0010
0000
,
1001
0000
0000
0000
,
0000
0000
0000
0000
,
0001
1000
0001
1000
,
0001
1000
0001
1000
0001
1000
0001
1000
,
0000
0000
0000
1001
,
0001
0100
0010
0000
0100
0000
0001
0000
,
1000
0100
0010
0000
0100
0000
1000
0000
,
0001
0010
0100
0000
0010
0000
0001
0000
,
1000
0000
0000
0010
0000
0000
0001
0000
,
0000
0010
0000
0000
1000
0000
0001
0000
,
1000
0001
0101
0001
,
1000
0010
1010
1000
,
0001
0010
0011
0001
,
1000
0000
0000
0100
0000
0000
0001
0000
,
0000
0100
0000
0000
1000
0000
0001
0000
,
1000
0000
0000
0010
0000
0000
0001
0000
,
0000
0010
0000
0000
1000
0000
0001
0000
,
1000
0000
0000
0100
0000
0000
0001
0000
,
0000
1000
0000
0000
0010
0000
0001
0000
,
2000
0000
0000
3000
0000
0000
0000
0000
0002
0000
0000
0003
0000
0000
0000
0000
,
0020
0000
0000
0030
0000
0000
0000
0000
0200
0000
0300
0000
2000
0000
3001
0000
,
2000
0010
0100
0010
,
3002
0010
0100
0010
,
2003
0100
0010
0100
,
3002
0100
0010
1003
,
0101
0000
0000
0000
,
1010
0000
0000
0000
,
0011
0000
0000
0000
,
1100
0000
0000
0000
0000
1001
0000
0000
,
0101
1010
0011
1100
,
0001
1000
0001
1000
0001
1000
0001
1000
,
0002
0000
0003
0000
0110
0110
0110
1001
,
0001
0100
1000
0000
0100
0000
0001
0000
,
1000
0100
0001
0000
0100
0000
0001
0000
,
0100
1000
0010
0000
0100
0001
0010
0000
,
0100
1000
0000
1000
0000
0000
1001
0000
,
1000
0100
0001
0000
0100
0000
1000
0000
,
0001
0100
1000
0000
0100
0000
1000
0000
,
0100
0001
0000
1000
0010
0000
1000
0100
,
0000
0010
0001
0000
1000
0000
1001
0000
,
1000
0010
0001
0000
0010
0000
1000
0000
,
0001
0010
1000
0000
0010
0000
1000
0000
,
0010
0001
0100
0000
0010
1000
0100
0000
,
0010
0001
0000
0001
0000
0000
1001
0000
,
0001
0010
1000
0000
0010
0000
0001
0000
,
1000
0010
0001
0000
0010
0000
0001
0000
,
0010
1000
0000
0001
0100
0000
0001
0010
,
0000
0100
1000
0000
0001
0000
1001
0000
,
1000
0000
0001
0000
0010
0100
0010
0000
,
0001
0000
1000
0000
0010
0100
0010
0100
,
0001
0001
0001
0000
1000
1000
1000
0000
,
0010
0000
0100
0000
0110
0110
0110
1001
,
0001
0100
1000
0000
0001
0000
0010
0000
,
1000
0100
0001
0000
1000
0010
0001
0000
,
1000
0010
0001
0000
1000
0000
0100
0000
,
0010
0000
2000
3000
2000
3000
0000
0000
1001
0000
0000
0000
0001
0000
0010
0000
,
1000
0000
0001
0000
0100
0000
1000
0010
,
0001
0000
1000
0000
0100
0000
0010
1000
,
0000
0001
0100
0000
0001
0010
0000
0100
,
1000
0000
0001
0000
1001
0000
1000
0010
,
1000
0001
0010
0001
1000
0100
1000
0001
,
0100
0001
1000
0001
1000
0000
2002
0000
,
3003
0000
0000
0000
;

//---------------dance-single - ----------------
#NOTEDATA:;
#CHARTNAME:;
#STEPSTYPE:dance-single;
#DESCRIPTION:;
#CHARTSTYLE:;
#DIFFICULTY:Medium;
#METER:14;
#RADARVALUES:0.672691,0.884936,0.420695,0.383792,0.073806,638.000000,581.000000,57.000000,52.000000,0.000000,0.000000,0.000000,0.000000,0.000000,0.672691,0.884936,0.420695,0.383792,0.073806,638.000000,581.000000,57.000000,52.000000,0.000000,0.000000,0.000000,0.000000,0.000000;
#CREDIT:BlindedVanguard573;
#NOTES:
0000
0000
0000
0000
,
0000
0000
0000
0000
,
0000
0000
0000
0000
,
0000
0000
0000
0000
,
0000
0000
0000
0000
,
0000
0000
0000
0000
,
0000
0000
0000
0000
,
0000
0000
0000
0000
,
0000
0000
0000
0000
,
0000
0000
0000
0000
,
1000
0100
2000
0000
0010
0000
0100
0000
,
3001
0100
0002
0000
0010
0000
0100
0000
,
1003
0010
2000
0000
0100
0000
0010
0000
,
3001
0010
0002
0000
0100
0000
0013
0000
,
0001
0100
0010
0000
1000
0100
0010
0000
,
0001
1000
0001
1000
0010
0100
0010
0100
,
0002
0000
0003
0000
0110
0110
0110
1001
,
1000
0100
0010
0001
1000
0000
0001
0000
,
1000
0010
0100
0001
1000
0100
0001
0100
,
1000
0100
0010
0001
1000
0000
0010
0010
,
0000
0100
0100
0000
0001
1000
0001
1000
,
0001
0000
0010
0001
0100
0000
0010
1000
,
0100
0000
0010
0001
0100
0000
0010
0000
,
1010
0101
0011
1100
,
0110
0110
0110
1001
,
0001
0100
0010
1000
0010
0100
0001
0000
,
1000
0100
0010
0001
0010
1000
0010
0000
,
0001
1000
0010
0100
0001
0010
0100
0100
,
0000
0010
0010
0000
0001
1000
0001
0000
,
0011
0000
0000
1100
0000
0000
1010
0000
,
0000
0101
0000
1001
0000
0001
1000
0000
,
0001
0010
0001
1000
0100
1000
0001
0000
,
1000
0010
1000
0001
0100
0001
1001
0000
,
1000
0100
0010
0001
0010
0100
1000
0000
,
0001
0100
0010
1000
0010
0001
0010
0000
,
1000
0001
0010
0100
1000
0010
0100
0100
,
0000
0010
0010
0000
1000
0001
1000
0000
,
1010
0000
0000
0101
0000
0000
0011
0000
,
0000
1100
0000
1001
0000
1000
0001
0000
,
1000
0010
0100
0001
1000
0100
0010
0001
,
0200
0000
0310
1001
,
1000
0000
0000
0000
0001
0000
0000
0010
0000
0000
0001
0000
1000
0000
0001
0000
,
0100
0010
1000
0000
0100
0010
0001
1000
,
1100
2100
0010
3001
,
0101
0102
0010
1003
,
1010
2010
0100
3001
,
0011
0000
0012
0000
1003
0001
1000
0001
,
1001
0000
0000
0000
,
0000
0000
0000
0000
,
0001
0100
0010
1000
0001
0100
0010
1000
,
0001
0010
0100
1000
0001
0010
0100
1000
,
0000
0000
0000
1001
,
0001
0000
0100
0000
0010
0000
0100
0000
0001
1000
0001
0000
0010
0000
0100
1000
,
0001
0000
0100
0000
0010
0000
0100
0000
0001
0010
0100
0000
0001
0000
0100
1000
,
0001
0000
0100
0000
0010
0000
0100
0000
0001
0010
0100
0000
1000
0000
0001
0000
,
0012
0000
2003
0010
0000
3002
0010
0000
,
2003
0100
0000
3001
0100
0010
1000
0001
,
1000
0000
0000
0100
0000
0000
0010
0000
0012
0000
0000
0000
1003
0000
0000
0000
,
0001
0000
0000
0100
0000
0000
0010
0000
2010
0000
0000
0000
3001
0000
0000
0000
,
1000
0000
0000
0100
0000
0000
0010
0000
1002
0000
0000
0000
0103
0000
0000
0000
,
2010
0000
3002
0010
0000
2003
0010
0000
,
3002
0100
0000
1003
0100
0010
0001
1000
,
0002
0000
2003
0100
0000
3002
0100
0000
,
2003
0010
0000
3001
0010
0100
1000
0001
,
2000
0000
0000
0010
0000
0000
3002
0000
0000
0010
0000
0000
2003
0000
0000
0100
,
0000
0000
3002
0000
0000
0100
0000
0003
1000
0000
0010
0000
0100
0000
0001
0000
,
2000
0000
0000
3000
0000
0000
0000
0000
0002
0000
0000
0003
0000
0000
0000
0000
,
0020
0000
0000
0030
0000
0000
0000
0000
0200
0000
0300
0000
2000
0000
3001
0000
,
1000
0000
0010
0000
0100
0010
0001
0010
,
0100
0000
0001
0000
1000
0100
0010
1000
,
0010
0000
0001
0100
1000
0100
0010
1000
,
0001
0000
1000
0100
0001
0100
2000
3000
,
1100
0000
0000
0000
,
0011
0000
0000
0000
,
0101
0000
0000
0000
,
1010
0000
0000
0000
0000
1001
0000
0000
,
1000
0000
0100
0000
0001
0100
0001
0100
,
1000
0100
1000
0100
0010
0100
0010
0100
,
2000
0000
3000
0000
0110
0110
0110
1001
,
0001
0100
1000
0100
0010
1000
0001
0000
,
1000
0100
0001
0100
1000
0100
0001
0000
,
0100
0010
0001
0100
0010
1000
0100
0010
,
0001
1000
0000
1100
0000
0001
1001
0000
,
0001
0100
1000
0100
0010
1000
0001
0000
,
1000
0100
0001
0100
1000
0100
0001
0000
,
0200
0010
0000
2300
0001
0000
3020
0100
,
0000
2030
0001
0000
3100
0000
1001
0000
,
1000
0100
0001
0100
0010
0001
1000
0000
,
0001
0100
1000
0100
0001
0100
1000
0000
,
0100
0010
1000
0100
0010
0001
0100
0010
,
1000
0001
0000
0101
0000
1000
1001
0000
,
1000
0100
0001
0100
0010
0001
1000
0000
,
0001
0100
1000
0100
0001
0100
1000
0000
,
0200
0010
0000
0302
1000
0000
0023
0100
,
0000
0032
1000
0000
0103
0000
1001
0000
,
0001
0000
0000
0000
1000
0000
0000
0010
0000
0000
1000
0000
0001
0000
1000
0000
,
0100
0010
0001
0000
0100
0010
1000
0001
,
0100
0010
0100
0000
0001
0000
1000
0000
0100
0010
0100
0000
1000
0000
0100
0000
,
0010
0001
0000
1000
0010
0000
0100
0001
0000
1000
0100
0000
0010
0000
1001
0000
,
0001
0100
1000
0100
0010
1000
0001
1000
,
0001
0010
1000
0010
0100
0010
1000
0010
,
0001
0100
1000
0100
0010
1000
0001
0100
,
0001
0000
0020
0030
0200
0300
1000
0000
0001
0000
1000
0000
0001
0000
0010
0000
,
1000
0010
0100
1000
0001
1000
0001
0100
,
1000
0100
0010
0100
1000
0100
0020
0100
,
0000
2030
0001
0000
3200
0010
0000
2300
,
0001
0000
3010
0000
1001
0000
0001
0100
,
1000
0001
0010
1000
0001
0010
1000
0001
,
0100
1000
0010
0100
0010
0000
2002
0000
,
3003
0000
0000
0000
;
