#VERSION:0.83;
#TITLE:Intergalactic Bound;
#SUBTITLE:;
#ARTIST:雄之助 & CircusP feat. 初音ミク;
#TITLETRANSLIT:;
#SUBTITLETRANSLIT:;
#ARTISTTRANSLIT:Yunosuke & CircusP feat. Hatsune Miku;
#GENRE:;
#CREDIT:;
#MUSIC:song.ogg;
#BANNER:bn.png;
#BACKGROUND:bg.png;
#CDTITLE:create_cdtitle.png;
#SAMPLESTART:24.666;
#SAMPLELENGTH:17.786;
#SELECTABLE:YES;
#OFFSET:-0.237;
#BPMS:0.000=140.000;
#STOPS:;
#SCROLLS:0.000=1.000,
160.000=0.500,
160.500=1.500,
161.000=0.500,
161.500=1.500,
162.000=0.500,
162.500=1.500,
163.000=1.000
;
#FAKES:63.500=0.021,
96.375=0.021,
97.479=0.021,
104.375=0.021,
105.479=0.021,
111.250=0.021,
120.375=0.021,
121.479=0.021,
129.479=0.021,
133.479=0.021,
134.979=0.021,
143.250=0.021,
145.479=0.021,
149.479=0.021,
150.979=0.021,
159.250=0.021,
160.000=0.021,
161.000=0.021,
162.000=0.021,
163.000=0.021
;
#JACKET:jacket.png;
#BGCHANGES:-0.553=bgvideo.mp4=1.000=1=0=0=StretchNoLoop==CrossFade==,
99999.000=-nosongbg-=1.000=0=0=0=StretchNoLoop====
;
#FGCHANGES:;

//--------------- dance-single - ----------------
#NOTEDATA:;
#STEPSTYPE:dance-single;
#DESCRIPTION:;
#CREDIT:Create!;
#CHARTNAME:Miku Expo 2024 theme;
#DIFFICULTY:Medium;
#METER:9;
#RADARVALUES:0,0,0,0,0;
#NOTES:
0000
0000
0000
0000
,
0000
0000
0000
0000
,
0001
0000
0000
0000
1000
0000
0000
1000
0000
0000
0010
0000
0000
0000
0100
0000
,
0001
0000
0000
0001
0000
0000
1000
0000
0000
0000
0000
0000
0100
0000
0010
0000
,
0100
0000
0000
0000
1000
0000
0000
1000
0000
0000
0001
0000
0000
0000
0000
0000
,
0100
0000
0000
0100
0000
0000
0010
0000
0000
0000
0000
0000
1000
0000
0001
0000
,
1000
0000
0000
0000
0100
0000
0000
0100
0000
0000
0010
0000
0000
0000
0001
0000
,
1000
0000
0000
1000
0000
0000
0010
0000
0000
0000
0000
0000
0000
0000
0100
0000
,
0001
0000
0000
0000
0000
0000
1000
0000
0100
0000
0000
0010
0000
0000
0100
0000
,
1000
0000
0000
0001
0000
0000
1000
0000
0010
0000
0000
0000
0010
0000
0000
0000
,
0100
0000
0000
0000
0000
0000
0001
0000
1000
0000
0000
0001
0000
0000
0010
0000
,
0100
0000
0000
1000
0000
0000
0100
0000
0010
0000
0000
0000
0010
0000
0000
0000
,
0001
0000
0000
0000
0000
0000
1000
0000
0010
0000
0000
0100
0000
0000
0010
0000
,
1000
0000
0000
0001
0000
0000
1000
0000
0100
0000
0000
0000
0100
0000
0000
0000
,
0010
0000
0000
0000
0000
0000
0001
0000
1000
0000
0000
0010
0000
0000
1000
0000
,
0001
0000
0001
0000
0010
0000
0200
0300
,
1000
0000
0001
0100
0001
0100
0010
0000
,
1000
1000
0001
0010
,
0100
0000
1000
0001
1000
0001
0100
0000
,
0010
0010
1000
0001
,
0010
0100
0010
0001
,
1000
0000
0010
0100
0010
0000
1000
0001
,
1001
0000
1000
1001
0000
0001
0000
0010
,
0000
0001
0100
0010
1000
0001
0100
0001
,
0010
0000
0000
0010
0000
0000
0010
0000
0000
0000
0110
0000
0000
0000
1000
0000
,
0000
0001
0100
0001
0000
1000
0100
1000
,
0010
0000
0000
0010
0000
0000
0010
0000
0000
0000
0110
0000
0000
0000
0001
0000
,
0000
1000
0100
1000
0000
0001
0100
0000
,
1001
0000
0220
0330
1001
0000
0220
0330
,
0001
1000
0100
1000
0000
0001
0100
0001
,
0010
0000
0000
0010
0000
0000
0010
0000
0000
0000
0110
0000
0000
0000
1000
0000
,
0000
0001
0100
0001
0000
1000
0100
0000
,
0020
0000
0000
0032
0000
0000
0103
0000
,
0020
0000
0000
2030
0000
0000
3002
0003
,
0011
0000
0010
0000
0110
0000
0000
0001
,
0000
1000
0010
1000
0000
0001
0010
0000
,
0200
0000
0000
2300
0000
0000
3010
0000
,
0200
0000
0000
0302
0000
0000
2003
3000
,
1100
0000
0100
0000
0110
0000
0000
1000
,
0000
0001
0100
0001
0000
1000
0001
0010
,
0M00
0M00
0M00
0M00
;

//--------------- dance-single - DS- XO ----------------
#NOTEDATA:;
#STEPSTYPE:dance-single;
#DESCRIPTION:DS- XO;
#CREDIT:Create!;
#CHARTNAME:Miku Expo 2024 theme;
#DIFFICULTY:Hard;
#METER:13;
#RADARVALUES:0,0,0,0,0;
#NOTES:
0000
0000
0000
0000
,
0000
0000
0000
0000
,
0001
0000
0000
0000
0010
0000
0000
0100
0000
0000
0010
0000
0000
0000
0001
0000
,
1000
0000
0000
0010
0000
0000
1000
0000
0000
0000
0000
0000
0001
0000
0010
0000
,
0100
0000
0000
0000
1000
0000
0000
0010
0000
0000
0100
0000
0000
0000
0000
0000
,
0001
0000
0000
0010
0000
0000
0001
0000
0000
0000
0000
0000
1000
0000
0010
0000
,
0100
0000
0000
0000
0001
0000
0000
0010
0000
0000
0100
0000
0000
0000
1000
0000
,
0001
0000
0000
0100
0000
0000
0010
0000
0000
0000
0000
0000
1000
0000
0001
0000
,
0010
0000
0000
0000
0000
0000
0100
0000
1000
0000
0000
0001
0000
0000
0010
0000
,
0100
0000
0000
1000
0000
0000
0001
0000
1000
0000
0000
0000
0001
0000
0000
0000
,
1000
0000
0000
0000
0000
0000
0010
0000
0100
0000
0000
0001
0000
0000
1000
0000
,
0010
0000
0000
0100
0000
0000
0001
0000
1000
0000
0000
0000
0001
0000
0000
0000
,
1000
0000
0000
0000
0000
0000
0100
0000
0010
0000
0000
0001
0000
0000
1000
0000
,
0100
0000
0000
0010
0000
0000
0100
0000
1000
0000
0000
0000
0001
0000
0000
0000
,
1000
0000
0000
0000
0000
0000
0010
0000
0100
0000
0000
0001
0000
0000
1000
0000
,
0100
0000
1000
0000
0001
0000
0020
0030
,
0100
0000
1000
0000
0001
0000
0100
0000
0010
1000
0001
0000
0010
0000
0100
2000
,
0010
0000
0000
0000
3100
0010
0001
0000
1000
0000
0010
0000
0100
0000
0010
0000
,
1000
0000
0001
0000
0010
0000
0100
0000
0010
0001
1000
0000
0010
0000
0100
0002
,
0010
0000
0000
0000
0103
0010
1000
0000
0100
0000
0010
0000
0001
0000
1000
0000
,
0010
0000
0100
0000
0001
0000
1000
0000
0100
0010
0001
0000
0100
0000
0010
0000
,
1000
0000
0001
1000
0001
0010
0001
0000
0100
0000
0010
0000
1000
0000
0100
0000
,
0110
0000
0010
0000
0001
0000
1001
0000
1000
0000
0010
0100
0001
0000
1000
0000
,
0100
0000
0010
0001
0010
0100
1000
0100
0010
0001
1000
0000
0010
1000
0001
0000
,
0010
0000
0000
0010
0000
0000
0010
0100
1000
0000
1001
0000
0001
0100
0010
0000
,
1000
0000
0001
0000
1000
0000
0001
0000
0010
0000
0100
0000
1000
0001
1000
0000
,
0010
0000
0000
0010
0000
0000
0010
0100
0001
0000
1001
0000
1000
0100
0010
0000
,
0001
1000
0001
0100
0010
1000
0100
0000
,
1010
0000
0022
0033
0101
0000
2200
3300
,
1000
0000
0010
0000
1000
0000
0001
0000
1000
0000
0100
0000
1000
0001
1000
0000
,
0010
0000
0000
0010
0000
0000
0010
0100
0001
0000
1001
0000
1000
0001
0010
0000
,
0001
0000
0100
0000
0010
1000
0001
1000
0001
1000
0100
0000
0010
0000
0100
0000
,
0002
0000
0000
0000
0103
0000
2000
0000
3010
0000
0100
0000
0001
0100
0001
0000
,
0020
0000
0000
0000
0130
0000
0002
0000
0100
0000
0000
0003
2000
0000
3001
0000
,
0101
0100
0010
1000
1100
0100
0010
0001
,
1000
0010
0100
0001
0010
0001
0101
0100
,
2000
0000
0000
0000
3100
0000
0002
0000
0013
0000
0100
0000
1000
0100
1000
0000
,
0020
0000
0000
0000
0130
0000
2000
0000
0100
0000
0000
3000
0002
0000
1003
0000
,
1100
0100
0010
0001
0101
0100
0010
1000
,
0001
0000
0010
0000
0100
1000
0001
1000
0100
0010
0001
1000
0010
0000
0100
0000
,
0M00
0M00
0M00
0M00
;

//--------------- dance-single - FS DS KS ----------------
#NOTEDATA:;
#STEPSTYPE:dance-single;
#DESCRIPTION:FS DS KS;
#CREDIT:Create!;
#CHARTNAME:Miku Expo 2024 theme;
#DIFFICULTY:Challenge;
#METER:15;
#RADARVALUES:0,0,0,0,0;
#NOTES:
0000
0000
0000
0000
,
0000
0000
0000
0000
,
0001
0000
0000
0000
0010
0000
0000
0100
0000
0000
0010
0000
0000
0000
0001
0000
,
1000
0000
0000
0010
0000
0000
1000
0000
0000
0000
0000
0000
0001
0000
0010
0000
,
0100
0000
0000
0000
1000
0000
0000
0010
0000
0000
0100
0000
0000
0000
0000
0000
,
0001
0000
0000
0010
0000
0000
0001
0000
0000
0000
0000
0000
1000
0000
0010
0000
,
0100
0000
0000
0000
0001
0000
0000
0010
0000
0000
0100
0000
0000
0000
1000
0000
,
0001
0000
0000
0100
0000
0000
0010
0000
0000
0000
0000
0000
1000
0000
0001
0000
,
0010
0000
0000
0000
0000
0000
0100
0000
1000
0000
0000
0001
0000
0000
0010
0000
,
0100
0000
0000
1000
0000
0000
0001
0000
1000
0000
0000
0000
0001
0000
0000
0000
,
1000
0000
0000
0000
0000
0000
0010
0000
0100
0000
0000
0001
0000
0000
1000
0000
,
0010
0000
0000
0100
0000
0000
0001
0000
1000
0000
0000
0000
0001
0000
0000
0000
,
1000
0000
0000
0000
0000
0000
0100
0000
0010
0000
0000
0001
0000
0000
1000
0000
,
0010
0000
0000
0100
0000
0000
0010
0000
1000
0000
0000
0000
0001
0000
0000
0000
,
1000
0000
0000
0000
0000
0000
0100
0000
0010
0000
0000
0001
0000
0000
1000
0000
,
0010
0000
1000
0000
0001
0000
0020
0M30
,
0010
0000
1000
0000
0001
0000
0010
0000
0100
1000
0001
0000
0100
0000
0010
2000
,
0100
0000
0000
0000
3010
0100
0001
0000
1000
0000
0100
0000
0010
0000
0100
0000
,
1000
0000
0001
0000
0100
0000
0010
0000
0100
0001
1000
0000
0100
0000
0010
0002
,
0100
0000
0000
0000
0013
0100
1000
0000
0010
0000
0100
0000
0001
0000
1000
0000
,
0100
0000
0010
0000
0001
0000
1000
0000
0010
0100
0001
0000
0010
0000
0100
0000
,
1000
0000
0001
1000
0001
0100
0001
0000
0010
0000
0100
0000
1000
0000
0010
0000
,
0110
0000
0100
0000
0001
0000
1001
0000
1000
0000
0100
0010
0001
0000
1000
0000
,
0010
0000
0100
0001
0100
0010
1000
0010
1000
0001
0010
0000
0100
1000
0001
0000
,
0010
0000
0000
0000
0000
0000
0000
0000
0000
0000
0000
0000
0000
0000
0000
0000
0000
0000
0M00
0000
0000
0000
0000
0000
0000
0000
0000
0000
0000
0000
0000
0000
0000
0000
0000
0000
0020
0000
0000
0000
0000
0000
0000
0000
0000
0000
0000
0000
1000
0000
0000
0000
0000
0000
0000
0000
0000
0000
0000
0000
0030
0000
0000
0000
0000
0000
0000
0000
0000
0000
0000
0M00
0010
0000
0000
0000
0000
0000
0000
0000
0000
0000
0000
0000
0001
0000
0000
0000
0000
0000
0000
0000
0000
0000
0000
0000
1000
0000
0000
0000
0000
0000
0000
0000
0000
0000
0000
0000
0000
0000
0000
0000
0000
0000
0000
0000
0000
0000
0000
0000
0010
0000
0000
0000
0000
0000
0000
0000
0000
0000
0000
0000
0000
0000
0000
0000
0000
0000
0000
0000
0000
0000
0000
0000
0100
0000
0000
0000
0000
0000
0000
0000
0000
0000
0000
0000
0001
0000
0000
0000
0000
0000
0000
0000
0000
0000
0000
0000
1000
0000
0000
0000
0000
0000
0000
0000
0000
0000
0000
0000
0001
0000
0000
0000
0000
0000
0000
0000
0000
0000
0000
0000
,
0010
0000
0100
0000
1000
0000
0001
0000
1000
0000
0100
0000
0010
0001
1000
0000
,
0010
0000
0000
0000
0000
0000
0000
0000
0000
0000
0000
0000
0000
0000
0000
0000
0000
0000
0M00
0000
0000
0000
0000
0000
0000
0000
0000
0000
0000
0000
0000
0000
0000
0000
0000
0000
0020
0000
0000
0000
0000
0000
0000
0000
0000
0000
0000
0000
0001
0000
0000
0000
0000
0000
0000
0000
0000
0000
0000
0000
0030
0000
0000
0000
0000
0000
0000
0000
0000
0000
0000
0M00
0010
0000
0000
0000
0000
0000
0000
0000
0000
0000
0000
0000
1000
0000
0000
0000
0000
0000
0000
0000
0000
0000
0000
0000
0001
0000
0000
0000
0000
0000
0000
0000
0000
0000
0000
0000
0000
0000
0000
0000
0000
0000
0000
0000
0000
0000
0000
0000
0010
0000
0000
0000
0000
0000
0000
0000
0000
0000
0000
0000
0000
0000
0000
0000
0000
0000
0000
0000
0000
0000
0000
0000
0100
0000
0000
0000
0000
0000
0000
0000
0000
0000
0000
0000
1000
0000
0000
0000
0000
0000
0000
0000
0000
0000
0000
0000
0001
0000
0000
0000
0000
0000
0000
0000
0000
0000
0000
0000
0000
0000
0000
0000
0000
0000
0000
0000
0000
0000
0000
0000
,
0100
0000
0010
0000
1000
0000
0100
0000
0010
0000
0001
0000
0100
00M0
0100
0000
,
1100
0000
0202
0303
0011
0000
2020
3030
,
1000
0000
0010
0000
0100
0000
0001
0000
0010
0000
0100
0000
1000
0001
1000
0000
,
0010
0000
0000
0000
0000
0000
0000
0000
0000
0000
0000
0000
0000
0000
0000
0000
0000
0000
0M00
0000
0000
0000
0000
0000
0000
0000
0000
0000
0000
0000
0000
0000
0000
0000
0000
0000
0020
0000
0000
0000
0000
0000
0000
0000
0000
0000
0000
0000
0001
0000
0000
0000
0000
0000
0000
0000
0000
0000
0000
0000
0030
0000
0000
0000
0000
0000
0000
0000
0000
0000
0000
0M00
0010
0000
0000
0000
0000
0000
0000
0000
0000
0000
0000
0000
1000
0000
0000
0000
0000
0000
0000
0000
0000
0000
0000
0000
0001
0000
0000
0000
0000
0000
0000
0000
0000
0000
0000
0000
0000
0000
0000
0000
0000
0000
0000
0000
0000
0000
0000
0000
0010
0000
0000
0000
0000
0000
0000
0000
0000
0000
0000
0000
0000
0000
0000
0000
0000
0000
0000
0000
0000
0000
0000
0000
0001
0000
0000
0000
0000
0000
0000
0000
0000
0000
0000
0000
1000
0000
0000
0000
0000
0000
0000
0000
0000
0000
0000
0000
0100
0000
0000
0000
0000
0000
0000
0000
0000
0000
0000
0000
0000
0000
0000
0000
0000
0000
0000
0000
0000
0000
0000
0000
,
1000
0000
0010
0000
0100
0001
1000
0100
1000
0001
0100
00M0
0100
0000
1000
0000
,
0020
0000
0000
0000
0000
0000
0000
0000
0000
0000
0000
0000
0000
0000
0000
0000
0000
0000
0000
0000
0000
0000
0000
0000
0000
0000
0000
0000
0000
0000
0000
0000
0000
0000
0000
0000
0000
0000
0000
0000
0000
0000
0000
0000
0000
0000
0000
0000
1000
0000
0000
0000
0000
0000
0000
0000
0000
0000
0000
0000
0030
0000
0000
0000
0000
0000
0000
0000
0000
0000
0000
0M00
0020
0000
0000
0000
0000
0000
0000
0000
0000
0000
0000
0000
0000
0000
0000
0000
0000
0000
0000
0000
0000
0000
0000
0000
0001
0000
0000
0000
0000
0000
0000
0000
0000
0000
0000
0000
0000
0000
0000
0000
0000
0000
0000
0000
0000
0000
0000
0000
0031
0000
0000
0000
0000
0000
0000
0000
0000
0000
0000
0000
0000
0000
0000
0000
0000
0000
0000
0000
0000
0000
0000
0000
1000
0000
0000
0000
0000
0000
0000
0000
0000
0000
0000
0000
0100
0000
0000
0000
0000
0000
0000
0000
0000
0000
0000
0000
1000
0000
0000
0000
0000
0000
0000
0000
0000
0000
0000
0000
0000
0000
0000
0000
0000
0000
0000
0000
0000
0000
0000
0000
,
0020
0000
0000
0000
0000
0000
0000
0000
0000
0000
0000
0000
0000
0000
0000
0000
0000
0000
0000
0000
0000
0000
0000
0000
0000
0000
0000
0000
0000
0000
0000
0000
0000
0000
0000
0000
0000
0000
0000
0000
0000
0000
0000
0000
0000
0000
0000
0000
1000
0000
0000
0000
0000
0000
0000
0000
0000
0000
0000
0000
0030
0000
0000
0000
0000
0000
0000
0000
0000
0000
0000
0M00
0020
0000
0000
0000
0000
0000
0000
0000
0000
0000
0000
0000
0000
0000
0000
0000
0000
0000
0000
0000
0000
0000
0000
0000
0001
0000
0000
0000
0000
0000
0000
0000
0000
0000
0000
0000
0000
0000
0000
0000
0000
0000
0000
0000
0000
0000
0000
0000
0000
0000
0000
0000
0000
0000
0000
0000
0000
0000
0000
0000
0030
0000
0000
0000
0000
0000
0000
0000
0000
0000
0000
0M00
0020
0000
0000
0000
0000
0000
0000
0000
0000
0000
0000
0000
0000
0000
0000
0000
0000
0000
0000
0000
0000
0000
0000
0000
1030
0000
0000
0000
0000
0000
0000
0000
0000
0000
0000
0000
0000
0000
0000
0000
0000
0000
0000
0000
0000
0000
0000
0000
,
0100
0000
1000
0001
1000
0000
0010
1000
0100
0000
0010
0000
0100
0000
1000
0000
,
0001
0000
0100
0000
0010
0000
1000
0000
0001
0000
1000
0000
0100
00M0
0100
0000
,
0020
0000
0000
0000
0000
0000
0000
0000
0000
0000
0000
0000
0000
0000
0000
0000
0000
0000
0000
0000
0000
0000
0000
0000
0000
0000
0000
0000
0000
0000
0000
0000
0000
0000
0000
0000
0000
0000
0000
0000
0000
0000
0000
0000
0000
0000
0000
0000
0001
0000
0000
0000
0000
0000
0000
0000
0000
0000
0000
0000
0030
0000
0000
0000
0000
0000
0000
0000
0000
0000
0000
0M00
0020
0000
0000
0000
0000
0000
0000
0000
0000
0000
0000
0000
0000
0000
0000
0000
0000
0000
0000
0000
0000
0000
0000
0000
1000
0000
0000
0000
0000
0000
0000
0000
0000
0000
0000
0000
0000
0000
0000
0000
0000
0000
0000
0000
0000
0000
0000
0000
1030
0000
0000
0000
0000
0000
0000
0000
0000
0000
0000
0000
0000
0000
0000
0000
0000
0000
0000
0000
0000
0000
0000
0000
0001
0000
0000
0000
0000
0000
0000
0000
0000
0000
0000
0000
0100
0000
0000
0000
0000
0000
0000
0000
0000
0000
0000
0000
0001
0000
0000
0000
0000
0000
0000
0000
0000
0000
0000
0000
0000
0000
0000
0000
0000
0000
0000
0000
0000
0000
0000
0000
,
0020
0000
0000
0000
0000
0000
0000
0000
0000
0000
0000
0000
0000
0000
0000
0000
0000
0000
0000
0000
0000
0000
0000
0000
0000
0000
0000
0000
0000
0000
0000
0000
0000
0000
0000
0000
0000
0000
0000
0000
0000
0000
0000
0000
0000
0000
0000
0000
0001
0000
0000
0000
0000
0000
0000
0000
0000
0000
0000
0000
0030
0000
0000
0000
0000
0000
0000
0000
0000
0000
0000
0M00
0020
0000
0000
0000
0000
0000
0000
0000
0000
0000
0000
0000
0000
0000
0000
0000
0000
0000
0000
0000
0000
0000
0000
0000
1000
0000
0000
0000
0000
0000
0000
0000
0000
0000
0000
0000
0000
0000
0000
0000
0000
0000
0000
0000
0000
0000
0000
0000
0000
0000
0000
0000
0000
0000
0000
0000
0000
0000
0000
0000
0030
0000
0000
0000
0000
0000
0000
0000
0000
0000
0000
0M00
0020
0000
0000
0000
0000
0000
0000
0000
0000
0000
0000
0000
0000
0000
0000
0000
0000
0000
0000
0000
0000
0000
0000
0000
0031
0000
0000
0000
0000
0000
0000
0000
0000
0000
0000
0000
0000
0000
0000
0000
0000
0000
0000
0000
0000
0000
0000
0000
,
0100
0000
0001
1000
0001
0000
0010
0001
0100
0000
0010
0000
0100
0000
0001
0000
,
1000
0000
0100
0000
0010
0001
1000
0100
0010
0100
1000
0001
0100
00M0
0100
0000
,
00M0
00M0
00M0
00M0
;
