#VERSION:0.83;
#TITLE:いま 我々にできること;
#SUBTITLE:;
#ARTIST:大日本森倶楽部 feat. Koh Nishino;
#TITLETRANSLIT:Ima wareware ni dekiru koto;
#SUBTITLETRANSLIT:;
#ARTISTTRANSLIT:Dainippon mori club feat. Koh Nishino;
#GENRE:;
#CREDIT:chronon;
#MUSIC:Ima wareware ni dekiru koto.ogg;
#BANNER:Ima wareware ni dekiru koto.png;
#BACKGROUND:Ima wareware ni dekiru koto-bg.png;
#CDTITLE:;
#SAMPLESTART:47.709;
#SAMPLELENGTH:20.000;
#SELECTABLE:YES;
#OFFSET:1.089;
#BPMS:0.000=172.000
,24.000=207.000
,30.000=218.000
,42.000=216.999
,42.500=216.722
,43.000=216.535
,43.500=216.271
,44.000=215.877
,44.500=215.303
,45.000=214.509
,45.500=213.488
,46.000=212.256
,46.500=210.870
,47.000=209.355
,47.500=207.751
,48.000=206.092
,48.500=204.390
,49.000=202.656
,49.500=200.902
,50.000=199.130
,50.500=197.359
,51.000=195.572
,51.500=193.784
,52.000=192.000
,343.750=288.000
,345.000=384.000
,346.500=480.000
,367.500=192.000
;
#STOPS:;
#DISPLAYBPM:172.000:192.000;
#BGCHANGES:;
#FGCHANGES:;

//--------------- dance-single - chronon ----------------
#NOTEDATA:;
#STEPSTYPE:dance-single;
#DESCRIPTION:chronon;
#DIFFICULTY:Beginner;
#METER:3;
#RADARVALUES:0,0,0,0,0;
#NOTES:
0000
0000
0000
0000
,
0000
0000
0000
0000
,
0000
0000
0000
0000
,
0000
0000
0000
0000
,
0000
0000
0000
0000
,
0000
0000
0000
0000
,
0000
0000
0000
0000
,
0000
0000
0000
0000
,
0000
0000
0000
0000
,
0000
0000
0000
0000
,
0000
0000
0000
0000
,
0000
0000
0000
0000
,
0000
0000
0000
0000
,
0001
0000
0000
0000
,
0010
0000
0000
0000
,
0100
0000
0000
0000
,
1000
0000
0000
0000
,
1000
0000
0000
0000
,
0100
0000
0000
0000
,
0010
0000
0000
0000
,
0001
0000
0000
0000
,
1000
0000
1000
0000
,
0001
0000
0001
0000
,
1000
0000
0001
0000
,
1000
0000
0000
0000
,
0001
0000
0001
0000
,
1000
0000
1000
0000
,
0001
0000
1000
0000
,
0001
0000
0000
0000
,
2000
0000
0000
3000
,
0020
0000
0000
0030
,
0200
0000
0000
0300
,
0001
0000
0000
0000
,
0002
0000
0000
0003
,
0020
0000
0000
0030
,
0200
0000
0000
0300
,
1000
0000
0000
0000
,
0001
0000
1000
0000
,
0001
1000
0001
0000
,
1000
0000
1000
0000
,
1000
0000
0000
0000
,
0001
0000
0001
0000
,
0001
0000
0000
0000
,
0010
0000
0010
0000
,
0010
0000
0000
0000
,
0100
0000
0100
0000
,
0100
0000
0000
0000
,
0100
0000
0100
0000
,
0100
0000
0000
0000
,
0010
0000
0010
0000
,
0010
0000
0000
0000
,
0001
0000
0001
0000
,
0001
0000
0000
0000
,
1000
0000
1000
0000
,
1000
0000
0000
0000
,
0001
0000
0000
0000
,
0100
0000
0000
0000
,
0001
0000
0000
0000
,
1000
0000
0000
0000
,
1000
0000
0000
0000
,
0100
0000
0000
0000
,
1000
0000
0000
0000
,
0001
0000
0000
0000
,
1000
0000
0001
0000
,
1000
0001
1000
0000
,
1001
0000
0000
0000
,
0000
0000
0000
0000
,
0000
0000
0000
0000
,
0000
0000
0000
0000
,
0002
0000
0003
0000
,
2000
0000
3000
0000
,
0002
0000
0003
0000
,
0000
0000
0000
0000
,
1000
1000
1000
0000
,
0001
0000
0001
0000
,
0001
0001
0001
0000
,
0001
0000
0001
0000
,
0100
0100
0100
0000
,
0100
0000
0100
0000
,
0010
0000
0010
0000
,
0010
0000
0010
0000
,
1000
0000
0001
0000
,
1000
0001
1000
0000
,
0000
0000
0000
0000
,
0000
0000
0000
0000
,
0000
0000
0000
MMMM
,
MMMM
MMMM
MMMM
MMMM
,
MMMM
MMMM
MMMM
MMMM
,
MMMM
MMMM
MMMM
MMMM
,
MMMM
MMMM
MMMM
MMMM
,
MMMM
MMMM
MMMM
MMMM
,
MMMM
MMMM
MMMM
MMMM
;

//--------------- dance-single - chronon ----------------
#NOTEDATA:;
#STEPSTYPE:dance-single;
#DESCRIPTION:chronon;
#DIFFICULTY:Easy;
#METER:7;
#RADARVALUES:0,0,0,0,0;
#NOTES:
0000
0000
0000
0000
,
0000
0000
0000
0000
,
0000
0000
0000
0000
,
0000
0000
0000
0000
,
0000
0000
0000
0000
,
0000
0000
0000
0000
,
0000
0000
0000
0000
,
0000
0000
0000
0000
,
0000
0000
0000
0000
,
0000
0000
0000
0000
,
0000
0000
0000
0000
,
0000
0000
0000
0000
,
0000
0000
0000
0000
,
1000
0100
0010
0000
,
0001
0100
0010
0000
,
1000
0010
0100
0000
,
0001
0010
0100
0100
,
1000
0100
0010
0000
,
0001
0100
0010
0000
,
1000
0010
0100
0000
,
0001
0010
0100
0100
,
2000
0000
0100
0000
3001
0000
0200
0300
,
0002
0000
0100
0000
1003
0000
0200
0300
,
1000
0100
1000
0100
,
0010
0000
1001
0000
,
2000
0000
0010
0000
3001
0000
0020
0030
,
0002
0000
0010
0000
1003
0000
0020
0030
,
1000
0010
1000
0010
,
0100
0000
1001
0000
,
1000
0001
1000
0000
0001
0000
0000
0000
,
1000
0100
1000
0000
0100
0000
0000
0000
,
1000
0001
1000
0000
0001
0000
0000
0000
,
0100
0000
0000
0100
0000
0000
0100
0000
,
0001
1000
0001
0000
1000
0000
0000
0000
,
0001
0010
0001
0000
0010
0000
0000
0000
,
0001
1000
0001
0000
1000
0000
0000
0000
,
0010
0100
0010
0000
,
1000
1000
0001
0001
,
1000
0001
1000
0001
1000
0000
0000
0000
,
0001
0000
0200
0000
0010
0000
0000
0301
,
0000
0010
0100
0000
,
1000
0000
0200
0000
0010
0000
0000
1300
,
0000
0010
0100
0000
,
0001
0000
0200
0000
0010
0000
0000
0301
,
0000
0010
0100
0000
,
1000
0000
0200
0000
0010
0000
0000
1300
,
0000
0010
0100
0000
,
0001
0000
2000
0000
0010
0000
0000
3001
,
0000
1000
0100
0000
,
1000
0000
0002
0000
0010
0000
0000
1003
,
0000
0001
0100
0000
,
0001
0000
2000
0000
0010
0000
0000
3001
,
0000
1000
0100
0000
,
1000
0000
0001
0000
1000
0000
0000
0001
,
0000
0100
0100
0000
,
0010
0010
0010
1000
,
0001
0001
0001
0000
,
0010
0010
0010
0001
,
1000
0000
0000
0001
0000
0000
1000
0000
,
0100
0100
0100
1000
,
0001
0001
0001
0000
,
0100
0010
0100
0000
,
0010
0100
0010
0000
,
1000
1000
0001
0001
,
1000
0001
1000
0001
1000
0000
0000
0000
,
2002
0000
0000
0000
,
0000
0000
0000
0000
,
0000
0000
0000
0000
,
0000
0000
3003
0000
,
0002
0000
0023
0000
,
0230
0000
2300
0000
,
3002
0000
0000
0000
2000
0000
0000
3003
,
0000
0000
0000
0000
,
1000
0000
0002
0000
0100
0000
0000
0013
,
0000
0001
0010
0010
,
0001
0000
2000
0000
0100
0000
0000
3010
,
0000
1000
0010
0010
,
1000
0000
0002
0000
0100
0000
0000
0013
,
0000
0000
0001
0000
1000
0001
1000
0000
,
0001
1000
0001
1000
,
0010
0100
0010
0100
,
0001
0001
1000
1000
,
0001
1000
0001
1000
0001
0000
0000
0000
,
0000
0000
0000
0000
,
0000
0000
0000
0000
,
0000
0000
0000
MMMM
,
MMMM
MMMM
MMMM
MMMM
,
MMMM
MMMM
MMMM
MMMM
,
MMMM
MMMM
MMMM
MMMM
,
MMMM
MMMM
MMMM
MMMM
,
MMMM
MMMM
MMMM
MMMM
,
MMMM
MMMM
MMMM
MMMM
;

//--------------- dance-single - chronon ----------------
#NOTEDATA:;
#STEPSTYPE:dance-single;
#DESCRIPTION:chronon;
#DIFFICULTY:Medium;
#METER:11;
#RADARVALUES:0,0,0,0,0;
#NOTES:
0000
0000
0000
0000
,
0000
0000
0000
0000
,
0000
0000
0000
0000
,
MMMM
0000
0000
0000
,
0000
0000
0000
0000
,
MMMM
MMMM
MMMM
MMMM
MMMM
0000
0000
0000
0000
0000
0000
0000
0000
0000
0000
0000
,
1000
0000
0000
0001
,
0000
0000
1000
0000
,
0000
2002
0000
0000
,
3003
0000
0010
0000
,
0000
0100
0000
0000
,
2002
0000
0000
0000
,
0000
0000
0000
3003
,
0001
0100
0010
1000
0002
0000
0103
0001
,
0010
0100
1000
0000
0001
0000
1000
0001
,
1000
0010
0100
0001
2000
0000
3010
1000
,
0100
0010
0001
0000
1000
0000
0001
1000
,
0001
0010
0100
1000
0002
0000
0013
0001
,
0100
0010
1000
0000
0001
0000
1000
0001
,
1000
0100
0010
0001
2000
0000
3100
1000
,
0010
0100
0001
1000
0001
0000
1000
0001
,
1000
1010
0101
1001
,
0001
0011
1100
1001
,
1000
0110
0001
0110
,
1000
0001
1000
1001
,
0001
0101
1010
1001
,
1000
1100
0011
1001
,
0001
0110
1000
0110
,
0001
0000
1000
0000
0001
0000
1000
0010
,
0200
0000
1000
0000
0010
0000
0301
0010
,
0200
0000
0001
0000
0010
0000
1300
0100
,
0010
0001
1000
0000
0010
1000
0001
0000
,
0101
0000
0000
1001
0000
0000
1000
0100
,
0001
0000
0001
0100
1000
0000
0001
0100
,
1000
0000
1000
0100
0001
0000
1000
0100
,
0010
0000
0001
0010
0100
1000
0001
0000
,
1000
0000
1000
0010
0100
0001
1000
0000
,
0001
1000
0001
0000
1000
0001
1000
0000
,
0001
1000
0001
1000
0001
0000
1001
0000
,
1000
0010
1000
0010
0200
0000
0301
0020
,
0000
0031
0010
0000
0100
0000
0010
0000
,
0001
0010
0001
0010
0200
0000
1300
0020
,
0000
1030
0010
0000
0100
0000
1001
0000
,
0001
0100
0001
0100
0020
0000
1030
0200
,
0000
1300
0100
0000
0010
0000
0100
0000
,
1000
0100
1000
0100
0020
0000
0031
0200
,
0000
0301
0100
0000
0020
0000
2030
0000
,
3001
1000
0010
1000
0200
0000
1300
0020
,
0000
1030
0010
0000
0100
0000
0001
0000
,
1000
0010
0100
0001
0020
0000
0031
0200
,
0000
0301
0100
0000
0010
0000
1001
0000
,
1000
0100
0010
0001
0200
0000
0301
0020
,
0000
0031
0010
0000
0100
0000
0010
0000
,
0110
0000
0110
0000
0110
0000
0000
1001
,
0000
0100
0010
1001
,
1000
0010
1000
0010
1000
0000
0001
0100
,
0001
0100
0001
0000
1000
0000
0100
0000
,
0001
0100
0010
0100
,
1000
0000
0000
0001
0000
0000
1000
0000
,
0001
0010
0001
0010
0001
0000
1000
0100
,
1000
0100
1000
0000
0001
0000
0100
0000
,
0010
0000
1000
0000
0001
1000
0001
0000
,
0010
0000
0001
0000
1000
0001
1000
0000
,
0001
1000
0001
0000
1000
0001
1000
0000
,
0001
1000
0001
1000
0001
0000
0000
0000
,
2002
0000
0000
0000
,
0000
0000
0000
0000
,
0000
0000
0000
0000
,
0000
0000
3003
0000
,
2000
0000
3200
0000
,
0320
0000
0032
0000
,
1003
0000
0001
0100
0000
0010
1000
0001
,
0000
1000
0100
0010
0100
0010
0001
0000
,
1000
0100
0010
0001
0010
0100
1000
0010
,
1000
0010
0100
0000
0010
0100
0001
0000
,
0001
0100
0010
1000
0010
0100
0001
0010
,
0001
0010
0100
0000
0010
0000
1001
0000
,
0001
0010
0100
1000
0100
0010
0001
0100
,
0001
0100
0010
0000
0100
0010
1000
0000
,
2010
3001
2010
3001
,
0012
1003
0012
1003
,
0001
1000
0001
0000
1000
0001
1000
0000
,
0001
1000
0001
1000
2002
0000
0000
0000
,
0000
0000
0000
0000
,
3003
0000
0000
0000
,
0000
0000
0000
0000
0000
0000
0000
0000
0000
0000
0000
0000
MMMM
MMMM
MMMM
MMMM
,
MMMM
MMMM
MMMM
MMMM
MMMM
MMMM
MMMM
MMMM
MMMM
MMMM
MMMM
MMMM
MMMM
MMMM
MMMM
MMMM
,
MMMM
MMMM
MMMM
MMMM
MMMM
MMMM
MMMM
MMMM
MMMM
MMMM
MMMM
MMMM
MMMM
MMMM
MMMM
MMMM
,
MMMM
MMMM
MMMM
MMMM
MMMM
MMMM
MMMM
MMMM
MMMM
MMMM
MMMM
MMMM
MMMM
MMMM
MMMM
MMMM
,
MMMM
MMMM
MMMM
MMMM
MMMM
MMMM
MMMM
MMMM
MMMM
MMMM
MMMM
MMMM
MMMM
MMMM
MMMM
MMMM
,
MMMM
MMMM
MMMM
MMMM
MMMM
MMMM
MMMM
MMMM
MMMM
MMMM
MMMM
MMMM
MMMM
MMMM
MMMM
MMMM
,
MMMM
MMMM
MMMM
MMMM
MMMM
MMMM
MMMM
MMMM
MMMM
MMMM
MMMM
MMMM
MMMM
MMMM
MMMM
0000
;

//--------------- dance-single - Love The Earth Forever ----------------
#NOTEDATA:;
#STEPSTYPE:dance-single;
#CREDIT:chronon;
#DESCRIPTION:Love The Earth Forever;
#DIFFICULTY:Hard;
#METER:15;
#RADARVALUES:0,0,0,0,0;
#NOTES:
0000
0000
0000
0000
,
0000
0000
0000
0000
,
0000
0000
0000
0000
,
MMMM
0000
0000
0000
,
0000
0000
0000
0000
,
MMMM
MMMM
MMMM
MMMM
MMMM
0000
0000
0000
0000
0000
0000
0000
0000
0000
0000
0000
,
0001
0000
0001
0010
,
0000
0010
0100
0000
1000
0000
0010
0000
,
0100
0220
0000
0000
,
0000
0330
0101
0001
,
1000
1100
1000
0001
,
2002
0000
0000
0000
,
0000
0000
0000
3003
,
1000
0000
0010
1000
0001
0000
0100
0000
0002
0000
0000
0000
0103
0000
0001
0000
,
0010
0000
0001
0010
0100
0000
0010
0000
0002
0000
0000
0000
0023
0000
0000
0000
,
0031
0000
0010
0001
1000
0000
0100
0000
2000
0000
0000
0000
3100
0000
1000
0000
,
0010
0000
1000
0010
0100
0000
0001
0000
1000
0000
0001
0000
1001
0000
0000
0000
,
0001
0000
0100
0001
1000
0000
0010
0000
2000
0000
0000
0000
3010
0000
1000
0000
,
0100
0000
1000
0100
0010
0000
0100
0000
2000
0000
0000
0000
3200
0000
0000
0000
,
1300
0000
0100
1000
0001
0000
0010
0000
0002
0000
0000
0000
0013
0000
0001
0000
,
0100
0000
0001
0100
0010
0000
1000
0000
1001
0000
0000
0000
1000
0000
0100
0000
,
1100
0101
1001
MMMM
,
0101
1100
1001
MMMM
,
1001
1000
0100
0000
1001
0001
0100
0000
,
0001
0000
0100
0000
0010
0000
1000
0000
0001
1000
0001
0000
MMMM
0000
0000
0000
,
1010
0011
1001
MMMM
,
0011
1010
1001
MMMM
,
1001
1000
0010
0000
1001
0001
0010
0000
,
0001
0000
0010
0000
0100
0000
1000
0000
0001
0000
1000
0010
0100
0000
0001
0000
,
0010
0001
0010
0001
0010
0001
0010
0001
,
0100
0001
0100
0001
1000
0010
1000
0010
,
0100
0010
0100
0010
0001
0010
0001
0010
,
0100
0001
1000
0100
1000
0001
1001
0000
,
1000
0100
0010
0100
0001
0100
1000
0001
,
1000
0010
0100
0010
0001
0010
1000
0001
,
0100
0010
2000
3010
2000
3001
2000
3100
,
2000
3001
0010
0100
1000
0010
0100
0001
,
1000
1000
1000
0000
0001
0001
0001
0000
,
1000
0001
1000
0001
1000
0000
MMMM
0000
,
0001
0010
0100
1000
0200
0000
1300
0020
,
0000
1030
0010
0010
0100
0001
1000
0000
,
0001
0000
1000
0010
0100
0000
0001
0000
0200
0000
0000
0000
0301
0000
0020
0000
,
0000
0031
0010
0100
1000
0001
MMMM
0000
,
0001
0100
0010
1000
0020
0000
1030
0200
,
0000
1300
0100
0100
0010
0001
1000
0000
,
0001
0000
1000
0100
0010
0000
0001
0000
0020
0000
0000
0000
0031
0000
0200
0000
,
0000
0301
0100
0010
4000
3000
0004
0003
,
1000
0010
0100
0001
0020
0000
0130
0002
,
0000
0103
0010
0010
0100
1000
0001
0000
,
1000
0000
0001
0010
0100
0000
1000
0000
0020
0000
0000
0000
0130
0000
2000
0000
,
0000
3100
0010
0100
0001
1000
MMMM
0000
,
1000
0100
0010
0001
0200
0000
0310
0002
,
0000
0013
0100
0010
1000
0001
1000
0000
,
1001
0000
0011
0000
0110
0000
0010
2000
,
0000
0000
3010
0000
0100
0000
0010
0000
0001
1000
0001
0000
MMMM
0000
0000
0000
,
0001
0100
0001
0100
0010
0000
1000
0100
,
1000
0100
0010
0001
1000
0001
0100
0010
,
0001
0010
0100
0010
1000
0001
1000
0100
,
0010
0001
0001
1000
0001
0001
0100
0001
,
1000
0010
1000
0010
0100
0000
0001
0010
,
0001
0000
0010
0000
0100
0000
1000
0000
0100
1000
0001
0000
1000
0001
0100
0000
,
0001
0000
0100
0000
0010
0000
1000
0000
0001
1000
0001
0000
0010
0000
0100
0010
,
0100
0000
0010
0000
0100
0000
1000
0001
1000
0000
0010
0000
0100
0000
0001
0000
,
1000
1000
1000
0000
0001
0001
0001
0000
,
1000
0001
1000
0001
0200
0000
0320
0000
,
1030
0010
1000
0010
,
1000
0000
0010
0000
1000
0000
0010
0100
,
0001
0010
0001
0010
,
0001
0000
0010
0000
0001
0010
0100
0000
,
2000
0000
3100
1000
0200
0000
0310
0100
,
0020
0000
0031
0010
0002
0000
1003
0001
,
1000
0000
0001
0100
0001
0000
1000
0000
0001
0100
0001
0000
1000
0000
0200
0000
,
0000
0000
0310
0000
0100
0000
1000
0000
0001
1000
0001
1000
0001
0000
0000
0000
,
1000
0000
0001
1000
0010
0000
1000
0000
0100
0000
0010
0000
0100
0000
0001
0000
,
0100
0010
0100
1000
0010
0100
0001
0010
,
0001
0000
1000
0001
0010
0000
0001
0000
0100
0000
0010
0000
0100
0000
1000
0000
,
0100
0010
0100
0001
1000
0001
MMMM
0000
,
0001
0000
1000
0001
0100
0000
0001
0000
0010
0000
0100
0000
0010
0000
1000
0000
,
0010
0100
0010
0001
0100
0010
1000
0100
,
1000
0100
1000
0100
0020
0000
0030
0000
0001
0100
0001
0100
0020
0000
0030
0000
,
1000
0100
1000
0100
0020
0000
0030
0000
0001
0100
0001
0100
0020
0000
0030
0000
,
1000
1000
1000
0000
0001
0001
0001
0000
,
1000
0001
1000
0001
0220
0000
0000
0000
,
0000
0000
0000
0000
,
0330
0000
0000
0000
,
0000
0000
0000
0000
0000
0000
0000
0000
0000
0000
0000
0000
MMMM
MMMM
MMMM
MMMM
,
MMMM
MMMM
MMMM
MMMM
MMMM
MMMM
MMMM
MMMM
MMMM
MMMM
MMMM
MMMM
MMMM
MMMM
MMMM
MMMM
,
MMMM
MMMM
MMMM
MMMM
MMMM
MMMM
MMMM
MMMM
MMMM
MMMM
MMMM
MMMM
MMMM
MMMM
MMMM
MMMM
,
MMMM
MMMM
MMMM
MMMM
MMMM
MMMM
MMMM
MMMM
MMMM
MMMM
MMMM
MMMM
MMMM
MMMM
MMMM
MMMM
,
MMMM
MMMM
MMMM
MMMM
MMMM
MMMM
MMMM
MMMM
MMMM
MMMM
MMMM
MMMM
MMMM
MMMM
MMMM
MMMM
,
MMMM
MMMM
MMMM
MMMM
MMMM
MMMM
MMMM
MMMM
MMMM
MMMM
MMMM
MMMM
MMMM
MMMM
MMMM
MMMM
,
MMMM
MMMM
MMMM
MMMM
MMMM
MMMM
MMMM
MMMM
MMMM
MMMM
MMMM
MMMM
MMMM
MMMM
MMMM
0000
;
