#TITLE:Honolulu Loco Boy;
#SUBTITLE:;
#ARTIST:アグネス キムラ;
#TITLETRANSLIT:;
#SUBTITLETRANSLIT:;
#ARTISTTRANSLIT:Agnes Kimura;
#GENRE:;
#CREDIT:;
#BANNER:Honolulu Loco Boy.png;
#BACKGROUND:Honolulu Loco Boy-bg.png;
#LYRICSPATH:Honolulu Loco Boy.lrc;
#CDTITLE:;
#MUSIC:Honolulu Loco Boy.ogg;
#OFFSET:-0.017000;
#SAMPLESTART:75.840065;
#SAMPLELENGTH:12.000000;
#SELECTABLE:YES;
#BPMS:0.000000=152.000000
;
#STOPS:
;
#BGCHANGES:0.000=Honolulu Loco Boy.mp4=1.000=0=0=0=StretchNoLoop====,
99999=-nosongbg-=1.000=0=0=0 // don't automatically add -songbackground-
;
#KEYSOUNDS:;
#ATTACKS:;

//---------------dance-single - ----------------
#NOTES:
     dance-single:
     :
     Hard:
     13:
     0.585030,0.752053,0.111228,0.455023,0.970717,405.000000,394.000000,11.000000,45.000000,0.000000,0.000000,0.585030,0.752053,0.111228,0.455023,0.970717,405.000000,394.000000,11.000000,45.000000,0.000000,0.000000:
0000
0000
0000
0000
,
0000
0000
0000
0000
,
0000
0000
0000
0000
,
0000
0000
0000
0000
,
0001
0000
0100
0001
0000
1000
0100
0000
0100
0010
0000
0001
,
2000
0000
0000
3010
0000
0100
0002
0000
0000
1003
0000
0000
,
1100
0000
0001
0100
0000
0001
1000
0000
0100
0010
0000
0002
,
0000
0000
1003
0000
,
0201
0000
0000
1300
0000
0100
0001
0000
0001
1000
0000
0100
,
0020
0000
0000
1030
0000
0010
0002
0000
0000
1003
0000
0000
,
0001
0000
0001
0100
0000
0100
0010
0000
1000
0001
0000
1000
,
0200
0000
0000
0001
0000
0000
1300
0000
0001
0100
0001
0100
,
0020
0000
0000
0031
0000
0010
1000
0000
1000
0001
0000
0010
,
0200
0000
0000
0301
0000
0100
2000
0000
0000
3001
0000
0000
,
0101
0000
1000
0100
0000
1000
0001
0000
0100
0010
0000
1000
,
0002
0000
0013
0100
0010
0100
1000
0000
0000
0000
0000
0000
,
1000
0000
1000
0001
0000
0001
0100
0000
0100
1000
0000
1000
,
0200
0000
0000
0301
0000
1000
0200
0000
0000
0310
0000
0001
,
0100
0000
0100
0010
0000
0010
1000
0000
0100
0010
0000
0001
,
2000
0000
0000
3010
0000
0010
0100
0000
0001
1000
0100
0010
,
0001
0000
0001
1000
0000
1000
0010
0000
0100
0001
0000
1000
,
0100
0000
0020
0000
0000
0031
1030
0000
0001
0100
0000
0010
,
2000
0000
0000
0010
0000
0000
3002
0000
0000
0013
0000
0010
,
0100
0000
0000
1000
0010
0100
0001
0000
0000
0000
0000
0000
,
2002
0000
0000
3003
0000
0001
0100
0000
1000
0100
0000
0001
,
0020
0000
0000
1030
0030
0010
0002
0000
0000
0103
0000
0010
,
1000
0000
1000
0100
0000
0100
0010
0000
0001
1000
0000
0001
,
0200
0000
0000
1000
0000
0000
0301
0000
1000
0100
0000
0000
,
2002
0000
0000
3003
0000
1000
0010
0000
0001
0010
0000
1000
,
0200
0000
0000
0301
0300
0100
2000
0000
0000
3010
0000
0000
,
1010
0000
0001
0010
0000
0001
1000
0000
0010
0100
0000
0001
,
2000
0000
0000
3001
0010
0100
1000
0000
0000
0001
1000
0001
,
0100
0000
0001
0100
0001
0100
0010
0000
0010
1000
0000
1000
,
0001
0000
1000
0100
1000
0100
0010
0000
0010
0001
0000
1000
,
0010
0000
0100
0001
0000
2000
0000
0000
3001
0010
0000
0010
,
0100
0000
1000
0001
0000
1000
0010
0100
0010
1000
0001
1000
,
0001
0000
1000
0010
1000
0010
0100
0000
0100
0001
0000
0001
,
1000
0000
0001
0010
0001
0010
0100
0000
0100
1000
0000
0001
,
0100
0000
0010
2000
0000
0000
3100
0000
0010
0002
0000
0000
,
1003
0000
0001
0100
0010
1000
0001
0000
0000
1000
0001
1000
,
0001
0100
0001
1000
0100
1000
0001
0010
0001
1000
0010
1000
,
0001
0010
0100
1000
0010
0100
0001
0100
0010
1000
0100
0010
,
0002
0000
0000
0000
0000
1003
0010
0000
0010
0200
0000
0000
,
0301
0000
0010
0000
0100
0000
1000
0000
0020
0000
0000
0000
,
1030
0100
1000
0001
0100
0001
1000
0010
1000
0001
0010
0001
,
1000
0010
0100
0001
0010
0100
1000
0100
0010
0001
0100
0010
,
2000
0000
0010
0000
0100
0000
3002
0000
0010
0000
0100
0000
,
1003
0000
0000
0001
1000
0001
1003
0000
0000
0000
0000
0000
,
0202
0000
0000
0303
0000
1000
0100
0000
0100
0010
0000
0001
,
0200
0000
0000
0310
0000
1000
0001
0010
0100
1000
0000
0000
,
0001
0000
0001
0100
0000
0100
1000
0000
1000
0100
0000
0010
,
2000
0000
0000
0010
0000
0000
3001
0010
0100
1000
0000
0000
,
2020
0000
0000
3030
0000
0001
0010
0000
0010
0100
0000
1000
,
0020
0000
0000
0130
0000
0001
1000
0100
0010
0001
0000
0000
,
0011
0000
1000
0100
0000
1000
0001
0000
0100
0010
0000
0200
,
0000
1000
0010
3301
,
1010
0000
0001
0100
0000
0001
1000
0000
0100
0010
0000
0200
,
0000
0001
0010
1303
,
1001
0000
1000
0010
0000
0010
0100
0000
0001
0010
0000
0100
,
2000
0000
0000
3010
0100
0001
1000
0000
0000
0000
0000
0000
;

//---------------dance-single - ----------------
#NOTES:
     dance-single:
     :
     Medium:
     8:
     0.413132,0.511396,0.171898,0.525805,0.374130,286.000000,269.000000,17.000000,52.000000,0.000000,0.000000,0.413132,0.511396,0.171898,0.525805,0.374130,286.000000,269.000000,17.000000,52.000000,0.000000,0.000000:
0000
0000
0000
0000
,
0000
0000
0000
0000
,
0000
0000
0000
0000
,
0000
0000
0000
0000
,
1000
0000
1000
0100
0000
0000
0010
0000
0010
0001
0000
0000
,
2000
0010
3002
0100
,
1003
0000
0100
1000
0000
0000
0001
0000
0200
0000
0000
0310
,
0300
0000
1001
0000
,
2200
0000
0000
3300
0000
0001
0100
0000
0100
0010
0000
0000
,
2000
3001
0002
0013
,
0001
0000
0001
0100
0000
0100
0010
0000
0010
1000
0000
0000
,
0200
0000
0000
0000
0000
0000
1300
0300
0000
0001
0000
0000
,
0022
0000
0000
0033
0000
1000
0010
0000
0010
0100
0000
0000
,
0002
1003
2000
3100
,
1000
0000
0010
1000
0000
0000
0001
0000
0010
0001
0000
0000
,
0200
0010
0310
0000
,
1001
0000
0000
0001
0000
0000
0010
0000
0000
0100
0000
1000
,
0010
0000
0000
0100
0000
0000
0001
0000
0000
1000
0000
0001
,
0010
0000
0000
0100
0000
0000
1000
0000
0000
0001
0000
0100
,
0010
0000
0000
1000
0000
0000
0001
0000
0001
1000
0000
1000
,
0100
0000
0000
1000
0000
0000
0001
0000
0000
0100
0000
0010
,
1000
0000
0000
0001
0000
0000
1000
0000
0000
0100
0000
0010
,
0001
0000
0001
1000
0000
0000
1000
0000
1000
0010
0000
0000
,
1010
0000
0000
0001
1000
0001
1000
0000
0000
0000
0000
0000
,
0202
0000
0000
0303
0000
1000
0100
0000
1000
0100
0000
0000
,
0020
0031
0200
0310
,
1000
0000
1000
0010
0000
0000
0100
0000
0100
0001
0000
0000
,
2000
0001
3001
0000
,
2020
0000
0000
3030
0000
0001
0010
0000
0001
0010
0000
0000
,
0200
1300
0020
0130
,
0001
0000
0100
0001
0000
0000
1000
0000
0100
1000
0000
0000
,
0020
0000
0130
0000
,
0001
0000
0100
0001
0000
0000
1000
0000
0100
1000
0000
0000
,
0002
0013
0200
1300
,
0001
0000
0100
0001
0000
0000
1000
0000
0010
1000
0000
0000
,
0002
0000
0000
0023
0000
0000
0130
0000
0000
1000
0001
1000
,
0001
1000
1100
0001
,
1000
0001
0101
1000
,
0001
0000
0100
0020
0000
0000
1030
0000
0100
0020
0000
0000
,
0031
0000
0000
1000
0001
1000
0001
0000
0000
0000
0000
0000
,
1000
0100
1000
0100
0000
0000
0100
0000
0000
0010
0000
0000
,
0001
0100
0001
0100
0000
0000
0100
0000
0000
0010
0000
0000
,
2020
0000
0000
3030
0000
0000
0001
0000
0001
0010
0000
0000
,
0100
0000
0100
1000
0000
0000
2002
0000
0000
3003
0000
0000
,
0001
0100
0001
0100
0000
0000
0001
1000
0001
1000
0000
0000
,
1000
0100
1000
0100
0000
0000
1000
0001
1000
0001
0000
0000
,
1000
0000
1000
0000
1000
0000
0001
0000
0001
0000
0001
0000
,
0200
0310
0220
0330
,
2002
0000
0000
3003
0000
0000
0001
0000
0100
0010
0000
0000
,
2000
0100
0002
3003
,
1000
0000
1000
0100
0000
0000
0010
0000
0010
0001
0000
0000
,
2000
0001
3001
0000
,
2002
0000
0000
3003
0000
0000
1000
0000
0010
0100
0000
0000
,
0002
0010
2000
3003
,
0001
0000
0010
0001
0000
0000
1000
0000
0010
1000
0000
0000
,
0002
0103
2002
3003
,
1000
0000
0100
1000
0000
0000
0001
0000
0100
0001
0000
0000
,
2000
3010
2002
3003
,
1000
0000
1000
0100
0000
0100
0010
0000
0010
0001
0000
0001
,
0200
0310
1001
0000
;

//---------------dance-single - ----------------
#NOTES:
     dance-single:
     :
     Easy:
     5:
     0.247013,0.270739,0.111228,0.576363,0.000000,171.000000,160.000000,11.000000,57.000000,0.000000,0.000000,0.247013,0.270739,0.111228,0.576363,0.000000,171.000000,160.000000,11.000000,57.000000,0.000000,0.000000:
0000
0000
0000
0000
,
0000
0000
0000
0000
,
0000
0000
0000
0000
,
0000
0000
0000
0000
,
1000
0100
0010
0000
,
0001
0100
0010
0000
,
2000
3000
0002
0003
,
0010
0000
1001
0000
,
0002
0003
0100
0010
,
2000
3000
0002
0003
,
1000
0100
0010
0001
,
0200
0000
0000
0300
,
2002
3003
1000
0001
,
0020
0030
0200
0300
,
1000
0010
0100
0001
,
2000
0000
3000
0000
,
0001
0001
0100
0010
,
2000
3000
0200
0300
,
1000
1000
0010
0100
,
0002
0003
0020
0030
,
0001
0100
0010
1000
,
0100
0100
0010
0000
,
2002
3003
0220
0330
,
0001
1000
0010
0000
,
2002
3003
1000
0001
,
0200
0300
0020
0030
,
1000
1000
0001
0001
,
0020
0000
0000
0030
,
2002
3003
0001
0100
,
0020
0030
2000
3000
,
0001
0010
0100
1000
,
0020
0000
0030
0000
,
1000
1000
0100
0000
,
0010
0010
0001
0000
,
1000
0001
0100
0100
,
0010
1000
0001
0000
,
0001
0010
0010
0000
,
0100
1000
1000
0000
,
0001
0100
0010
1000
,
0100
0010
0001
0000
,
2000
3200
2300
3200
,
0320
0032
0023
0032
,
1003
0000
0001
0100
,
0010
0000
1000
0000
,
0002
0023
0032
0023
,
0230
2300
3200
2300
,
3010
0000
1001
0000
,
0100
0000
0110
0000
,
2002
3003
0001
1000
,
0020
0130
0020
0130
,
0001
0001
1000
1000
,
0200
0000
0000
0300
,
2002
3003
1000
0001
,
0200
0310
0200
0310
,
1000
0100
0010
0001
,
2000
0000
0000
3000
,
0001
0100
0010
1000
,
0002
0000
0000
0003
,
1000
0100
0010
0001
,
0200
0300
1001
0000
;

//---------------dance-single - ----------------
#NOTES:
     dance-single:
     :
     Beginner:
     1:
     0.115562,0.150411,0.020223,0.182009,0.000000,80.000000,78.000000,2.000000,18.000000,0.000000,0.000000,0.115562,0.150411,0.020223,0.182009,0.000000,80.000000,78.000000,2.000000,18.000000,0.000000,0.000000:
0000
0000
0000
0000
,
0000
0000
0000
0000
,
0000
0000
0000
0000
,
0000
0000
0000
0000
,
0001
0000
0000
0000
,
0100
0000
0000
0000
,
0010
0000
0010
0000
,
0010
0000
0000
0000
,
2000
3000
0000
0000
,
0100
0000
0000
0000
,
0010
0000
0010
0000
,
0020
0000
0030
0000
,
0002
0003
0000
0000
,
0100
0000
0000
0000
,
0010
0000
0010
0000
,
0020
0000
0030
0000
,
1000
0000
1000
0000
,
2000
3000
0000
0000
,
0100
0000
0100
0000
,
0200
0300
0000
0000
,
0010
0000
0010
0000
,
0020
0030
0000
0000
,
0001
0000
0000
0000
,
1000
0000
0000
0000
,
0002
0003
0000
0000
,
0100
0000
0000
0000
,
0010
0000
0010
0000
,
0020
0000
0030
0000
,
2000
3000
0000
0000
,
0100
0000
0000
0000
,
0010
0000
0010
0000
,
0020
0000
0030
0000
,
0000
0001
0001
0000
,
0000
0100
0100
0000
,
0000
0010
0010
0000
,
0000
0000
1000
0000
,
0000
1000
1000
0000
,
0000
0100
0100
0000
,
0000
0000
0010
0000
,
0010
0000
0000
0000
,
0001
0001
0001
0000
,
0001
0000
0000
0000
,
0200
0300
0000
0000
,
0020
0030
0000
0000
,
1000
1000
1000
0000
,
1000
0000
0000
0000
,
0200
0000
0300
0000
,
0020
0000
0030
0000
,
1001
0000
0000
0000
,
0001
0000
0000
0000
,
0100
0000
0100
0000
,
0200
0000
0300
0000
,
0010
0000
0000
0000
,
1000
0000
0000
0000
,
0100
0000
0100
0000
,
0200
0000
0300
0000
,
0010
0000
0010
0000
,
0020
0000
0030
0000
,
0001
0000
0001
0000
,
0001
0000
1001
0000
;

//---------------dance-double - ----------------
#NOTES:
     dance-double:
     :
     Hard:
     13:
     0.576363,0.752053,0.151674,0.505582,0.925214,399.000000,384.000000,15.000000,50.000000,0.000000,0.000000,0.576363,0.752053,0.151674,0.505582,0.925214,399.000000,384.000000,15.000000,50.000000,0.000000,0.000000:
00000000
00000000
00000000
00000000
,
00000000
00000000
00000000
00000000
,
00000000
00000000
00000000
00000000
,
00000000
00000000
00000000
00000000
,
00001000
00000000
00100000
00001000
00000000
00001000
01000000
00000000
00100000
10000000
00000000
00010000
,
00200000
00000000
00000000
10300000
00000000
00100000
00002000
00000000
00000000
00013000
00000000
00000000
,
00010010
00000000
00001000
00000010
00000000
00010000
00000100
00000000
00000100
00000010
00000000
00000002
,
00000000
00000000
00001003
00000000
,
00001020
00000000
00000000
00000031
00000000
00000010
00001000
00000000
00001000
00000100
00000000
00010000
,
00002000
00000000
00000000
00003010
00000000
00001000
00020000
00000000
00000000
00130000
00000000
10000000
,
00010000
00000000
00010000
00100000
00000000
00100000
01000000
00000000
01000000
00010000
00000000
00010000
,
00002000
00000000
00000000
00000100
00000000
00000000
00013000
00000000
00001000
00100000
00000000
00010000
,
02000000
00000000
00000000
13000000
00000000
01000000
00010000
00000000
00010000
00100000
00000000
00001000
,
00020000
00000000
00000000
01030000
00000000
00010000
00002000
00000000
00000000
00003100
00000000
00000000
,
00001010
00000000
00001000
00000001
00000000
00000001
00000010
00000000
00000100
00010000
00000000
00001000
,
02000000
00000000
00000000
03010000
10000000
00010000
10000000
00000000
00000000
00000000
00000000
00000000
,
10100000
00000000
00100000
01000000
00000000
01000000
10000000
00000000
10000000
01000000
00000000
00010000
,
00200000
00000000
00000000
00301000
00000000
00010000
00000020
00000000
00000000
00000130
00000000
00000000
,
00000101
00000000
00000100
00000010
00000000
00000010
00000001
00000000
00000001
00000010
00000000
00001000
,
00000200
00000000
00000000
00010300
00000000
00001000
00100000
00000000
00100000
03010000
10000000
00010000
,
10000000
00000000
10000000
00100000
00000000
00100000
00010000
00000000
00010000
00001000
00000000
00001000
,
00000010
00000000
00000002
00000000
00000000
00001003
00000010
00000000
00000010
00000100
00000000
00000000
,
00000102
00000000
00000000
00002003
00000000
00000000
00003100
00000000
00000001
00000100
00000000
00010000
,
00001000
00000000
00000000
00010000
00001000
00100000
00010000
00000000
00000000
00000000
00000000
00000000
,
20020000
00000000
00000000
30030000
00000000
10000000
00100000
00000000
00100000
01000000
00000000
00001000
,
00020000
00000000
00000000
00130000
00000000
00010000
00002000
00000000
00000000
00003010
00000000
00000000
,
00000001
00000000
00000001
00000100
00000000
00000100
00000010
00000000
00000001
00000010
00000000
00001000
,
00000200
00010000
00001000
00000310
,
00002002
00000000
00000000
00003003
00000000
00000001
00000100
00000000
00000100
00000010
00000000
00010000
,
00002000
00000000
00000000
00003100
00000000
00001000
00020000
00000000
00000000
01030000
00000000
00000000
,
11000000
00000000
00010000
10000000
00000000
10000000
00100000
00000000
01000000
00001000
00000000
00010000
,
00000020
00000000
00000000
00001330
00000100
00000010
00000001
00000000
00000000
00001000
00000001
00001000
,
00000010
00000000
00001000
00000100
00001000
00000100
00010000
00000000
00010000
00001000
00000000
00001000
,
00100000
00000000
00010000
01000000
00010000
01000000
00100000
00000000
10300000
00010000
00000000
00000000
,
00010000
00000000
01000000
00010000
00000000
00200000
00000000
30000000
00301000
00010000
00000000
00000010
,
00001000
00000000
00001000
00000100
00000000
00000100
00010000
00001000
00010000
00001000
00100000
00010000
,
01000000
00000000
00010000
00100000
00010000
00100000
00001000
00000000
00001000
00010000
00000000
00010000
,
00000100
00000000
00001000
00000010
00001000
00000010
00000100
00000000
00000301
00001003
00000000
00000000
,
00001000
00000000
00000010
00000200
00000000
00000000
00000301
00000000
00000010
00000200
00000000
00000000
,
00020300
00000000
00031000
00000000
,
00001000
00100000
00001000
00010000
00000010
00010000
00001000
01000000
00001000
00010000
00000100
00010000
,
00001000
00100000
00001000
00100000
00010000
00100000
00010000
01000000
00100000
10000000
01000000
00100000
,
00020000
00000000
00000000
00000000
00000000
10030000
00130000
00000000
00100000
01000000
00000000
00010000
,
20000000
00000000
00000000
00000000
32000000
00000000
30000000
00000000
03320000
00000000
00000000
00000000
00032000
00000000
00000000
00000000
00200000
00000000
00000000
00000000
03300000
00300000
03030000
00000000
,
00313000
00000100
00010000
00001000
01000000
00001000
00010000
00000010
00010000
00001000
00100000
00001000
,
00010000
00000100
00010000
00000100
00001000
00000100
00001000
00000010
00000100
00000001
00000010
00000100
,
00020000
00000000
00000100
00000000
00001000
00000000
00032000
00000000
01000000
00000000
00013000
00000000
,
00021000
00000000
00000000
00031000
01000000
00010000
10000000
00000000
00000000
00000000
00000000
00000000
,
22000000
00000000
00000000
33000000
00000000
00010000
01000000
00000000
10000000
01000000
00000000
00010000
,
00200000
00000000
00000000
00301000
00000000
00010000
00000010
00000100
00000010
00000130
00000000
00000000
,
00000001
00000000
00000001
00000010
00000000
00000010
00001000
00000000
00000010
00000001
00000000
00000100
,
00000020
00000000
00000000
00000001
00000000
00000000
00001030
00000100
00000010
00000001
00000000
00000000
,
00000202
00000000
00000000
00000303
00000000
00001000
00000100
00000000
00000001
00000100
00000000
00001000
,
00000020
00000000
00000000
00010030
00000000
00001000
01000000
00100000
01000000
00100000
00000000
00000000
,
10100000
00000000
10000000
01000000
00000000
01000000
00100000
00000000
00001000
00010000
00000000
00000010
,
00000200
00001000
00000010
00000301
,
00000101
00000000
00000001
00000010
00000000
00000010
00000100
00000000
00010000
00001000
00000000
01000000
,
00200000
00010000
01000000
10300000
,
10010000
00000000
10000000
00010000
00000000
00010000
00001000
00000000
00001000
00000001
00000000
00000001
,
00000200
00000000
00000000
00000301
00000010
00000103
00001000
00000000
00000000
00000000
00000000
00000000
;

//---------------dance-double - ----------------
#NOTES:
     dance-double:
     :
     Medium:
     8:
     0.416021,0.451232,0.171898,0.404465,0.374130,288.000000,271.000000,17.000000,40.000000,0.000000,0.000000,0.416021,0.451232,0.171898,0.404465,0.374130,288.000000,271.000000,17.000000,40.000000,0.000000,0.000000:
00000000
00000000
00000000
00000000
,
00000000
00000000
00000000
00000000
,
00000000
00000000
00000000
00000000
,
00000000
00000000
00000000
00000000
,
00010000
00000000
00001000
00010000
00000000
00000000
00001000
00000000
00100000
00001000
00000000
00000000
,
00200000
00310000
02000000
03100000
,
10000000
00000000
00100000
10000000
00000000
00000000
00010000
00000000
00200000
00000000
00000000
01300000
,
00000000
00000000
10010000
00000000
,
22000000
00000000
00000000
33000000
00000000
00000000
00010000
00000000
01000000
00010000
00000000
00000000
,
00200000
00301000
00020000
00030010
,
00010000
00000000
00010000
00000100
00000000
00000100
00000010
00000000
00000010
00000001
00000000
00000001
,
00002000
00000001
00003001
00000000
,
00000022
00000000
00000000
00000033
00000000
00000000
00001000
00000000
00000010
00001000
00000000
00000000
,
00000200
00010300
00002000
01003000
,
00001000
00000000
00001000
00100000
00000000
00100000
01000000
00000000
01000000
10000000
00000000
10000000
,
00020000
10000000
10030000
00000000
,
10100000
00000000
00000000
00100000
00000000
00000000
01000000
00000000
00000000
00010000
00000000
00100000
,
00001000
00000000
00000000
00010000
00000000
00000000
00000010
00000000
00000000
00001000
00000000
00000100
,
00000010
00000000
00000000
00000001
00000000
00000000
00001000
00000000
00000000
00000010
00000000
00000100
,
00000001
00000000
00000000
00001000
00000000
00000000
00000001
00000000
00000001
00000010
00000000
00000010
,
00000100
00000000
00000000
00001000
00000000
00000000
00000010
00000000
00000000
00010000
00000000
00001000
,
00100000
00000000
00000000
00010000
00000000
00000000
10000000
00000000
00000000
00100000
00000000
01000000
,
00010000
00000000
00000000
10000000
00000000
00000000
01000000
00000000
00100000
00010000
00000000
00000000
,
01000000
00000000
00000000
00010000
10000000
00010000
10000000
00000000
00000000
00000000
00000000
00000000
,
22000000
00000000
00000000
33000000
00000000
00000000
00010000
00000000
01000000
00010000
00000000
10000000
,
00200000
01300000
00002000
00013000
,
00001000
00000000
00001000
00010000
00000000
00010000
00000100
00000000
00000100
00000010
00000000
00000010
,
00000002
00001000
00001003
00000000
,
00000022
00000000
00000000
00000033
00000000
00000000
00001000
00000000
00000010
00001000
00000000
00000001
,
00000200
00000310
00020000
00031000
,
00010000
00000000
00010000
00001000
00000000
00001000
00100000
00000000
00100000
01000000
00000000
01000000
,
20000000
00010000
30010000
00000000
,
10000000
00100000
10100000
10000000
,
00010000
00100000
00101000
00001000
,
00010000
00000000
00001000
00010000
00000000
00000000
00000010
00000000
00001000
00000010
00000000
00000000
,
00002000
00000001
00003001
00000000
,
00000001
00000010
00000011
00000001
,
00001000
00000010
00001010
00000010
,
00010000
00000000
00001000
00010000
00000000
00000000
00001000
00000000
00100000
00001000
00000000
00000000
,
00200000
01300000
01100000
00000000
,
10000000
00000000
10000000
01000000
00000000
00000000
00100000
00000000
00100000
00010000
00000000
00000000
,
01000000
00000000
01000000
00001000
00000000
00000000
00010000
00000000
00010000
00000010
00000000
00000000
,
00002020
00000000
00000000
00003030
00000000
00000000
00000001
00000000
00000100
00000001
00000000
00000000
,
00001000
00000000
00000100
00000000
00000010
00000000
00000002
00000000
00000000
00001003
00000000
00000000
,
00000001
00000000
00000001
00000010
00000000
00000000
00000100
00000000
00000100
00001000
00000000
00000000
,
00000010
00000000
00000010
00010000
00000000
00000000
00001000
00000000
00001000
01000000
00000000
00000000
,
00010000
00000000
00010000
00000000
00010000
00000000
10000000
00000000
10000000
00000000
10000000
00000000
,
02000000
03000000
10010000
00000000
,
22000000
00000000
00000000
33000000
00000000
00000000
00010000
00000000
01000000
00010000
00000000
00000000
,
00200000
00000000
00000000
00301000
00000000
00001000
00020000
00000000
00000000
00030010
00000000
00000000
,
00010000
00000000
00010000
00000100
00000000
00000100
00000010
00000000
00000010
00000001
00000000
00000001
,
00002000
00000001
00003001
00000000
,
00000022
00000000
00000000
00000033
00000000
00000000
00001000
00000000
00000010
00001000
00000000
00000000
,
00000200
00000000
00000000
00010300
00000000
00010000
00002000
00000000
00000000
01003000
00000000
00000000
,
00001000
00000000
00010000
00001000
00000000
00000000
00100000
00000000
00001000
00100000
00000000
00000000
,
00002000
00013000
00011000
00000000
,
00010000
00000000
00001000
00010000
00000000
00000000
00000100
00000000
00010000
00000100
00000000
00000000
,
00020000
00031000
00011000
00000000
,
00001000
00000000
00001000
01000000
00000000
01000000
00100000
00000000
00100000
10000000
00000000
10000000
,
00010000
00000000
00000000
10000000
00010000
10000000
00010000
00000000
00000000
00000000
00000000
00000000
;

//---------------dance-double - ----------------
#NOTES:
     dance-double:
     :
     Easy:
     5:
     0.235457,0.270739,0.050558,0.475247,0.000000,163.000000,158.000000,5.000000,47.000000,0.000000,0.000000,0.235457,0.270739,0.050558,0.475247,0.000000,163.000000,158.000000,5.000000,47.000000,0.000000,0.000000:
00000000
00000000
00000000
00000000
,
00000000
00000000
00000000
00000000
,
00000000
00000000
00000000
00000000
,
00000000
00000000
00000000
00000000
,
00001000
00001000
00010000
00000000
,
00000010
00000010
00001000
00000000
,
00000001
00000010
00000100
00001000
,
00000010
00000000
00000000
00000000
,
00020000
00030000
00001000
00100000
,
00020000
00030000
20000000
30000000
,
00100000
00100000
01000000
01000000
,
00002000
00000000
00003000
00000000
,
00020000
00030000
00000010
00001000
,
00000200
00000300
00000020
00000030
,
00000001
00000001
00001000
00001000
,
00000020
00000000
00000030
00000000
,
00010000
00000000
00010000
00001000
,
00100000
00000000
00100000
00010000
,
10000000
00000000
10000000
00100000
,
01000000
00010000
10000000
00000000
,
00010000
00000000
00010000
00100000
,
00001000
00000000
00001000
00010000
,
00000010
00000010
00000100
00000100
,
00000001
00001000
00000100
00000000
,
00020000
00030000
00001000
00001000
,
02000000
03000000
00200000
00300000
,
10000000
00010000
10000000
00010000
,
00200000
00000000
00000000
00300000
,
00002000
00003000
00010000
00010000
,
00000020
00000030
00000200
00000300
,
00000001
00001000
00000001
00001000
,
00000200
00000000
00000300
00000000
,
00010000
00001000
00100000
00000000
,
00001000
00010000
00000010
00000000
,
00010000
00001000
01000000
00000000
,
00001000
00010000
00000100
00000000
,
00010000
00010000
00000010
00000000
,
00010000
00001000
00010000
00000000
,
00001000
00001000
00100000
00000000
,
00001000
00010000
00001000
00000000
,
00020000
00030020
00020030
00030020
,
00002030
00003002
00002003
00003002
,
00000023
00000030
00000001
00000100
,
00000020
00000030
00020000
00030000
,
00002000
00203000
00302000
00203000
,
00320000
20030000
30020000
20030000
,
30100000
00000000
10010000
00000000
,
00100000
00000000
01100000
00000000
,
20020000
30030000
10000000
00010000
,
02000000
03001000
00020000
00030000
,
00001000
00001000
00010000
00000100
,
00000020
00000000
00000030
00000000
,
00002002
00003003
00000001
00001000
,
00000020
00010030
00002000
00003000
,
00010000
00001000
00100000
00100000
,
00002000
00000000
00003000
00000000
,
00001000
00010000
00000010
00000010
,
00020000
00000000
00030000
00000000
,
00010000
00001000
00100000
00100000
,
02000000
03000000
13010000
00000000
;
