#VERSION:0.83;
#TITLE:Here We Go Now;
#SUBTITLE:;
#ARTIST:Whac-A-Me;
#TITLETRANSLIT:;
#SUBTITLETRANSLIT:;
#ARTISTTRANSLIT:;
#GENRE:HARD PSY;
#CREDIT:;
#MUSIC:Here We Go Now.ogg;
#BANNER:Here We Go Now.png;
#BACKGROUND:Here We Go Now-bg.png;
#CDTITLE:./CDTitles/bm IIDX 32 Pinky Crush.png;
#SAMPLESTART:91.765;
#SAMPLELENGTH:15.000;
#SELECTABLE:YES;
#OFFSET:0.000;
#BPMS:0.000=170.000
,164.000=85.000
,212.000=170.000
;
#STOPS:;
#TIMESIGNATURES:0.000=4=4;
#BGCHANGES:0.000=Here We Go Now.mp4=1.000=0=0=0=StretchNoLoop====,
99999.000=-nosongbg-=1.000=0=0=0=StretchNoLoop====
;
#FGCHANGES:;

//--------------- dance-single - forcednature ----------------
#NOTEDATA:;
#STEPSTYPE:dance-single;
#DESCRIPTION:forcednature;
#DIFFICULTY:Beginner;
#METER:4;
#RADARVALUES:0,0,0,0,0;
#CREDIT:forcednature;
#NOTES:
0000
0000
0000
0000
,
0000
0000
0000
0000
,
0000
0000
0000
0000
,
0000
0000
0000
0000
,
0000
0000
0000
0000
,
0000
0000
0000
0000
,
1000
0000
1000
0000
,
0001
0000
0001
0000
,
1000
0001
1000
0001
,
0000
0000
0000
0000
,
0100
0000
0100
0000
,
0001
0000
0000
0000
,
0010
0000
0010
0000
,
0001
0000
0000
0000
,
0100
0000
0010
0000
,
0100
0000
0010
0000
,
1000
0000
0001
0000
,
1000
0000
0000
0000
,
0100
0000
0100
0000
,
0100
0000
0100
0000
,
0010
0000
0010
0000
,
0010
0000
0001
0000
,
1000
0000
0000
0000
,
0001
0000
0000
0000
,
0100
0000
0010
0000
,
0000
0000
0000
0000
,
0000
0000
0110
0000
,
0001
0000
0110
0000
,
0000
0000
1001
0000
,
0100
0000
1001
0000
,
1000
0000
1000
0000
,
0001
0000
1000
0000
,
0001
0000
0001
0000
,
0200
0000
0300
0000
,
0010
0000
1001
0000
,
0100
0000
1001
0000
,
1000
0000
0110
0000
,
0001
0000
0110
0000
,
1000
0000
1000
0000
,
0001
0000
0001
0000
,
1000
0001
1000
0001
,
0000
0000
1001
0000
,
0000
0000
0001
0000
,
0000
0000
0100
0000
,
0000
0000
0010
0000
,
0000
0000
2000
0000
,
0000
3000
0002
0000
,
0000
0003
0020
0000
,
0000
0030
0200
0000
,
0000
0300
1000
0000
,
1000
0000
0001
0000
,
0100
0000
0010
0000
,
0010
0000
1000
0001
,
0000
0000
0000
0000
,
1000
0000
1000
0000
,
0001
0000
0100
0000
,
0001
0000
0001
0000
,
1000
0000
0100
0000
,
0010
0000
0001
0000
,
0100
0000
0001
0000
,
0010
0000
0010
0000
,
0000
0000
0000
0000
,
0001
0001
1000
0000
,
0001
0000
1000
0000
,
0010
0010
0100
0000
,
0010
0000
0100
0000
,
0001
1000
0001
0000
,
1000
0001
1000
0000
,
0100
0010
0100
0010
,
0000
0000
0000
0000
,
1001
0000
0000
0000
;

//--------------- dance-single - forcednature ----------------
#NOTEDATA:;
#STEPSTYPE:dance-single;
#DESCRIPTION:forcednature;
#DIFFICULTY:Easy;
#METER:9;
#RADARVALUES:0,0,0,0,0;
#CREDIT:forcednature;
#NOTES:
0000
0000
0000
0000
,
0000
0000
0000
0000
,
0000
0000
0000
0000
,
0000
0000
0000
0000
,
0000
0000
0000
0000
,
0000
0000
0000
0000
,
1000
1000
0100
0010
,
0001
0001
0100
0010
,
1000
0001
1000
0000
0001
0100
0001
0000
,
1000
0100
0010
0001
,
0100
0000
0100
0000
0010
0100
0010
0000
,
1000
0010
1000
0000
0001
0000
0100
0000
,
0001
0000
0001
0000
0010
0001
0010
0000
,
0100
0010
0100
0000
1000
0000
0001
0000
,
0000
0100
0010
0110
,
0000
0001
1000
1001
,
0000
0100
0010
0110
,
1000
1000
2000
3000
,
0001
0001
0010
1000
,
0010
0001
0010
0100
,
1000
1000
0010
0001
,
0010
1000
0010
0110
,
0001
0100
1000
0100
,
0001
0010
1000
0010
,
0001
0100
1000
0100
,
0020
0000
0000
0030
,
1001
0000
0000
0000
1000
0100
1000
0000
,
0100
0010
0100
0000
0010
0001
0010
0000
,
0001
0000
0000
0000
0100
0001
0100
0000
,
0010
0100
0010
0000
1000
0000
0001
0000
,
0010
0000
0010
0000
0100
0000
0010
0100
,
0000
0010
0100
0010
0000
0100
0010
0000
,
0001
0000
1000
0000
0001
0000
1000
0001
,
1000
0000
0000
0000
,
1001
0000
0000
0000
0000
0000
0001
0000
1000
0001
0000
0000
,
0100
0000
0000
0010
0000
0100
0010
0000
0000
1000
0000
0000
,
0001
0000
0000
0000
0000
0000
0010
0000
0100
0010
0000
0000
,
0100
0000
0000
1000
0000
0001
1000
0000
0000
0001
0000
0000
,
0100
0100
0010
0010
,
1000
1000
0002
0003
,
1000
0100
1000
0000
0001
0100
0001
0000
,
0000
0000
1001
0000
,
0000
0000
1000
0000
,
0001
0010
0100
0000
,
0000
0000
1000
0000
,
0001
0100
0020
0000
,
0000
0000
0030
1000
0002
0000
0023
0000
,
0230
2300
3020
0000
,
0000
0000
0030
1000
0002
0000
2003
0000
,
3200
0000
0320
0000
0031
0000
0001
0001
,
0001
0000
0100
0000
0010
0000
0010
0010
,
0010
0000
1000
0000
0001
0000
0001
0001
,
0010
0000
0100
0000
1000
1000
0001
0001
,
0000
0000
0000
0000
,
1000
0100
0010
0000
0001
0000
0100
0000
,
0001
1000
0001
0000
0010
0000
0100
0000
,
1000
0001
0100
0000
0010
0000
1000
0000
,
0100
1000
0100
0000
0010
0000
0000
0000
,
0001
1001
0100
0110
,
1000
1001
0010
0110
,
0001
1000
0001
0000
0100
0001
0100
0000
,
0010
0010
0020
0030
,
1000
0000
1001
0000
0001
0000
0010
0100
,
1000
0000
0010
0000
0100
0000
0001
1000
,
0001
0000
0010
0000
0100
0000
1000
0001
,
0100
0000
0010
0000
1000
0000
0100
0010
,
0002
0000
0100
0000
0103
0000
0001
1000
,
0002
0000
0010
0000
0013
0000
0001
1000
,
0001
0000
1000
0001
1000
0001
1000
0000
,
0010
0100
0001
0000
,
1001
0000
0000
0000
;

//--------------- dance-single - forcednature ----------------
#NOTEDATA:;
#STEPSTYPE:dance-single;
#DESCRIPTION:forcednature;
#DIFFICULTY:Medium;
#METER:12;
#RADARVALUES:0,0,0,0,0;
#CREDIT:forcednature;
#NOTES:
0000
0000
0000
0000
,
0000
0000
0000
0000
,
0000
0000
0000
0000
,
0000
0000
0000
0000
,
0000
0000
0000
0000
,
0000
0000
0000
0000
,
0001
1000
0001
1000
0100
0010
0001
0000
,
1000
0001
1000
0001
0100
0010
1000
0000
,
0001
0010
0001
0010
0100
1000
0001
1000
,
0020
0030
0200
0300
0002
2003
3002
0003
,
1001
0000
1001
0000
1000
0100
0010
0000
,
0001
1000
0010
1000
0001
0010
0100
0000
,
1001
0000
1001
0000
0001
0100
0010
0000
,
1000
0001
0010
0001
1000
0010
0100
0000
,
0001
1000
0100
0000
0001
0100
1000
0000
,
0001
1000
0010
0000
0001
0010
1000
0000
,
0001
1000
0100
0000
0001
0100
1000
0000
,
0001
0001
1000
1000
0001
1000
0010
0000
,
0110
0000
0000
0110
0000
0000
0001
0000
0001
0100
0000
0000
,
0010
1000
0010
1000
0000
0000
0001
1000
0100
1000
0000
0000
,
0110
0000
0000
0110
0000
0000
1000
0000
1000
0100
0000
0000
,
0010
0001
0010
0001
0000
0000
1000
0001
0100
0001
0000
0000
,
1000
0000
1000
0100
0000
0100
0010
0000
0001
0010
0000
0000
,
0001
0000
0001
0100
0000
0100
0010
0000
1000
0010
0000
0000
,
0100
0000
0100
0001
0000
0001
1000
0000
0100
0010
0000
0000
,
0002
0000
1000
1000
2000
0000
3003
0000
,
1001
0000
0000
0000
1000
0100
0100
0100
,
0010
0100
0100
0100
0001
0000
0100
1000
,
0100
0000
0010
0001
1000
0001
0010
0100
,
0000
1000
0001
0100
0001
1000
0100
0000
,
0010
0010
0020
0000
0230
0000
1300
0010
,
0000
0100
0001
0010
0000
0100
1000
0000
,
0010
0010
0020
0000
0230
0000
0310
0100
,
0001
1000
0001
0000
2002
0000
3003
0000
,
0110
0000
0000
0000
0000
0000
0001
1000
0001
1000
0001
1000
,
0100
0010
0100
0010
0100
0010
0001
0000
0000
1000
0000
0000
,
1001
0000
0000
1000
0000
1000
0010
0000
0100
0001
0100
0001
,
0100
0000
0000
0001
0000
0010
0100
0000
0000
2000
0000
0000
,
3001
0100
0001
0100
0010
1000
0100
0010
,
0001
1000
0001
1000
0010
0100
0001
0000
,
1000
1000
0100
0100
0010
0010
0001
0001
,
0000
0000
1001
0000
,
0000
0000
0000
0000
0000
1000
0100
0010
0001
0000
0000
1000
0000
0000
0000
0010
,
0000
0000
0000
0100
0000
0000
0001
1000
0001
0000
0000
0000
0000
0000
0000
0000
,
0000
0000
0000
0000
0000
1000
0010
0100
0001
0000
0000
0010
0000
0000
0000
0100
,
0000
0000
0000
1000
0000
0000
0000
0000
2002
0000
0000
0000
0000
0000
0000
0000
,
0000
0000
0000
3003
0000
0001
1000
0001
0200
0000
0000
0320
0000
0000
0000
2030
,
0000
0000
0000
3002
0000
0000
0023
0230
0000
0000
0000
0000
0000
0000
0000
0000
,
0000
0000
0000
0300
0000
1000
0100
0010
0002
0000
0000
2003
0000
0000
0000
3020
,
0000
0000
0000
0000
0000
0000
0230
0000
0000
0000
0000
0000
0300
0000
0000
0000
0001
0000
0000
1000
0000
0000
0001
0000
0000
1000
0000
0000
0100
0000
0000
0000
,
0010
0000
0000
0010
0000
0000
0001
0000
0000
0001
0000
0000
1000
0000
0000
0000
0010
0000
0000
0100
0000
0000
0010
0000
0000
0100
0000
0000
0001
0000
0000
0000
,
1000
0000
0000
1000
0000
0000
0001
0000
0000
0001
0000
0000
0010
0000
0000
0000
0100
0000
0000
1000
0000
0000
0001
0000
0000
1000
0000
0000
0010
0000
0000
0000
,
0100
0000
0000
0001
0000
0000
0100
0000
0000
0010
0000
0000
1000
0000
0000
0000
0100
0000
0000
0100
0000
0000
0010
0000
0000
0010
0000
0000
0001
0000
1000
0000
,
0000
0000
0000
0000
,
0001
0000
0100
0001
0000
0100
0001
0000
1000
0000
0100
0000
0010
0000
0001
0000
,
1000
0000
0010
1000
0000
0010
1000
0000
0001
0000
0010
0000
0100
0000
0000
0000
,
1000
0000
0001
1000
0000
0001
1000
0000
0010
0000
0100
0000
0001
0000
1000
0000
,
0100
0000
0010
0100
0000
0010
0100
0000
0010
0000
0001
0000
1000
0000
0000
0000
,
0010
0000
1000
0010
0000
1000
0010
0000
0100
0000
0001
0000
1000
0000
0100
0000
,
0010
0000
0001
1000
0000
0001
1000
0000
0001
0000
0100
0000
0010
0000
0000
0000
,
1000
0000
0001
1000
0000
0001
1000
0000
0100
0000
0010
0000
0001
0000
1000
0000
,
0010
0010
0010
0100
,
0001
1000
0000
1000
0001
0000
0000
0000
0010
0000
0100
0000
1000
0000
0010
0000
,
0100
0010
1000
0100
0010
0001
0100
0100
,
0001
0000
1000
0001
0000
1000
0001
0000
0010
0000
0100
0000
1000
0000
0000
0000
,
0001
0000
0100
0000
0010
0000
1000
0000
0001
1000
0000
1000
0002
0000
0000
0000
,
1003
0010
0100
0010
0001
0010
1000
0001
,
1000
0100
0010
0100
0001
0100
1000
0001
,
1000
0000
0010
0000
0001
0000
0010
0000
1000
0000
0001
0000
1000
0001
1000
0000
,
0001
0000
0000
0010
0000
0000
0100
0000
0000
1000
0000
0000
0100
0000
0000
0000
,
1001
0000
0000
0000
;

//--------------- dance-single - forcednature ----------------
#NOTEDATA:;
#STEPSTYPE:dance-single;
#DESCRIPTION:forcednature;
#DIFFICULTY:Hard;
#METER:15;
#RADARVALUES:0,0,0,0,0;
#CREDIT:forcednature;
#NOTES:
0000
0000
0000
0000
,
0000
0000
0000
0000
,
0000
0000
0000
0000
,
0000
0000
0000
0000
,
0000
0000
0000
0000
,
0000
0000
0000
0000
,
1000
1000
0001
0100
0010
1000
0100
0010
,
0001
0001
1000
0010
0100
0001
1000
0100
,
0010
0100
0010
0100
0010
0000
0001
0000
1000
0001
1000
0001
1000
0000
0010
0000
,
0200
0300
0002
0003
2000
3200
0320
0030
,
0001
0000
1000
0000
0010
0000
1000
0000
0001
0100
0010
0000
1000
0000
0001
0000
,
1000
0100
0010
0000
0001
0000
1000
0001
0000
0001
0100
0000
0010
0000
0000
0000
,
1000
0000
0001
0000
0100
0000
0001
0000
1000
0100
0010
0000
0001
0000
1000
0000
,
0001
0100
0010
0000
1000
0000
0001
1000
0100
0000
0010
0000
0002
0000
0003
0000
,
1000
0010
0100
0010
1000
0001
0011
0000
,
0001
0010
0100
0010
0001
1000
1010
0000
,
1000
0100
1100
0000
0001
0100
0101
0000
,
0001
0010
0001
0000
1000
0010
1000
0000
0001
0010
0001
0000
0100
0000
0000
0000
,
0110
0000
0000
0010
1000
0010
0100
0001
0100
0001
1000
0100
,
0010
0001
0010
0001
0100
0010
1000
0001
1000
0010
0000
0000
,
0110
0000
0000
0100
0001
0100
0010
1000
0010
1000
0001
0010
,
0100
1000
0100
1000
0001
0100
0010
1000
0001
0010
0000
0000
,
0100
1000
0100
1000
0000
1000
0010
0000
0010
0100
0000
0001
,
0100
0001
0100
0001
0000
0001
0010
0000
0010
0100
0000
1000
,
0100
0010
0100
0010
0000
0010
0001
0000
0100
0010
0000
0000
,
1000
0001
0010
0100
2000
0000
3010
0000
,
1001
0000
0000
0000
1000
0000
0010
0000
0100
0000
0001
1000
0001
1000
0001
0000
,
0100
0000
0001
1000
0001
1000
0001
0000
0100
0000
0010
0000
0010
0000
1000
0000
,
0001
0000
0000
0000
0010
0000
0001
0010
0001
0000
1000
0100
1000
0100
1000
0000
,
0001
0100
0010
1000
0100
0010
0001
0000
,
1000
0001
0100
0001
2000
0000
0000
0000
3020
0000
0000
0000
0130
0000
0101
0000
,
0000
1000
0100
1100
0000
0001
0101
0000
,
0001
1000
0100
1000
0002
0000
0000
0000
0023
0000
0000
0000
0130
0000
1100
0000
,
1000
0001
1000
0000
2002
0000
3003
0000
,
0110
0000
0000
1000
0000
0000
0001
0100
0001
0100
0010
1000
,
0001
0010
0001
0010
0100
1000
0010
0000
0100
0001
0000
0000
,
1001
0000
0000
1000
0000
1000
0001
0010
0001
0010
0100
0010
,
0100
1000
0001
0100
0001
1000
0100
0010
0001
1000
0000
0000
,
0002
0010
0023
0100
0230
1000
2300
0001
,
3002
0100
0203
0010
0320
1000
0030
0000
,
1000
0001
1000
0100
0010
0001
1000
0001
1000
0010
1000
0001
0010
0001
1000
0100
,
0000
0000
1001
0000
,
0000
0000
0000
0000
0000
0001
0100
0010
1000
0000
0000
0001
0000
0000
0000
0010
,
0000
0000
0000
0100
0000
0000
1000
0001
0100
0000
0000
0000
0000
0000
0000
0000
,
0000
0000
0000
0000
0000
0001
1000
0100
0010
0000
0000
0001
0000
0000
0000
0100
,
0000
0000
0000
0010
0000
0000
0000
0000
2002
0000
0000
0000
0000
0000
0000
0000
,
0000
0000
0000
3003
0000
1000
0100
0010
0002
0000
0000
0203
0000
0000
0000
0320
,
0000
0000
0000
2030
0000
0000
3002
0023
0000
0000
0000
0000
0000
0000
0000
0000
,
0000
0000
0000
0030
0000
0100
1000
0001
0020
0000
0000
0032
0000
0000
0000
0203
,
0000
0000
0000
0000
0000
0000
0320
0000
0000
0000
0000
0000
0030
0000
0000
0000
1000
0000
0000
1000
0000
0000
0001
0000
0000
1000
0000
0000
0001
0000
0010
0000
,
0100
0000
0000
1000
0000
0000
0001
0000
0000
0010
0000
0000
0001
0000
0000
0000
0100
0000
0000
0100
0000
0000
0001
0000
0000
0100
0000
0000
0010
0000
1000
0000
,
0001
0000
0000
0010
0000
0000
0100
0000
0000
0010
0000
0000
0001
0000
0000
0000
1000
0000
0010
0000
1000
0000
0010
0000
0100
0000
0001
0000
0100
0000
0001
0000
,
1000
0100
0010
0001
1000
0010
1000
0001
0010
0010
0010
0010
0100
0100
0100
0100
,
0000
0000
0000
0000
,
1000
0100
0000
0010
0001
0000
1000
0100
0000
1000
0001
0010
0001
0000
1000
0000
,
0001
0100
0000
0001
0100
0000
0010
1000
0000
0001
0100
0000
0001
1000
0001
0000
,
0010
0100
0000
1000
0100
0000
0010
0001
0000
1000
0001
1000
0010
0000
0100
0000
,
0001
1000
0000
0001
1000
0000
0010
0100
0000
0001
0100
0000
0010
0000
0000
0000
,
1000
0010
0000
0100
0001
0000
1000
0010
0000
1000
0001
0100
0001
0000
1000
0000
,
0100
0010
0000
0001
1000
0000
0010
0100
0000
0001
1000
0000
0001
1000
0001
0000
,
0010
0100
0000
1000
0010
0000
0100
0001
0000
1000
0001
0010
0001
0000
1000
0000
,
0001
0100
0001
0000
1000
0100
1000
0000
0001
0100
0001
0000
0010
0000
0000
0000
,
0001
1000
0000
1000
0001
0000
0010
0100
1000
0000
0010
0100
0001
0000
1000
0000
,
0001
0100
0010
0000
1000
0000
0001
0010
0100
0000
1000
0010
0100
0000
0100
0000
,
0001
1000
0100
0000
0010
0000
0001
1000
0010
0000
1000
0001
0010
0000
0100
0000
,
1000
0001
0100
0000
0001
0000
0010
0000
0001
1000
0000
1000
0001
0100
0010
1000
,
0001
0000
0010
0100
1000
0000
0010
0100
0001
0000
0010
0100
1000
0000
0001
0000
,
1000
0000
0100
0010
0001
0000
0100
0010
1000
0000
0100
0010
0001
0000
1000
0000
,
0001
0100
0001
0000
1000
0100
1000
0000
0001
0010
0100
1000
0001
0100
0001
1000
,
0100
0000
0000
0010
0000
0000
0001
0000
0000
1000
0000
0000
0010
0000
0000
0000
,
1001
0000
0000
0000
;

//--------------- dance-double - forcednature ----------------
#NOTEDATA:;
#STEPSTYPE:dance-double;
#DESCRIPTION:forcednature;
#DIFFICULTY:Easy;
#METER:9;
#RADARVALUES:0,0,0,0,0;
#CREDIT:forcednature;
#NOTES:
00000000
00000000
00000000
00000000
,
00000000
00000000
00000000
00000000
,
00000000
00000000
00000000
00000000
,
00000000
00000000
00000000
00000000
,
00000000
00000000
00000000
00000000
,
00000000
00000000
00000000
00000000
,
00001000
00001000
00010000
00010000
,
00001000
00001000
00010000
00010000
,
00001000
00010000
00001000
00000000
00010000
00001000
00010000
00000000
,
00000100
00001000
00000001
00000010
,
00001001
00000000
00001000
00000000
00000001
00001000
00000001
00000000
,
00000100
00000010
00000100
00000000
00000001
00000000
00001000
00000000
,
00000100
00000000
00000100
00000000
00010000
00001000
00010000
00000000
,
00001000
00100000
00001000
00000000
00100000
00000000
00020000
00000000
,
00030000
01000000
00100000
01100000
,
00000000
00010000
10000000
10010000
,
00000000
00100000
01000000
01100000
,
00010000
00010000
00020000
00030000
,
00100000
00100000
00001000
00010000
,
00001000
01000000
00001000
00010000
,
00000100
00000100
00010000
00001000
,
00010000
00000010
00010000
00011000
,
00000000
00001000
00000010
00001000
,
00000000
00010000
00100000
00010000
,
00000000
00001000
00000010
00001000
,
00020000
00000000
00000000
00030000
,
00011000
00000000
00000000
00000000
00000100
00001000
00000100
00000000
,
00010000
00001000
00010000
00000000
00000010
00001000
00000010
00000000
,
00010000
00000000
00000000
00000000
00001000
01000000
00001000
00000000
,
00010000
00001000
00010000
00000000
00100000
00000000
00010000
00000000
,
01000000
00000000
01000000
00000000
00100000
00000000
01000000
00100000
,
00000000
01000000
00100000
01000000
00000000
00100000
01000000
00000000
,
00010000
00000000
10000000
00000000
00010000
00000000
10000000
00010000
,
10000000
00000000
00000000
00000000
,
10010000
00000000
00000000
00000000
00000000
00000000
00010000
00000000
10000000
00010000
00000000
00000000
,
00100000
00000000
00000000
00010000
00000000
00100000
00010000
00000000
00000000
01000000
00000000
00000000
,
00001000
00000000
00000000
00000000
00000000
00000000
00010000
00000000
00001000
00010000
00000000
00000000
,
00000100
00000000
00000000
00001000
00000000
00000100
00001000
00000000
00000000
00000020
00000000
00000000
,
00000130
00000100
00000001
00000001
,
00001000
00001000
00000020
00000030
,
00001000
00000001
00001000
00000000
00000001
00001000
00000001
00000000
,
00000000
00000000
00001001
00000000
,
00000000
00000000
00000001
00000000
,
00000100
00001000
00010000
00000000
,
00000000
00000000
00001000
00000000
,
00010000
00100000
20000000
00000000
,
00000000
00000000
30000000
00010000
00200000
00000000
02300000
00000000
,
23000000
32000000
03200000
00000000
,
00000000
00000000
00300000
00001000
00020000
00000000
00030200
00000000
,
00002300
00000000
00003002
00000000
00000013
00000000
00000010
00000010
,
00000010
00000000
00000100
00000000
00010000
00000000
00010000
00010000
,
00010000
00000000
00001000
00000000
01000000
00000000
01000000
01000000
,
00010000
00000000
00100000
00000000
00010000
00010000
10000000
10000000
,
00000000
00000000
00000000
00000000
,
00010000
10000000
00010000
00000000
00100000
00000000
00001000
00000000
,
00010000
00001000
00010000
00000000
00000100
00000000
00001000
00000000
,
00000010
00001000
00000010
00000000
00000100
00000000
00000001
00000000
,
00000010
00000001
00000010
00000000
00000100
00000000
00000000
00000000
,
00001000
00001001
00000001
00000100
,
00000010
00000110
00001000
00000100
,
00010000
00001000
00010000
00000000
00001000
00010000
00001000
00000000
,
00100000
00100000
00200000
00300000
,
00010000
00000000
10010000
00000000
10000000
00000000
00100000
01000000
,
00010000
00000000
10000000
00000000
00010000
00000000
00100000
00010000
,
00100000
00001000
00010000
00000010
,
00001000
00000000
00000100
00000000
00000010
00000000
00000001
00001000
,
00000001
00000000
00000100
00000000
00001000
00000000
00010000
00001000
,
00010000
00000000
00100000
00000000
10000000
00000000
00010000
10000000
,
00010000
00000000
10000000
00010000
10000000
00010000
10000000
00000000
,
01000000
00100000
00010000
00000000
,
10010000
00000000
00000000
00000000
;

//--------------- dance-double - forcednature ----------------
#NOTEDATA:;
#STEPSTYPE:dance-double;
#DESCRIPTION:forcednature;
#DIFFICULTY:Medium;
#METER:12;
#RADARVALUES:0,0,0,0,0;
#CREDIT:forcednature;
#NOTES:
00000000
00000000
00000000
00000000
,
00000000
00000000
00000000
00000000
,
00000000
00000000
00000000
00000000
,
00000000
00000000
00000000
00000000
,
00000000
00000000
00000000
00000000
,
00000000
00000000
00000000
00000000
,
00010000
00001000
00010000
00001000
00100000
00010000
00100000
00000000
,
01000000
10000000
01000000
10000000
00010000
01000000
00001000
00000000
,
00010000
00001000
00010000
00001000
00010000
00000100
00001000
00000100
,
00000020
00000030
00000200
00000300
00002000
00003002
00002003
00003000
,
00001001
00000000
00001001
00000000
00000001
00000100
00000001
00000000
,
00001000
00000000
00000010
00000000
00010000
00000000
00000000
00001000
00000000
00000000
00010000
00000000
00001000
00000000
00000000
00000000
,
00011000
00000000
00011000
00000000
01000000
00010000
01000000
00000000
,
00100000
00000000
10000000
00000000
01000000
00000000
00000000
00100000
00000000
00000000
00010000
00000000
01000000
00000000
00000000
00000000
,
10010000
10000000
01000000
00010000
,
00001000
00000100
00000001
00000010
,
00001000
00010000
00100000
10000000
,
00010000
00010000
10000000
10000000
00010000
10000000
01000000
00000000
,
01100000
00000000
00000000
00100000
00000000
00000000
00001000
00000000
00001000
00010000
00000000
00000000
,
00000100
00001000
00000100
00001000
00000000
00000000
00000001
00000100
00000010
00001000
00000000
00000000
,
00000110
00000000
00000000
00000010
00000000
00000000
00001000
00000000
00001000
00000100
00000000
00000000
,
00010000
00001000
00010000
00001000
00000000
00000000
01000000
00010000
01000000
00100000
00000000
00000000
,
10010000
00000000
00000000
10000000
00000000
01000000
00100000
00000000
00010000
00100000
00000000
00000000
,
00011000
00000000
00000000
00001000
00000000
00010000
00000100
00000000
00001000
00000010
00000000
00000000
,
00000110
00000000
00000000
00000001
00000000
00000010
00000100
00000000
00001000
00000001
00000000
00000000
,
00000200
00000000
00000010
00000010
00000020
00000000
00000330
00000000
,
00001001
00000000
00000000
00000000
00000001
00000100
00000001
00000100
,
00000010
00001000
00000010
00001000
00010000
00000000
01000000
00100000
,
01000000
00000000
00010000
10000000
00010000
00100000
01000000
10000000
,
00000000
01000000
00010000
00001000
00100000
00001000
00010000
00000000
,
00001000
00001000
00002000
00000000
00003020
00000000
00000031
00000010
,
00000000
00000100
00001000
00000010
00000000
00000100
00000001
00000000
,
00000010
00000010
00000020
00000000
00000230
00000000
00000310
00000001
,
00001000
00000010
00001000
00000000
00002002
00000000
00003003
00000000
,
00000110
00000000
00000000
00000000
00000000
00000000
00000001
00001000
00000001
00000000
00000001
00000000
,
00000100
00000010
00000100
00000000
00000100
00000000
00001000
00000000
00010000
00001000
00000000
00000000
,
00011000
00000000
00000000
00010000
00000000
00010000
00100000
00000000
00100000
10000000
00000000
00000000
,
00010000
00000000
00000000
10000000
00000000
01000000
00100000
00000000
00000000
00020000
00000000
00000000
,
01030000
00001000
01000000
00001000
00010000
00001000
00010000
00001000
,
00010000
00000100
00010000
00000100
00001000
00000100
00000010
00000000
,
00000001
00001000
00000001
00001000
00000010
00000100
00000001
00001000
,
00000000
00000000
00001001
00000000
,
00000000
00000000
00000000
00000000
00000000
00000001
00000100
00000010
00001000
00000000
00000000
00000100
00000000
00000000
00000000
00010000
,
00000000
00000000
00000000
00001000
00000000
00000000
00100000
00010000
00100000
00000000
00000000
00000000
00000000
00000000
00000000
00000000
,
00000000
00000000
00000000
00000000
00000000
00010000
10000000
01000000
00100000
00000000
00000000
00010000
00000000
00000000
00000000
01000000
,
00000000
00000000
00000000
00001000
00000000
00000000
00000000
00000000
00022000
00000000
00000000
00000000
00000000
00000000
00000000
00000000
,
00000000
00000000
00000000
00033000
00000000
00010000
00001000
00010000
00002000
00000000
00000000
00003200
00000000
00000000
00000000
00000302
,
00000000
00000000
00000000
00000203
00000000
00000000
00000320
00002030
00000000
00000000
00000000
00000000
00000000
00000000
00000000
00000000
,
00000000
00000000
00000000
00003000
00000000
00000001
00000010
00000100
00002000
00000000
00000000
00003020
00000000
00000000
00000000
00020030
,
00000000
00000000
00000000
00000000
00000000
00000000
00032000
00000000
00000000
00000000
00000000
00000000
00003000
00000000
00000000
00000000
01000000
00000000
00000000
00010000
00000000
00000000
01000000
00000000
00000000
00010000
00000000
00000000
00100000
00000000
00000000
00000000
,
01000000
00000000
00000000
01000000
00000000
00000000
10000000
00000000
00000000
10000000
00000000
00000000
01000000
00000000
00000000
00000000
00100000
00000000
00000000
00010000
00000000
00000000
00100000
00000000
00000000
00010000
00000000
00000000
01000000
00000000
00000000
00000000
,
00001000
00000000
00000000
00001000
00000000
00000000
00010000
00000000
00000000
00010000
00000000
00000000
00001000
00000000
00000000
00000000
00000010
00000000
00000000
00000001
00000000
00000000
00001000
00000000
00000000
00000001
00000000
00000000
00000010
00000000
00000000
00000000
,
00000100
00000000
00000000
00010000
00000000
00000000
00001000
00000000
00000000
00010000
00000000
00000000
00000010
00000000
00000000
00000000
00010000
00000000
00000000
00010000
00000000
00000000
00001000
00000000
00000000
00001000
00000000
00000000
00010000
00000000
00001000
00000000
,
00000000
00000000
00000000
00000000
,
00010000
00000000
00000000
00001000
00000000
00000000
00010000
00000000
00000000
00100000
00000000
00000000
01000000
00000000
00100000
00000000
,
10000000
00000000
00000000
00010000
00000000
00000000
10000000
00000000
00000000
01000000
00000000
00000000
00100000
00000000
00010000
00000000
,
01000000
00000000
00000000
00001000
00000000
00000000
00010000
00000000
00000000
00000010
00000000
00000000
00010000
00000000
00001000
00000000
,
00010000
00000000
00000000
00000100
00000000
00000000
00001000
00000000
00000000
00000001
00000000
00000000
00000020
00000000
00000000
00000000
,
00000130
00000000
00000000
00001000
00000000
00000000
00000100
00000000
00000010
00000000
00000001
00000000
00001000
00000000
00000010
00000000
,
00010000
00000000
00000000
00001000
00000000
00000000
00010000
00000000
00100000
00000000
01000000
00000000
00100000
00000000
10000000
00000000
,
00010000
00000000
00000000
01000000
00000000
00000000
00100000
00000000
00000000
01000000
00000000
00000000
00010000
00000000
10000000
00000000
,
00010000
00010000
00010000
00100000
,
01000000
10000000
00000000
10000000
01000000
00000000
00000000
00000000
00010000
00000000
00001000
00000000
00010000
00000000
00000010
00000000
,
00001000
00000100
00000010
00000001
00001000
00000010
00010000
00001000
,
01000000
00001000
00010000
00100000
01000000
00100000
10000000
00010000
,
10000000
00000000
01000000
00000000
00100000
00000000
01000000
00000000
00010000
00000000
00000000
00001000
00020000
00000000
00000000
00000000
,
00030010
00001000
00000010
00000100
00000001
00000010
00000100
00000010
,
00001000
00010000
00000100
00010000
00001000
00000010
00001000
00010000
,
01000000
00100000
01000000
10000000
00100000
00100000
01000000
01000000
,
00001000
00000000
00000000
00010000
00000000
00000000
00100000
00000000
00000000
00010000
00000000
00000000
00001000
00000000
00000000
00000000
,
00011000
00000000
00000000
00000000
;

//--------------- dance-double - forcednature ----------------
#NOTEDATA:;
#STEPSTYPE:dance-double;
#DESCRIPTION:forcednature;
#DIFFICULTY:Hard;
#METER:15;
#RADARVALUES:0,0,0,0,0;
#CREDIT:forcednature;
#NOTES:
00000000
00000000
00000000
00000000
,
00000000
00000000
00000000
00000000
,
00000000
00000000
00000000
00000000
,
00000000
00000000
00000000
00000000
,
00000000
00000000
00000000
00000000
,
00000000
00000000
00000000
00000000
,
00001000
00001000
00010000
00001000
00010000
00100000
10000000
00100000
,
01000000
01000000
00010000
01000000
00100000
10000000
01000000
00010000
,
00001000
00001000
00010000
00001000
00000010
00000001
00000100
00000010
,
00002000
00003000
00000002
00000003
00000200
00002300
00023000
00030000
,
00001000
00000000
00010000
00000000
00001000
00000000
00010000
00000000
00000100
00010000
00000100
00000000
00010000
00000000
00001000
00000000
,
01000000
00010000
01000000
00000000
00010000
00000000
10000000
00100000
00000000
00100000
01000000
00000000
00010000
00000000
00000000
00000000
,
10000000
00000000
01000000
00000000
10000000
00000000
00010000
00000000
00100000
00010000
00100000
00000000
00010000
00000000
01000000
00000000
,
00001000
00010000
00001000
00000000
00010000
00000000
00000100
00001000
00000100
00000000
00000010
00000000
00000002
00000000
00000003
00000000
,
00000100
00000010
00000100
00001000
00000000
00010000
00011000
00000000
,
00001000
00010000
00001000
00100000
00000000
00010000
00110000
00000000
,
10000000
01000000
00100000
01000000
00000000
00100000
00110000
00000000
,
00001000
00010000
00001000
00000000
00010000
00001000
00010000
00000000
00001000
00010000
00001000
00000000
00000100
00000000
00000000
00000000
,
00000110
00000000
00000000
00000010
00001000
00000010
00000100
00000010
00000100
00000001
00000000
00000000
,
00000010
00000100
00001000
00000100
00010000
00001000
00010000
00000010
00001000
00000010
00000000
00000000
,
00000110
00000000
00000000
00000100
00000010
00001000
00000010
00010000
00001000
00010000
00000000
00000000
,
00001000
00100000
00010000
00100000
01000000
10000000
00010000
01000000
00100000
10000000
00000000
00000000
,
01000000
00000000
01000000
00010000
00000000
00010000
00001000
00000000
00001000
00010000
00000000
00000100
,
00001000
00000000
00001000
00000001
00000000
00000001
00000100
00000000
00000100
00001000
00000000
00010000
,
00000010
00000000
00000010
00001000
00000000
00001000
00000100
00000000
00010000
00001000
00000000
00000000
,
00100000
00010000
00100000
00010000
02000000
00000000
03100000
00000000
,
10010000
00000000
00000000
00000000
10000000
00000000
00000000
00000000
01000000
00000000
00100000
00010000
00100000
00010000
00100000
00000000
,
01000000
00000000
00100000
00010000
00100000
00010000
00100000
00000000
00001000
00000000
00010000
00000000
00010000
00000000
00001000
00000000
,
00000010
00000000
00000000
00000000
00000001
00000000
00001000
00000001
00001000
00000000
00000010
00000100
00000010
00000100
00000010
00000000
,
00001000
00000100
00000010
00000001
00000100
00000010
00010000
00000000
,
00001000
00010000
00001000
00010000
00002000
00000000
00000000
00000000
00103000
00000000
00010000
00000000
01000000
00000000
00100000
00000000
,
00000000
00010000
00100000
01000000
00000000
00010000
00100000
00000000
,
00001000
00010000
00001000
00010000
00002000
00000000
00000000
00000000
01003000
00000000
00010000
00000000
00100000
00000000
01000000
00000000
,
00010000
00001000
00010000
00000000
00022000
00000000
00033000
00000000
,
00011000
00000000
00000000
00000000
00000000
00000000
00010000
00001000
00010000
00000100
00010000
00001000
,
00000000
00000010
00000100
00000010
00000001
00001000
00000000
00000010
00000100
00000001
00000000
00000000
,
00001001
00000000
00000000
00000001
00000000
00000001
00000100
00000010
00000100
00000010
00000100
00001000
,
00000000
00010000
00001000
00010000
00001000
00100000
00010000
01000000
00001000
00020000
00000000
00000000
,
00130000
01000000
00100000
01000000
00010000
10000000
01000000
00100000
,
01000000
00010000
00001000
00010000
00001000
00000010
00000000
00000000
,
00000001
00001000
00000001
00001000
00000001
00000100
00000001
00000100
00000010
00001000
00000010
00001000
00000001
00000100
00000010
00001000
,
00000000
00000000
00001001
00000000
,
00000000
00000000
00000000
00000000
00000000
00001000
00000100
00010000
00001000
00000000
00000000
00010000
00000000
00000000
00000000
00100000
,
00000000
00000000
00000000
10000000
00000000
00000000
00100000
01000000
00010000
00000000
00000000
00000000
00000000
00000000
00000000
00000000
,
00000000
00000000
00000000
00000000
00000000
10000000
01000000
00100000
00010000
00000000
00000000
01000000
00000000
00000000
00000000
00001000
,
00000000
00000000
00000000
00010000
00000000
00000000
00000000
00000000
00022000
00000000
00000000
00000000
00000000
00000000
00000000
00000000
,
00000000
00000000
00000000
00033000
00000000
00001000
00010000
00000010
00002000
00000000
00000000
00003002
00000000
00000000
00000000
00000023
,
00000000
00000000
00000000
00000230
00000000
00000000
00002300
00003002
00000000
00000000
00000000
00000000
00000000
00000000
00000000
00000000
,
00000000
00000000
00000000
00000003
00000000
00001000
00000010
00010000
00002000
00000000
00000000
00023000
00000000
00000000
00000000
00230000
,
00000000
00000000
00000000
00000000
00000000
00000000
02300000
00000000
00000000
00000000
00000000
00000000
03000000
00000000
00000000
00000000
00010000
00000000
00000000
00010000
00000000
00000000
10000000
00000000
00000000
00010000
00000000
00000000
00100000
00000000
01000000
00000000
,
10000000
00000000
00000000
10000000
00000000
00000000
01000000
00000000
00000000
00010000
00000000
00000000
01000000
00000000
00000000
00000000
00100000
00000000
00000000
00100000
00000000
00000000
00001000
00000000
00000000
00100000
00000000
00000000
00010000
00000000
01000000
00000000
,
00001000
00000000
00000000
00001000
00000000
00000000
00010000
00000000
00000000
00001000
00000000
00000000
00000010
00000000
00000000
00000000
00000001
00000000
00001000
00000000
00000001
00000000
00001000
00000000
00000001
00000000
00000100
00000000
00000010
00000000
00001000
00000000
,
00000100
00010000
00001000
00010000
00000010
00001000
00000010
00000000
00010000
00010000
00010000
00010000
00001000
00001000
00001000
00001000
,
00000000
00000000
00000000
00000000
,
00010000
00001000
00000000
00010000
00001000
00000000
01000000
00010000
00000000
01000000
00100000
01000000
00100000
00000000
10000000
00000000
,
01000000
10000000
00000000
01000000
10000000
00000000
00010000
00100000
00000000
00001000
00010000
00000000
00000100
00010000
00000100
00000000
,
00010000
00001000
00000000
00010000
00001000
00000000
00010000
00000010
00000000
00001000
00000010
00001000
00000010
00000000
00000100
00000000
,
00000001
00000010
00000000
00000001
00000010
00000000
00000100
00001000
00000000
00000001
00001000
00000000
00000010
00000000
00000000
00000000
,
00010000
00001000
00000000
00010000
00001000
00000000
01000000
00010000
00000000
01000000
00100000
01000000
00100000
00000000
10000000
00000000
,
01000000
00100000
00000000
00010000
00100000
00000000
00001000
00010000
00000000
00001000
01000000
00000000
00010000
01000000
00010000
00000000
,
10000000
01000000
00000000
00100000
00010000
00000000
01000000
00010000
00000000
01000000
00001000
00010000
00001000
00000000
00100000
00000000
,
00001000
00010000
00001000
00000000
00010000
00001000
00010000
00000000
00001000
00010000
00001000
00000000
00000100
00000000
00000000
00000000
,
00000010
00000100
00000000
00000100
00000010
00000000
00001000
00000000
00000001
00000000
00000010
00000100
00001000
00000000
00000001
00000000
,
00000100
00000010
00001000
00000000
00000100
00000000
00010000
00001000
00010000
00000000
00000010
00001000
00000001
00000000
00000001
00000000
,
00000010
00000100
00001000
00000000
00000001
00000000
00001000
00000010
00001000
00000000
00000100
00010000
00001000
00000000
00010000
00000000
,
00001000
00010000
00001000
00000000
01000000
00000000
00010000
00000000
00100000
01000000
00000000
01000000
00100000
00010000
10000000
01000000
,
00100000
00000000
00010000
01000000
00001000
00000000
00010000
00001000
00100000
00000000
00001000
00010000
00000010
00000000
00001000
00000000
,
00000100
00000000
00001000
00000100
00010000
00000000
00001000
00010000
00000010
00000000
00010000
00001000
00010000
00000000
00001000
00000000
,
00000010
00000000
00000001
00000000
00000100
00000000
00000010
00000000
00000100
00000010
00001000
00000010
00000100
00000001
00000100
00000010
,
00001000
00000000
00000000
00000001
00000000
00000000
00000010
00000000
00000000
00001000
00000000
00000000
00010000
00000000
00000000
00000000
,
00011000
00000000
00000000
00000000
;
