#TITLE:Hackney Parrot;
#SUBTITLE:;
#ARTIST:Tessela;
#TITLETRANSLIT:;
#SUBTITLETRANSLIT:;
#ARTISTTRANSLIT:;
#GENRE:;
#CREDIT:;
#MUSIC:Hackney-Parrot-Edit.ogg;
#BANNER:hackney-bn.png;
#BACKGROUND:hackney-bg.png;
#CDTITLE:;
#SAMPLESTART:0.000;
#SAMPLELENGTH:0.000;
#SELECTABLE:YES;
#OFFSET:-0.024;
#BPMS:0.000=130.000;
#STOPS:;
#BGCHANGES:;
#FGCHANGES:;

//--------------- dance-single - ----------------
#NOTES:
     dance-single:
     :
     Medium:
     11:
     0,0,0,0,0:
0000
0000
0000
0000
,
0000
0000
0000
0000
,
0000
0000
0000
0000
,
0000
0000
0000
0000
,
1001
0000
1000
0000
0010
0000
0000
0000
0100
0000
0000
0001
0000
0000
0010
0000
,
0000
0001
0000
0000
1000
0000
0000
0000
0000
0000
0000
0000
0001
0000
1000
0000
,
1001
0000
0001
0000
0100
0000
0010
0000
1000
0000
0000
0001
0000
0000
0010
0000
,
0100
1000
0000
0100
1000
0000
0000
0000
0001
0100
0000
0001
0100
0000
0001
0000
,
0011
0100
1000
0000
0010
0100
0001
1000
,
0000
0001
0000
0000
1000
0000
0000
0000
0000
0000
0000
0000
0001
0000
0100
0000
,
0101
0001
0010
0100
0000
0010
0001
1000
,
0010
0100
0000
0010
0100
0000
0000
0000
0001
1000
0000
0001
1000
0000
0010
0000
,
1010
0100
0001
0000
0010
0100
1000
0001
,
0000
1000
0000
0000
0001
0000
0000
0000
0000
0000
0000
0000
1000
0000
0100
0000
,
1100
1000
0010
0100
0000
0010
1000
0001
,
0010
0100
0000
0010
0100
0000
0000
0000
1000
0001
1000
0000
0001
0000
1000
0000
,
0002
0000
0000
0000
,
0000
0000
0000
0000
,
2003
0000
0000
0000
,
3020
0000
0000
0000
,
0230
0000
0000
0000
,
0000
0000
0000
0000
,
0000
0000
0000
0000
,
0000
0000
0300
0000
,
1001
1000
0100
0000
2000
0000
3001
0000
,
0000
0000
1000
0000
0000
0000
0010
0100
,
0001
0000
0001
0000
1000
0000
0000
0000
0001
0000
0000
0001
0000
0000
0010
0000
,
0000
0010
0000
0000
0100
0000
0000
0100
0000
0000
1000
0000
0001
0000
1000
0000
,
1001
0001
0100
0000
0002
0000
1003
0000
,
0000
0000
0001
0000
0000
0000
0010
0100
,
1000
0000
1000
0000
0001
0000
0000
0000
1000
0000
0000
1000
0000
0000
0010
0000
,
0100
0001
0000
0100
0001
0000
0000
0000
1000
0100
0000
1000
0100
0000
1000
0000
,
1001
0000
0001
0000
0100
0000
0001
0000
0010
0000
0000
0010
0000
0000
0100
0000
,
0000
0100
0000
0000
1000
0000
0000
1000
0000
0000
0010
0000
0100
0000
0001
0000
,
1001
0000
1000
0000
0100
0000
1000
0000
0010
0000
0000
0010
0000
0000
0100
0000
,
0000
0100
0000
0000
0001
0000
0000
0001
0000
0000
0010
0000
0100
0000
1000
0000
,
1001
0000
0001
0000
0010
0000
0001
0000
0100
0000
0000
0100
0000
0000
0010
0000
,
0000
0010
0000
0000
1000
0000
0000
1000
0000
0000
0100
0000
0010
0000
0001
0000
,
1001
1000
0100
0000
0010
0001
1000
0000
,
0010
0100
0000
0010
0100
0000
0000
0000
0001
1000
0000
0001
1000
0000
0010
0000
,
1010
1000
0100
0010
0001
1000
0001
0000
,
1000
0010
1000
0000
0001
0000
0000
0000
0020
0000
0000
0230
0000
0000
1300
0000
,
1100
0100
0010
0001
1000
0010
1000
0000
,
0001
1000
0000
0001
1000
0000
0000
0000
0001
0010
0000
0001
0010
0000
0001
0000
,
0011
0001
0100
0010
1000
0001
1000
0000
,
0001
0010
0001
0000
1000
0000
0000
0000
0020
0000
0000
0230
0000
0000
0301
0000
,
0101
0100
0010
1000
0001
0010
0001
0000
,
1000
0001
0000
1000
0001
0000
0000
0000
1000
0010
0000
1000
0010
0000
1000
0000
,
0002
1000
0000
1000
,
0000
0000
1000
0000
0000
0000
1003
0100
,
0020
0000
0001
0000
0000
0000
0031
0100
,
0020
0000
1000
0000
0000
0000
1030
0001
,
2000
0001
0000
0001
,
0000
0001
0000
3001
,
0000
1000
0000
0001
,
0000
1000
0002
0000
,
1003
0000
0001
0000
0100
0000
0001
0000
1000
0000
0000
1000
0000
0000
0001
0000
,
0000
0001
0000
0000
1000
0000
0000
1000
0000
0000
0001
0000
1000
0000
0010
0000
,
0100
0000
0001
0000
1000
0000
0100
0000
0010
0000
0000
0010
0000
0000
0100
0000
,
0000
0100
0000
0000
0010
0000
0000
0010
0000
0000
0100
0000
0100
0000
1000
0000
,
1001
0000
0001
0000
0100
0000
0010
0000
1000
0000
0000
1000
0000
0000
0010
0000
,
0000
0010
0000
0000
0100
0000
0000
0100
0000
0000
0001
0000
1000
0000
0001
0000
,
1001
1000
0010
0000
0100
0001
1000
0000
,
0100
0010
0000
0100
0010
0000
0000
0000
0001
1000
0000
0001
1000
0000
0001
0000
,
1001
0000
1000
0000
0100
0000
0010
0000
0001
0000
0000
0010
0000
0000
0100
0000
,
0000
0100
0000
0000
0100
0000
0000
1000
0000
0000
1000
0000
0001
0000
1000
0000
,
1001
0000
0001
0000
0100
0000
0010
0000
1000
0000
0000
0010
0000
0000
0100
0000
,
0000
0100
0000
0000
0100
0000
0000
0001
0000
0000
0001
0000
1000
0000
0001
0000
,
1001
0000
1000
0000
0100
0000
0010
0000
0001
0000
0000
1000
0000
0000
0010
0000
,
0000
0010
0000
0000
0010
0000
0000
0100
0000
0000
0100
0000
0001
0000
1000
0000
,
0001
0000
0010
0000
0100
0000
1000
0000
0001
0000
0000
1000
0000
0000
0010
0000
,
0100
0001
0000
0100
0001
0000
0000
0000
1000
0001
0000
1000
0001
0000
0000
0000
;

//--------------- dance-single - ----------------
#NOTES:
     dance-single:
     :
     Hard:
     14:
     0,0,0,0,0:
0000
0000
0000
0000
,
0000
0000
0000
0000
,
0000
0000
0000
0000
,
0000
0000
0000
0000
,
0001
0000
0100
0000
0010
0000
1000
0000
0100
0000
0010
0001
0000
0010
0100
0000
,
0010
0001
0000
1000
0001
0000
0000
0000
0000
0000
0000
0000
1000
0010
1000
0000
,
0001
0000
0010
0000
0100
0000
1000
0000
0010
0000
0100
0010
0000
1000
0010
0000
,
0100
0010
0000
1000
0010
0100
0001
0010
0000
0100
1000
0001
1000
0000
0001
0000
,
1000
0000
0100
0000
0010
0000
0001
0000
0100
0000
0001
1000
0000
0010
0100
0000
,
0001
0010
0000
0001
1000
0000
0000
0000
0000
0000
0000
0000
0001
0100
0001
0000
,
1000
0000
0010
0000
0100
0000
0001
0000
0010
0000
0100
1000
0000
0100
0010
0000
,
0001
1000
0000
0100
0010
0001
1000
0000
0001
0100
0000
0001
1000
0100
0010
0000
,
0001
0000
0100
0000
0010
0000
1000
0000
0100
0000
1000
0001
0000
0010
0100
0000
,
1000
0010
0000
1000
0001
0000
0000
0000
0000
0000
0000
0000
1000
0100
1000
0000
,
0001
0000
0010
0000
0100
0000
1000
0000
0010
0000
0100
0001
0000
0100
0010
0000
,
1000
0010
0000
1000
0001
0100
0001
0010
0000
0100
1000
0000
0010
0100
0001
0000
,
2000
0000
0000
0000
,
0000
0000
0000
0000
,
3020
0000
0000
0000
,
0230
0000
0000
0000
,
0302
0000
0000
0000
,
0000
0000
0000
0000
,
0000
0000
0000
0000
,
0003
0000
0000
1000
,
1001
0000
0001
0000
0010
0000
0100
0000
1000
0000
0000
0010
1000
0000
0000
0000
,
0000
0000
0000
0000
0001
0000
0000
0000
0000
0000
0000
0000
1000
0001
1000
0000
,
0001
0000
0100
0000
0010
0000
1000
0000
0002
0000
0000
0010
0000
0000
2003
0000
,
0000
0010
0000
0000
3002
0000
0000
0010
0000
0000
1003
0000
0001
0100
0001
0000
,
1001
0000
1000
0000
0100
0000
0010
0000
0001
0000
0000
0010
0001
0000
0000
0000
,
0000
0000
0000
0000
1000
0000
0000
0000
0000
0000
0000
0000
0001
0100
0010
0000
,
1000
0000
0100
0000
0010
0000
0001
0000
1000
0000
0000
0010
0000
0000
0100
0000
,
0001
0010
0000
0001
0010
0001
1000
0000
0010
0000
0100
0001
1000
0100
0010
0000
,
1001
0000
0001
0000
0100
0000
0002
0000
0100
0000
2003
0100
0000
3002
0100
0000
,
2003
0100
0000
3002
0100
0000
2003
0100
0000
3002
0100
0000
1003
0100
0010
0000
,
1001
0000
0001
0000
0100
0000
0002
0000
0100
0000
2003
0100
0000
3002
0100
0000
,
1003
0010
0000
0100
0001
0010
0001
1000
0000
0100
0010
0000
0001
1000
0001
0000
,
1001
0000
1000
0000
0100
0000
2000
0000
0010
0000
3002
0010
0000
2003
0010
0000
,
3002
0010
0000
2003
0010
0000
3002
0010
0000
1003
0010
0000
0100
0001
0010
0000
,
1001
0000
0001
0000
0100
0000
0010
0000
1000
0000
0100
0010
0000
0001
1000
0000
,
0010
0100
0000
0001
0010
0001
1000
0010
0000
0100
0001
1000
0100
1000
0001
0000
,
1001
0000
1000
0000
0100
0000
0010
0001
1000
0000
0010
0100
0000
0010
1000
0000
,
0100
0010
0000
0001
1000
0000
0000
0000
0020
0000
0000
0230
0000
0000
0301
0000
,
1001
0000
1000
0000
0100
0000
0010
0001
1000
0000
0010
0100
0000
0001
0010
0000
,
0100
1000
0000
0010
0100
0001
1000
0000
0000
0100
0000
0000
1000
0001
1000
0000
,
1001
0000
0001
0000
0100
0000
0010
1000
0001
0000
0010
0100
0000
0010
0001
0000
,
0100
0010
0000
1000
0001
0000
0000
0000
0020
0000
0000
0230
0000
0000
1300
0000
,
1001
0000
0001
0000
0100
0000
0010
1000
0001
0000
0010
0100
0000
1000
0010
0000
,
1000
0100
0000
1000
0001
0010
0001
0100
0000
0010
1000
0000
0100
0010
0001
0000
,
2000
0001
0000
0001
,
0000
0000
0001
0000
0000
0000
3001
0100
,
0020
0000
1000
0000
0000
0000
1030
0100
,
0020
0000
0001
0000
0000
0000
0031
0100
,
0002
1000
0000
1000
,
0000
1000
0000
1003
,
0000
0001
0000
1000
,
0000
0000
0000
0000
0001
0000
0000
0000
0020
0000
0000
0000
0000
0000
0000
0030
,
1001
0000
0010
0000
0100
0000
1000
0000
0010
0000
0000
0010
0000
0000
0100
0000
,
0000
0100
0000
0000
0001
0000
0000
0001
0000
0000
1000
0000
0000
1000
0000
0000
,
0001
0000
0100
0000
0010
0000
1000
0000
0100
0000
0000
0100
0000
0000
0010
0000
,
0000
0010
0000
0000
0001
0000
0000
0001
0000
0000
1000
0000
0001
1000
0001
0000
,
1001
0000
1000
0000
0100
0000
2000
0000
0100
0000
3002
0100
0000
2003
0010
0000
,
3002
0010
0000
2003
0100
0000
3002
0100
0000
2003
0010
0000
3001
0010
0100
0000
,
1001
0000
1000
0000
0100
0000
0010
0000
0001
0000
0100
0010
0000
1000
0001
0000
,
0010
0100
0000
1000
0010
1000
0001
0010
0000
0100
1000
0001
0100
0001
1000
0000
,
1001
0000
0001
0000
0100
0000
0001
0000
0020
0000
0000
0130
1000
0020
0100
0000
,
2030
0100
0000
3020
0100
0000
2030
0100
0000
3020
0100
0000
1030
0100
0010
0000
,
1001
0000
1000
0000
0100
0000
1000
0000
0020
0000
0000
0130
0001
0020
0100
0000
,
0032
0100
0000
0023
0100
0000
0032
0100
0000
2003
0100
0000
3001
0100
0010
0000
,
1001
0000
1000
0000
0100
0000
1000
0000
0020
0000
0000
0130
0001
2000
0100
0000
,
3002
0100
0000
0023
0100
0000
0032
0100
0000
2003
0100
0000
3010
0100
0001
0000
,
1001
0000
1000
0000
0100
0000
0010
0000
0001
0000
1000
0010
0000
0100
0001
0000
,
0010
0100
0000
1000
0001
0100
0001
1000
0000
0100
0010
0000
1001
0000
0000
0000
;

//--------------- dance-single - Geese Lawyer ----------------
#NOTES:
     dance-single:
     Geese Lawyer:
     Challenge:
     16:
     0,0,0,0,0:
0000
0000
0000
0000
,
0000
0000
0000
0000
,
0000
0000
0000
0000
,
0000
0000
0000
0000
,
1001
0000
1000
0000
0100
0000
0010
0001
1000
0000
0010
0100
0000
0010
1000
0000
,
0100
0010
0000
0001
1000
0000
0000
0000
0000
0000
0000
0000
0001
0100
0010
0000
,
1001
0000
0001
0000
0100
0000
0010
1000
0001
0000
0010
0100
0000
0010
0001
0000
,
1000
0010
0000
0100
0001
0010
0010
1000
0000
0100
0100
0001
0010
0001
1000
0000
,
1001
0000
0001
0000
0010
0000
0100
2000
0010
0000
3001
0010
0000
0100
1000
0000
,
0010
0100
0000
0001
1000
0000
0000
0000
0000
0000
0000
0000
0001
0100
0010
0000
,
1001
0000
1000
0000
0100
0000
0010
0002
1000
0000
0103
0010
0000
1000
0001
0000
,
1000
0010
0000
0100
0001
1000
0100
0000
0000
1000
0000
0001
0100
0001
0010
0000
,
1001
0000
0001
0000
0100
0000
0010
2000
0100
0000
3001
0100
0000
0010
1000
0000
,
0100
0010
0000
0001
1000
0000
0000
0000
0000
0000
0000
0000
0001
0100
0010
0000
,
1001
0000
1000
0000
0010
0000
0100
0002
1000
0000
0013
0100
0000
1000
0001
0000
,
1000
0100
0000
0010
0001
0100
0100
1000
0100
0100
0001
0010
0010
1000
0100
1000
,
0002
0000
0000
0000
,
0000
0000
0000
0000
,
0023
0000
0000
0000
,
0230
0000
0000
0000
,
2300
0000
0000
0000
,
0000
0000
0000
0000
,
0000
0000
0000
0000
,
3000
0000
0000
0001
,
1001
0000
1000
0000
0100
0000
0010
0000
0002
0000
0000
1003
0001
0000
0000
0000
,
0000
0000
0000
0000
0100
0000
0000
0000
0000
0000
0000
0000
0010
1000
0001
0000
,
1000
0000
0001
0000
0010
0000
0200
0000
1000
0000
0300
M200
0000
0000
0001
0000
,
0300
020M
0000
0000
1000
0000
0300
M100
0000
0000
0001
0000
0010
0100
1000
0000
,
0001
0000
0001
0000
0100
0000
0010
0000
2000
0000
0000
3001
1000
0000
0000
0000
,
0000
0000
0000
0000
0010
0000
0000
0000
0000
0000
0000
0000
0100
0001
1000
0000
,
0001
0000
0001
0000
0100
0000
0010
0000
2000
0000
0000
0100
0000
0000
3002
0000
,
0103
0010
0000
1000
0001
0010
0100
0000
1000
0000
0001
1000
0001
0100
0010
0000
,
1001
0000
1000
0000
0100
0000
0020
0000
0001
0030
002M
1000
0030
M020
0001
0030
,
002M
1000
0030
M020
0001
0030
002M
1000
0030
M010
0001
0000
1000
0010
0100
0000
,
1001
0000
0001
0000
0100
0000
0020
0000
1000
0030
M020
0001
0030
001M
1000
0000
,
0001
0010
0000
0100
1000
0010
0100
0001
0000
0010
0100
1000
0001
1000
0010
0000
,
1001
0000
1000
0000
0010
0000
0200
0000
0001
0300
020M
1000
0300
M200
0001
0300
,
020M
1000
0300
M200
0001
0300
020M
1000
0300
M100
0001
0000
1000
0100
0010
0000
,
1001
0000
0001
0000
0010
0000
0200
0000
1000
0300
M200
0001
0300
010M
1000
0000
,
0001
0100
0000
0010
1000
0100
0100
0001
0000
0010
0010
1000
0100
1000
0001
0000
,
1001
0000
1000
0000
0100
0000
0010
0001
1000
0000
0010
1000
0100
0010
0001
0000
,
2000
0010
0000
3002
0010
0000
0000
0000
2003
0000
0000
3001
0100
0001
0010
0000
,
1001
0000
0001
0000
0100
0000
0010
0000
1000
0000
0002
0010
0000
2003
0010
0000
,
3002
0100
0000
1003
0100
1000
0001
0000
0000
1000
0000
0001
1000
0100
0010
0000
,
1001
0000
0001
0000
0100
0000
0010
1000
0001
0000
0010
0001
0100
0010
1000
0000
,
0002
0010
0000
2003
0010
0000
0000
0000
3002
0000
0000
1003
0100
1000
0010
0000
,
1001
0000
1000
0000
0100
0000
0010
0000
0001
0000
2000
0010
0000
3002
0010
0000
,
2003
0100
0000
3001
0010
0100
1000
0001
0100
0100
1000
0010
0010
0001
0100
0001
,
2000
0001
0000
0001
,
0000
0000
0001
0000
0000
0000
3001
0100
,
0020
0000
1000
0000
0000
0000
1030
0001
,
0020
0000
0001
0000
0000
0000
0031
0010
,
0200
1000
0000
1000
,
0000
0000
1000
0300
0000
0000
1000
0000
,
0000
0001
0000
1000
,
0000
0000
0000
0000
0000
0000
0001
0000
0000
0000
0000
0000
4000
0004
0000
0000
0000
0000
0000
0000
0000
0000
3003
0000
,
1001
0000
1000
0000
0100
0000
0010
0000
0001
0000
0000
0001
0000
0000
1000
0000
,
0000
1000
0000
0000
0010
0000
0000
0010
0000
0000
0100
0000
0100
0001
0010
0000
,
0001
0000
0001
0000
0010
0000
0100
0000
1000
0000
0000
1000
0000
0000
0010
0000
,
0000
0010
0000
0000
0100
0000
0000
0100
0000
0000
0001
0000
0001
1000
0010
0000
,
1001
0000
1000
0000
0010
0000
0200
0000
0001
0300
020M
1000
0300
M020
0001
0030
,
002M
1000
0030
M200
0001
0300
020M
1000
0300
0100
0001
0000
1000
0010
0100
0000
,
1001
0000
0001
0000
0010
0000
0200
0000
1000
0300
M200
0001
0300
002M
1000
0030
,
M010
0001
0000
1000
0100
0100
0001
1000
0000
0010
0010
0001
0100
0001
1000
0000
,
1001
0000
0001
0000
0100
0000
0020
0000
1000
0000
0130
0001
0010
0200
1000
0300
,
M200
0010
0300
02M0
1000
0300
0100
0010
0000
1000
0001
0000
0100
0001
0010
0000
,
1001
0000
1000
0000
0100
0000
0020
0000
0001
0000
0130
1000
0010
0200
0001
0300
,
020M
0010
0300
02M0
0001
0300
020M
1000
0300
M200
0001
0000
0310
1000
0100
0000
,
1001
0000
1000
0000
0010
0000
0200
0000
0001
0000
0310
1000
0001
0020
0100
0030
,
002M
0100
0030
M020
0100
0030
002M
1000
0030
M020
0001
0030
001M
1000
0001
0000
,
1001
0000
0001
0000
0010
0000
0100
0000
1000
0000
0010
1000
0000
0010
0100
0000
,
0001
0010
0000
0100
1000
0001
0100
0001
0000
0100
0001
2000
0002
3003
0000
0000
;
