#VERSION:0.83;
#TITLE:Guess;
#SUBTITLE:featuring Billie Eilish;
#ARTIST:Charli XCX;
#TITLETRANSLIT:;
#SUBTITLETRANSLIT:;
#ARTISTTRANSLIT:;
#GENRE:;
#CREDIT:valgrind;
#MUSIC:guess.ogg;
#BANNER:guess-bn.png;
#BACKGROUND:guess-bg.png;
#CDTITLE:cdtitle.png;
#SAMPLESTART:38.769;
#SAMPLELENGTH:14.769;
#SELECTABLE:YES;
#OFFSET:-0.000;
#BPMS:0.000=130.000;
#STOPS:;
#SCROLLS:0.000=1.000,
112.000=-0.125,
114.000=0.000,
114.250=0.125,
114.500=0.250,
114.750=0.375,
115.000=0.500,
115.250=0.625,
115.500=0.750,
115.750=0.875,
116.000=1.000,
130.000=400.000,
130.021=-20.000,
130.042=-18.000,
130.063=-16.000,
130.083=-14.000,
130.104=-12.000,
130.125=-10.000,
130.146=-8.000,
130.167=-4.000,
130.188=-3.600,
130.208=-3.200,
130.229=-2.800,
130.250=-2.400,
130.271=-2.000,
130.292=-1.800,
130.313=-1.700,
130.333=-1.500,
130.354=-1.400,
130.375=-1.300,
130.396=-1.200,
130.417=-1.100,
130.438=-1.000,
130.500=-0.800,
130.625=-0.600,
130.750=-0.400,
130.875=-0.200,
131.000=0.000,
131.125=0.125,
131.250=0.250,
131.375=0.375,
131.500=0.500,
131.625=0.625,
131.750=0.750,
131.875=0.875,
132.000=1.000,
192.000=0.000,
193.500=0.200,
193.563=0.400,
193.625=0.600,
193.688=0.800,
193.750=1.000,
193.813=1.200,
193.875=1.400,
193.938=1.600,
194.000=-1.600,
194.063=-1.400,
194.125=-1.200,
194.188=-1.000,
194.250=-0.800,
194.313=-0.600,
194.375=-0.400,
194.438=-0.200,
194.500=0.200,
194.563=0.400,
194.625=0.600,
194.688=0.800,
194.750=1.000,
194.813=1.200,
194.875=1.400,
194.938=1.600,
195.000=0.000,
195.125=0.200,
195.250=0.400,
195.375=0.600,
195.500=0.800,
195.625=1.000,
195.750=1.200,
195.875=1.400,
196.000=1.000,
212.000=0.700,
212.250=0.800,
212.500=0.900,
212.750=1.000,
213.000=0.700,
213.250=0.800,
213.500=0.900,
213.750=1.000,
214.000=0.700,
214.250=0.800,
214.500=0.900,
214.750=1.000,
215.000=0.700,
215.250=0.800,
215.500=0.900,
215.750=1.000,
216.000=0.700,
216.250=0.800,
216.500=0.900,
216.750=1.000,
217.000=0.700,
217.250=0.800,
217.500=0.900,
217.750=1.000,
218.000=0.700,
218.250=0.800,
218.500=0.900,
218.750=1.000,
219.000=0.700,
219.250=0.800,
219.500=0.900,
219.750=1.000,
220.000=0.700,
220.250=0.800,
220.500=0.900,
220.750=1.000,
221.000=0.700,
221.250=0.800,
221.500=0.900,
221.750=1.000,
222.000=0.700,
222.250=0.800,
222.500=0.900,
222.750=1.000,
223.000=0.700,
223.250=0.800,
223.500=0.900,
223.750=1.000,
224.000=0.700,
224.250=0.800,
224.500=0.900,
224.750=1.000,
225.000=0.700,
225.250=0.800,
225.500=0.900,
225.750=1.000,
226.000=0.700,
226.250=0.800,
226.500=0.900,
226.750=1.000,
227.000=0.700,
227.250=0.800,
227.500=0.900,
227.750=1.000,
228.000=0.700,
228.250=0.800,
228.500=0.900,
228.750=1.000,
229.000=0.700,
229.250=0.800,
229.500=0.900,
229.750=1.000,
230.000=0.700,
230.250=0.800,
230.500=0.900,
230.750=1.000,
231.000=0.700,
231.250=0.800,
231.500=0.900,
231.750=1.000,
232.000=0.700,
232.250=0.800,
232.500=0.900,
232.750=1.000,
233.000=0.700,
233.250=0.800,
233.500=0.900,
233.750=1.000,
234.000=0.700,
234.250=0.800,
234.500=0.900,
234.750=1.000,
235.000=0.700,
235.250=0.800,
235.500=0.900,
235.750=1.000,
236.000=0.700,
236.250=0.800,
236.500=0.900,
236.750=1.000,
237.000=0.700,
237.250=0.800,
237.500=0.900,
237.750=1.000,
238.000=0.700,
238.250=0.800,
238.500=0.900,
238.750=1.000,
239.000=0.700,
239.250=0.800,
239.500=0.900,
239.750=1.000,
240.000=0.700,
240.250=0.800,
240.500=0.900,
240.750=1.000,
241.000=0.700,
241.250=0.800,
241.500=0.900,
241.750=1.000,
242.000=0.700,
242.250=0.800,
242.500=0.900,
242.750=1.000,
243.000=0.700,
243.250=0.800,
243.500=0.900,
243.750=1.000,
244.000=0.700,
244.250=0.800,
244.500=0.900,
244.750=1.000,
245.000=0.700,
245.250=0.800,
245.500=0.900,
245.750=1.000,
246.000=0.700,
246.250=0.800,
246.500=0.900,
246.750=1.000,
247.000=0.700,
247.250=0.800,
247.500=0.900,
247.750=1.000,
248.000=0.700,
248.250=0.800,
248.500=0.900,
248.750=1.000,
249.000=0.700,
249.250=0.800,
249.500=0.900,
249.750=1.000,
250.000=0.700,
250.250=0.800,
250.500=0.900,
250.750=1.000,
251.000=0.700,
251.250=0.800,
251.500=0.900,
251.750=1.000,
252.000=0.700,
252.250=0.800,
252.500=0.900,
252.750=1.000,
253.000=0.700,
253.250=0.800,
253.500=0.900,
253.750=1.000,
254.000=0.700,
254.250=0.800,
254.500=0.900,
254.750=1.000,
255.000=0.700,
255.250=0.800,
255.500=0.900,
255.750=1.000,
256.000=0.700,
256.250=0.800,
256.500=0.900,
256.750=1.000,
257.000=0.700,
257.250=0.800,
257.500=0.900,
257.750=1.000,
258.000=0.700,
258.250=0.800,
258.500=0.900,
258.750=1.000,
259.000=0.700,
259.250=0.800,
259.500=0.900,
259.750=1.000,
260.000=0.700,
260.250=0.800,
260.500=0.900,
260.750=1.000,
261.000=0.700,
261.250=0.800,
261.500=0.900,
261.750=1.000,
262.000=0.700,
262.250=0.800,
262.500=0.900,
262.750=1.000,
263.000=0.700,
263.250=0.800,
263.500=0.900,
263.750=1.000,
264.000=0.700,
264.250=0.800,
264.500=0.900,
264.750=1.000,
265.000=0.700,
265.250=0.800,
265.500=0.900,
265.750=1.000,
266.000=0.700,
266.250=0.800,
266.500=0.900,
266.750=1.000,
267.000=0.700,
267.250=0.800,
267.500=0.900,
267.750=1.000,
268.000=0.700,
268.250=0.800,
268.500=0.900,
268.750=1.000,
269.000=0.700,
269.250=0.800,
269.500=0.900,
269.750=1.000,
270.000=0.700,
270.250=0.800,
270.500=0.900,
270.750=1.000,
271.000=0.700,
271.250=0.800,
271.500=0.900,
271.750=1.000,
272.000=0.700,
272.250=0.800,
272.500=0.900,
272.750=1.000,
273.000=0.700,
273.250=0.800,
273.500=0.900,
273.750=1.000,
274.000=0.700,
274.250=0.800,
274.500=0.900,
274.750=1.000,
275.000=0.700,
275.250=0.800,
275.500=0.900,
275.750=1.000
;
#BGCHANGES:;
#FGCHANGES:0.000=lua=1.000=0=0=1;

//--------------- dance-single - [FX/XMOD] RH DS ----------------
#NOTEDATA:;
#STEPSTYPE:dance-single;
#DESCRIPTION:[FX/XMOD] RH DS;
#DIFFICULTY:Hard;
#METER:12;
#RADARVALUES:0,0,0,0,0;
#CREDIT:valgrind | 12+ |;
#NOTES:
0000
0000
0000
0000
,
0000
0000
0000
0000
,
0000
0000
0000
0000
,
0000
0000
0000
0000
,
0000
0000
0000
0000
0000
1000
0100
0010
,
0002
0000
0003
0100
0010
0100
0001
1000
,
0000
0200
0000
0310
0001
1000
0100
1000
,
0002
0003
0200
0300
0010
0100
0010
1000
,
0100
0020
0000
0031
0000
0000
1000
0001
,
0100
0010
2000
3000
0200
0300
0020
0030
,
0100
2000
0000
3001
0000
0000
1000
0001
,
0100
0010
0100
0001
1000
0100
0010
0001
,
0100
0020
0000
1030
0000
0001
0010
0100
,
1000
0001
0100
0010
2000
0000
3100
0010
,
0001
0200
0000
0320
0000
1030
0001
0100
,
0001
1000
0100
0000
0010
0100
1000
0010
,
0100
0001
1000
0200
0000
0000
1300
1000
,
0001
1000
0010
0100
0002
0000
0013
0100
,
1000
0020
0000
0230
0000
0301
1000
0010
,
1000
0001
0010
0000
0100
0010
0001
0100
,
0010
1000
0001
0010
0100
0000
1001
0000
,
1000
0100
0010
0100
1000
0010
0100
0010
,
1000
0001
0100
0001
0010
0100
1000
1000
,
0001
0100
0010
0100
0001
0010
0100
0010
,
0001
1000
0100
1000
0010
0100
0001
0001
,
1000
0010
0100
0010
1000
0100
0010
0100
,
1000
0001
0010
0001
0100
0010
1000
1000
,
0001
0010
0100
0010
0001
0100
0010
0100
,
0002
0000
0000
0000
0000
0000
0000
0003
,
1001
1000
0000
1000
,
0001
1000
0000
1000
,
0010
0100
0000
0100
,
0001
0010
MMMM
0000
,
1000
0000
0000
0010
0000
0100
0001
0000
0000
1000
0000
0000
0100
0000
0000
0010
0000
0001
1000
0000
0000
0001
0000
0000
,
0000
0000
0000
0200
0000
0000
0000
0000
0000
0310
0000
0000
1000
0000
0000
0001
0000
0100
0001
0000
0000
1000
0000
0000
,
0001
0000
0000
0010
0000
0100
1000
0000
0000
0001
0000
0000
0100
0000
0000
0010
0000
1000
0001
0000
0000
1000
0000
0000
,
0100
0000
0000
0020
0000
0000
0000
0000
0000
0031
0000
0000
0010
0000
0000
0100
0000
1000
0001
0000
0000
0010
0000
0000
,
0001
0000
0000
0100
0000
0010
1000
0000
0000
0001
0000
0000
0010
0000
0000
0100
0000
1000
0001
0000
0000
1000
0000
0000
,
0010
0000
0000
0200
0000
0000
0000
0000
0000
0302
0000
0000
0000
0000
0000
0103
0000
0010
1000
0000
0000
0001
0000
0000
,
1000
0000
0000
0100
0000
0010
0001
0000
0000
1000
0000
0000
0010
0000
0000
0100
0000
0001
1000
0000
0000
0010
0000
0000
,
1000
0000
0000
0200
0000
0000
0000
0000
0000
0310
0000
0000
0001
0000
0000
0010
0000
0100
1000
0000
0000
0001
0000
0000
,
0100
0000
0000
0010
0000
0100
0001
0000
0000
1000
0000
0000
0100
0000
0000
0010
0000
0100
1000
0000
0000
0001
0000
0000
,
0010
0000
0000
0002
0000
0000
0000
0000
0000
0103
0000
0000
0010
0000
0000
1000
0000
0001
0100
0000
0000
0001
0000
0000
,
0010
0000
0000
0100
0000
0010
0001
0000
0000
1000
0000
0000
0010
0000
0000
0100
0000
0010
1000
0000
0000
0001
0000
0000
,
0010
0000
0000
0100
0000
0000
1000
0000
0000
0001
0000
0000
0100
0000
0000
0010
0000
1000
0001
0000
0000
0010
0000
0000
,
0001
0100
0010
0100
0001
0010
0100
0010
,
0001
1000
0100
1000
0010
0100
0001
0001
,
1000
0010
0100
0010
1000
0100
0010
0100
,
0000
0000
0000
0000
0000
0000
M00M
0MM0
,
2002
0000
0000
0000
,
0000
0000
3003
0000
,
0001
0010
0100
1000
0001
0100
0010
1000
,
0002
2003
3200
0320
0032
0203
0320
2030
,
3200
0000
0000
0010
0000
0300
0200
0000
0000
1000
0000
0301
0200
0000
0000
0010
0000
0300
0200
0000
0000
0001
0000
1300
,
0200
0000
0000
0010
0000
0300
0200
0000
0000
1000
0000
0301
0200
0000
0000
0010
0000
0300
0200
0000
0000
0001
0000
0310
,
0200
0000
0000
0010
0000
0300
0200
0000
0000
1000
0000
0310
0200
0000
0000
0010
0000
0300
0200
0000
0000
0001
0000
0310
,
0200
0310
0002
1003
0200
0310
0002
0103
,
0020
0000
0000
0100
0000
0030
0020
0000
0000
1000
0000
0031
0020
0000
0000
0100
0000
0030
0020
0000
0000
0001
0000
1030
,
0020
0000
0000
0100
0000
0030
0020
0000
0000
1000
0000
0031
0020
0000
0000
0100
0000
0030
0020
0000
0000
0001
0000
0130
,
0020
0000
0000
0100
0000
0030
0020
0000
0000
1000
0000
0130
0020
0000
0000
0100
0000
0030
0020
0000
0000
0001
0000
0130
,
0020
0130
0002
1003
0020
0130
0002
0013
,
0200
0000
0000
0000
1000
0000
0000
0300
0020
M000
0000
0000
0031
0000
0000
0000
0200
0000
0000
0000
0001
0000
0000
0000
0320
000M
0000
0000
1030
0000
0000
0000
,
0200
0000
0000
0000
0000
0000
0000
0000
0000
0000
0000
0000
1000
0000
0000
0000
0000
0000
0000
0000
0000
0300
0000
0000
0020
0000
0000
M000
0000
0000
0000
0000
0000
0000
0000
0000
0001
0000
0000
0000
0000
0000
0000
0000
0000
0030
0000
0000
0200
0000
0000
000M
0000
0000
0000
0000
0000
0000
0000
0000
1300
0000
0000
0000
0000
0000
0000
0000
0000
0000
0000
0000
0020
0000
0000
0000
0000
0000
0000
0000
0000
0000
0000
0000
1000
0000
0000
0000
0000
0000
0000
0000
0031
0000
0000
0000
,
0200
0000
0000
0000
0001
0000
0000
0300
0020
000M
0000
0000
1030
0000
0000
0000
0200
0000
0000
0000
1000
0000
0000
0000
0320
M000
0000
0000
0031
0000
0000
0000
,
0200
0000
0000
0000
0000
0000
0000
0000
0000
0000
0000
0000
0001
0000
0000
0000
0000
0000
0000
0000
0000
0300
0000
0000
0020
0000
0000
000M
0000
0000
0000
0000
0000
0000
0000
0000
1000
0000
0000
0000
0000
0000
0000
0000
0000
0030
0000
0000
0200
0000
0000
M000
0000
0000
0000
0000
0000
0000
0000
0000
0001
0000
0000
0000
0000
0000
0000
0000
0000
0300
0000
0000
0020
0000
0000
000M
0000
0000
0000
0000
0000
0000
0000
0000
1000
0000
0000
0000
0000
0000
0000
0000
0031
0000
0000
0000
,
0020
0000
0000
0000
0001
0000
0000
0030
0200
000M
0000
0000
1300
0000
0000
0000
0020
0000
0000
0000
1000
0000
0000
0000
0230
M000
0000
0000
0301
0000
0000
0000
,
0020
0000
0000
0000
0000
0000
0000
0000
0000
0000
0000
0000
0001
0000
0000
0000
0000
0000
0000
0000
0000
0030
0000
0000
0200
0000
0000
000M
0000
0000
0000
0000
0000
0000
0000
0000
1000
0000
0000
0000
0000
0000
0000
0000
0000
0300
0000
0000
0020
0000
0000
M000
0000
0000
0000
0000
0000
0000
0000
0000
0031
0000
0000
0000
0000
0000
0000
0000
0000
0000
0000
0000
0200
0000
0000
0000
0000
0000
0000
0000
0000
0000
0000
0000
0001
0000
0000
0000
0000
0000
0000
0000
1300
0000
0000
0000
,
0020
0000
0000
0000
1000
0000
0000
0030
0200
M000
0000
0000
0301
0000
0000
0000
0020
0000
0000
0000
0001
0000
0000
0000
0230
000M
0000
0000
1300
0000
0000
0000
,
0020
0000
0000
0000
1000
0000
0000
0030
0200
M000
0000
0000
0001
0000
0000
0300
0020
000M
0000
0000
1000
0000
0000
0030
0200
M000
0000
0000
0301
0000
0000
0000
,
1000
0100
0010
0001
1000
0010
0000
0100
,
0001
1000
0001
0020
0000
0130
0010
0001
,
0100
0010
2000
0000
3002
0000
1003
0010
,
0100
0001
0000
2000
0000
3100
0010
0001
,
0200
0000
0310
1000
0200
0000
0310
0001
,
1000
0100
1000
0001
0000
0100
0001
0010
,
0200
0000
0310
0001
0100
0010
1000
0100
,
0010
0002
0000
2000
0000
3003
MMMM
0000
;

//--------------- dance-single - [FX, XMOD] RH DS KS- ----------------
#NOTEDATA:;
#STEPSTYPE:dance-single;
#DESCRIPTION:[FX, XMOD] RH DS KS-;
#DIFFICULTY:Challenge;
#METER:15;
#RADARVALUES:0,0,0,0,0;
#CREDIT:valgrind | 15+ |;
#CHARTNAME:guess if i'm serious about these mods;
#NOTES:
0000
0000
0000
0000
,
0000
0000
0000
0000
,
0000
0000
0000
0000
,
0000
0000
0000
0000
,
0000
0000
0000
0000
0000
0001
0100
0010
,
2000
0000
3000
0100
0010
0100
1000
0001
,
0000
0200
0000
0310
1000
0001
0100
0001
,
2000
3000
0200
0300
0010
0100
0010
0001
,
0100
0020
0000
1030
0000
0000
0001
1000
,
0100
0010
0002
0003
0200
0300
0020
0030
,
0100
0002
0000
1003
0000
0000
0001
1000
,
0100
0010
0100
1000
0001
0100
0010
1000
,
0100
0020
0000
0031
0000
1000
0010
0100
,
0001
0000
0000
0010
0000
0000
0100
0000
0010
0001
0000
0000
1000
0000
0000
0001
0000
0100
0010
0000
0000
0100
0000
0001
,
1000
0000
0000
0010
0000
0000
0100
0000
0010
1000
0000
0000
0001
0000
0000
1000
0000
0100
0010
0000
0000
0100
0000
1000
,
0001
0000
0000
0010
0000
0000
0100
0000
0010
0001
0000
0000
1000
0000
0000
0001
0000
0100
0010
0000
0000
0100
0000
0001
,
1000
0000
0000
0100
0000
0000
0010
0000
0001
1000
0000
0000
0010
0000
0000
0100
0000
0001
1000
0000
0001
0100
0000
0010
,
1000
0000
0000
0100
0000
0000
0010
0000
0100
1000
0000
0000
0001
0000
0000
1000
0000
0010
0100
0000
0000
0010
0000
1000
,
0001
0000
0000
0100
0000
0000
0010
0000
0100
0001
0000
0000
1000
0000
0000
0001
0000
0010
0100
0000
0000
0010
0000
0001
,
1000
0000
0000
0100
0000
0000
0010
0000
0100
1000
0000
0000
0001
0000
0000
1000
0000
0010
0100
0000
0000
0001
0000
1000
,
0100
0000
0000
0010
0000
0000
0100
0000
1000
0001
0000
0000
0100
0000
0000
0010
0000
1000
0200
0000
0000
0010
0000
0000
,
2300
0100
3002
0100
0023
0001
0230
1000
,
0310
0001
1000
0010
0100
0000
0010
1000
0200
0000
0010
0000
2300
0000
0100
0000
,
3002
0100
2003
0100
3020
1000
0230
0001
,
0310
1000
0001
0010
0100
0000
0010
0001
0200
0000
0010
0000
0302
0000
0010
0000
,
2003
0010
3002
0010
0203
0001
0320
1000
,
0130
0001
1000
0100
0010
0000
0100
1000
0020
0000
0100
0000
2030
0000
0010
0000
,
3002
0010
2003
0010
3200
1000
0320
0001
,
0230
0000
0000
0000
,
1300
0000
0000
0100
0000
0000
0000
0000
0100
0000
0000
0000
0000
0000
0000
0000
0000
1000
0000
0000
0000
1000
0000
0000
,
0000
0000
0000
0001
0000
0000
0000
0000
0001
0000
0000
0000
0000
0000
0000
0000
0000
0100
0000
0000
0000
0100
0000
0000
,
0001
0000
0000
0010
0000
0000
0000
0000
0010
0000
0000
0000
0000
0100
0000
0000
0000
1000
0000
0000
0000
1000
0000
0000
,
0001
0000
0000
0100
0000
0000
0000
0000
0010
0000
0000
0000
MMMM
0000
0000
0000
0000
0000
0000
0000
0000
0000
0000
0000
,
0001
0000
0000
1000
0000
0010
0100
0000
0010
0000
0000
1000
0001
0000
0000
0010
0000
0001
1000
0000
0100
1000
0000
0000
,
0001
0000
0000
0200
0000
0000
0301
0000
1000
0200
0000
0000
0310
0000
0000
0100
0000
1000
0100
0000
0010
0001
0000
0000
,
1000
0000
0000
0001
0000
0100
0010
0000
0100
0000
0000
0001
1000
0000
0000
0100
0000
1000
0001
0000
0010
0001
0000
0000
,
0200
0000
0000
0320
0000
0000
1030
0000
0001
0000
0000
1000
0100
0000
0000
0010
0000
0100
0000
0000
1000
0010
0000
0000
,
1000
0000
0000
0001
0000
0010
0100
0000
0010
0000
0000
0001
1000
0000
0000
0010
0000
1000
0001
0000
0100
0001
0000
0000
,
1000
0000
0000
0200
0000
0000
1300
0000
0001
0200
0000
0000
0310
0000
0000
0100
0000
0001
0100
0000
0010
2000
0000
0000
,
3001
0000
0000
1000
0000
0100
0010
0000
0100
0000
0000
1000
0001
0000
0000
0100
0000
0001
1000
0000
0010
2000
0000
0000
,
3001
0000
0000
0020
0000
0000
0130
0000
1000
0000
0000
0001
0100
0000
0000
0010
0000
1000
0000
0000
0100
0010
0000
0000
,
0001
0000
0000
0100
0000
0010
1000
0000
0001
0000
0000
0010
0100
0000
0000
0010
0000
0001
1000
0000
0100
1000
0000
0000
,
0010
0000
0000
0200
0000
0000
0301
0000
1000
0200
0000
0000
0310
0000
0000
0100
0000
1000
0001
0000
0100
0010
0000
0000
,
1000
0000
0000
0100
0000
1000
0001
0000
0100
0000
0000
0010
0100
0000
0000
0001
0000
1000
0100
0000
0010
0001
0000
0000
,
0100
0000
0000
0020
0000
0000
1030
0000
0200
0000
0000
0000
0310
0000
0000
0100
0000
2000
0000
0000
3002
0100
0000
0000
,
2003
0010
3002
0010
0203
0001
0320
1000
,
0130
0001
1000
0100
0010
0000
0100
1000
0020
0000
0100
0000
2030
0000
0100
0000
,
3002
0010
2003
0010
3200
1000
0320
0031
,
0000
0000
0000
0000
0000
0000
M00M
0MM0
,
2002
0000
0000
0000
,
0000
0000
0000
3003
2000
3200
0320
0032
,
1003
0000
0001
0100
0000
0010
0100
0000
0001
1000
0000
0100
0000
0000
1000
0100
0000
0010
0100
0000
1000
0001
0000
0100
,
0002
2003
3200
0320
0032
0203
0320
2030
,
3200
0000
0000
1000
0000
0301
0200
0000
0000
0001
0000
0310
0200
0000
0000
1000
0000
0301
0200
0000
0000
0010
0000
1300
,
0200
0000
0000
1000
0000
0301
0200
0000
0000
0010
0000
1300
0200
0000
0000
1000
0000
0301
0200
0000
0000
0001
0000
0310
,
0200
0000
0000
1000
0000
0301
0200
0000
0000
0001
0000
0310
0200
0000
0000
1000
0000
0301
0200
0000
0000
0010
0000
1300
,
0200
0000
0000
0010
0000
0301
2000
0000
0000
0010
0000
3100
0002
0000
0000
0010
0000
0103
2000
0000
0000
0001
0000
3100
,
0020
0000
0000
1000
0000
0031
0020
0000
0000
0001
0000
0130
0020
0000
0000
1000
0000
0031
0020
0000
0000
0100
0000
1030
,
0020
0000
0000
1000
0000
0031
0020
0000
0000
0100
0000
1030
0020
0000
0000
1000
0000
0031
0020
0000
0000
0001
0000
0130
,
0020
0000
0000
1000
0000
0031
0020
0000
0000
0001
0000
0130
0020
0000
0000
1000
0000
0031
0020
0000
0000
0100
0000
1030
,
0020
0000
0000
0100
0000
0031
2000
0000
0000
0100
0000
3010
0002
0000
0000
0100
0000
0013
2000
0000
0000
0001
0000
3010
,
0200
0000
0000
1000
0000
0000
0320
M000
0000
0001
0000
0130
0020
0000
0000
1000
0000
0000
0230
M000
0000
0001
0000
0310
,
0200
0000
0000
1000
0000
0000
0320
M000
0000
0001
0000
0000
0230
000M
0000
1000
0000
0301
0020
0000
0000
0031
0000
0000
,
0200
0000
0000
0001
0000
0000
0320
000M
0000
1000
0000
0130
0020
0000
0000
0001
0000
0000
0230
000M
0000
1000
0000
0310
,
0200
0000
0000
0001
0000
0000
0320
000M
1000
0000
0000
0030
M020
0000
0000
0001
0000
1030
0200
0000
1000
0301
0000
0000
,
0020
0000
0000
0001
0000
0000
0230
000M
0000
1000
0000
0310
0200
0000
0000
0001
0000
0000
0320
000M
0000
1000
0000
0130
,
0020
0000
0000
0001
0000
0000
0230
000M
0000
1000
0000
0000
0320
M000
0000
0001
0000
1030
0200
0000
0000
1300
0000
0000
,
0020
0000
0000
1000
0000
0000
0230
M000
0000
0001
0000
0310
0200
0000
0000
1000
0000
0000
0320
M000
0000
0001
0000
0130
,
0020
0000
0000
1000
0000
0000
0230
M000
0001
0000
0000
0300
020M
0000
0000
1000
0000
0301
0020
0000
0001
1030
0000
0000
,
0010
0100
0001
1000
0100
0010
0000
0100
,
1000
0000
0002
0003
2000
3000
0020
0030
2000
3000
0200
0300
0020
0030
0001
0000
,
0100
0010
2000
0000
3002
0000
1003
0100
,
0010
0000
0002
0003
2000
3000
0200
0300
2000
3000
0020
0030
0200
0300
0001
0000
,
0020
0000
0130
1000
0020
0000
0130
0001
,
1000
0000
0200
0300
0020
0030
0002
0003
0200
0300
0020
0030
2000
3000
0100
0000
,
0020
0000
0130
1000
0010
0100
0001
0010
,
0100
2000
0000
0002
0000
3003
MMMM
0000
;
