#TITLE:Gimme a Big Beat;
#SUBTITLE:;
#ARTIST:kors k;
#TITLETRANSLIT:;
#SUBTITLETRANSLIT:;
#ARTISTTRANSLIT:;
#GENRE:;
#CREDIT:;
#MUSIC:Gimme a Big Beat.ogg;
#BANNER:banner.png;
#BACKGROUND:background.png;
#CDTITLE:;
#SAMPLESTART:86.258;
#SAMPLELENGTH:17.391;
#SELECTABLE:YES;
#OFFSET:-1.041;
#BPMS:0.000=138.000;
#STOPS:;
#BGCHANGES:;
#FGCHANGES:;

//--------------- dance-single - ----------------
#NOTES:
     dance-single:
     :
     Medium:
     11:
     0,0,0,0,0:
0000
0000
0000
0000
,
0000
0000
0000
0000
,
0000
0000
0000
0000
,
0000
0000
0000
0000
,
0000
0000
0000
0000
,
1001
0000
0000
0000
0000
0000
0001
0000
0100
0000
0000
0100
0000
0000
0001
0000
,
0000
0000
0000
0000
1000
0010
0100
0001
,
1000
0000
0000
0000
0000
0000
0100
0000
1000
0000
0000
1000
0000
0000
0001
0000
,
0000
0000
0000
0000
0100
0010
0100
0000
,
0002
0100
2003
0100
,
3002
0100
2003
0100
,
3002
0010
2003
0010
,
3002
0010
2003
0010
,
3002
0023
2030
3020
,
0032
0023
2030
3020
,
0031
1000
0001
1000
0001
1000
0001
1000
,
0000
0001
0010
0100
1000
0000
1001
0000
,
0001
0100
0001
0100
0010
0100
0010
0000
,
1000
0100
1000
0100
0010
0100
0010
0000
,
0001
0100
0010
0000
1000
0100
0010
0000
,
0101
1100
2002
3003
,
1000
0010
1000
0010
0001
0010
0001
0000
,
0001
0010
0001
0010
1000
0010
1000
0000
,
0001
0010
1000
0000
1000
0010
0001
0000
,
2002
0000
3003
0000
,
1100
0000
1010
0000
1100
0000
0010
0010
,
0100
0000
0011
0000
0101
0000
0010
0010
,
1000
0000
1100
0000
1010
0000
0010
0010
,
0100
0000
0001
2000
0000
0000
0000
3000
,
0101
0000
1100
0000
0101
0000
1000
1000
,
0002
0003
0002
0003
0001
1000
1001
0000
,
0001
0010
0001
0010
0100
1000
0100
0000
,
2002
0000
0000
3003
,
1000
0100
1000
0100
,
0010
0001
0010
0001
,
1000
0100
0010
0001
,
0010
0100
1000
0001
,
1000
0010
1000
0010
,
0100
0001
0100
0001
,
1000
0010
0100
0001
,
0100
0010
1000
0001
,
2002
0000
0000
3003
0000
0000
0010
0000
0100
0000
0000
0010
0000
0000
0220
0000
,
0000
0330
0000
0000
0000
0000
0000
0000
0000
0000
0000
0000
0000
0000
0000
0000
,
2002
0000
0000
3003
0000
0000
0001
0000
1000
0000
0000
0100
0000
0000
0220
0000
,
0000
0330
0000
0000
0000
0000
0000
0000
0000
0000
0000
0000
0000
0000
0000
0000
,
0220
0000
0000
0330
0000
0000
1000
0000
0001
0000
0000
0010
0000
0000
0022
0000
,
0000
0033
0000
0000
0000
0000
0000
0000
0000
0000
0000
0000
0000
0000
0000
0000
,
0220
0000
0000
0000
0000
0330
0001
0000
0100
0000
0000
0010
0000
0000
2002
0000
,
0000
3003
0000
0000
0000
0000
0000
0000
0002
0000
0023
0000
0230
0000
2300
0000
,
3000
0001
0100
1000
0000
1000
0100
0001
,
0000
0001
0100
1000
0000
1000
0100
0001
,
0000
0001
0100
1000
0100
0001
0100
1000
,
0000
0100
0001
1000
0010
0000
0110
0000
,
2001
0000
3100
0000
0001
0100
1000
0000
,
0001
0010
1000
0010
0001
1000
0010
0000
,
1002
0000
0103
0000
1000
0100
0001
0000
,
1000
0010
0001
0010
1000
0001
0010
0000
,
0210
0000
0301
0000
0100
1000
0010
0000
,
0001
0010
1000
0001
0010
1000
0010
0000
,
0210
0000
0301
0000
0100
0010
0001
0000
,
1000
0010
0001
0010
1000
0001
0010
0000
,
2100
0000
0000
0000
3010
0000
0100
0000
0010
0000
0000
0010
0000
0000
1000
0000
,
0001
0010
1000
0010
0001
1000
0010
0001
,
0020
0000
0000
0000
1030
0000
0100
0000
0010
0000
0000
0010
0000
0000
0001
0000
,
1000
0010
0001
0010
1000
0001
0010
1000
,
0020
0000
0031
0001
1000
0001
1000
0001
,
0100
0010
0100
0010
1000
0001
1000
0001
,
0010
0100
1000
0001
0100
1000
0100
0001
,
1000
0100
0001
0100
1000
0001
0100
0000
,
2002
3003
0000
0000
;

//--------------- dance-single - ----------------
#NOTES:
     dance-single:
     :
     Hard:
     15:
     0,0,0,0,0:
0000
0000
0000
0000
,
0000
0000
0000
0000
,
0000
0000
0000
0000
,
0000
0000
0000
0000
,
0000
0000
0000
0000
,
2002
0000
0000
0000
3003
0000
0001
0000
0100
0000
0000
0100
0000
0000
0010
0000
,
0000
0000
1000
0010
1000
0000
0000
0000
0001
0000
0010
0000
0100
0000
1000
0000
,
0002
0000
0000
0000
0003
0000
0100
0000
0010
0000
0000
0100
0000
0000
0001
0000
,
0000
0000
1000
0001
1000
0001
1000
0000
0001
0000
0010
0000
0100
0000
1000
0000
,
2100
3010
0102
0013
,
2100
3010
0102
0013
,
1200
0310
0201
0310
,
1200
0310
0201
0310
,
1000
0100
0001
0100
1000
0010
0001
0010
,
1000
0100
0001
0100
1000
0010
0001
0010
,
1000
0010
1000
0010
0100
0001
0100
0001
1000
0100
1000
0010
0100
0001
0010
0100
,
0000
0001
0100
1000
0010
0000
0110
0000
,
0001
0000
0100
0000
1000
0100
1000
0000
0100
0000
0001
0000
0010
0000
0100
0000
,
1000
0000
0100
0000
0001
0100
0001
0000
0100
1000
0100
1000
0100
0000
0010
0000
,
0001
0000
0100
0000
1000
0100
1000
0000
0100
0000
0001
0000
0010
0000
0100
0000
,
1000
0000
0100
0000
0001
0100
0001
0000
1000
0000
0010
0000
0002
0000
0000
0000
,
1003
0000
0010
0000
0001
0010
0001
0000
0010
0000
1000
0000
0100
0000
0010
0000
,
0001
0000
0010
0000
1000
0010
1000
0000
0010
0001
0010
0001
0010
0000
0100
0000
,
1000
0000
0010
0000
0001
0010
0001
0000
1000
0000
0100
0000
0001
0000
0010
0000
,
0200
0000
0000
0000
0000
0000
0300
0000
1000
0000
0000
1000
0000
0000
0001
0000
,
1000
0000
0010
0100
0010
0100
1000
0000
0001
0000
0010
0000
1000
0000
1000
0000
,
0001
0000
0010
0100
0010
0100
0001
0000
1000
0000
0010
0001
0020
0000
0000
0000
,
0031
0000
0100
0010
0100
0010
0001
0000
1000
0000
0100
0000
0001
0000
0001
0000
,
0010
0000
0100
0010
0001
0000
2000
0000
3020
0000
0032
0000
2003
0000
3200
0000
,
0301
0000
0100
0010
0100
0010
0001
0000
1000
0000
0100
0000
0001
0000
0001
0000
,
0010
0000
0100
1000
0010
0000
0100
0001
1000
0100
0010
0001
0020
0000
0000
0000
,
0031
1000
0001
1000
0100
0010
0100
0010
0001
1000
0010
0100
0001
0010
0100
1000
,
0001
0000
1000
0001
1000
0001
1000
0000
0010
0000
0100
0000
0001
0000
0000
0000
,
1001
0001
1000
1000
,
0001
0100
1000
0100
,
0001
0001
1000
1000
,
0001
0010
1000
0010
,
0001
0010
0001
0010
0100
1000
0100
1000
,
0010
0100
0001
0100
0010
1000
0100
0010
,
0001
1000
0001
1000
0100
0010
0100
0010
,
0001
0100
0010
1000
0010
0100
0001
1000
,
2002
0000
0000
3003
0000
0000
0001
0000
0022
0033
0000
0220
0330
0000
2200
0000
,
0000
3300
0000
0000
0001
0000
0000
0000
0001
0000
0000
0000
0001
0000
0000
0000
,
2002
0000
0000
3003
0000
0000
1000
0000
2020
3030
0000
0220
0330
0000
0202
0000
,
0000
0303
0000
0000
1000
0000
0000
0000
1000
0000
0000
0000
1000
0000
0000
0000
,
2002
0000
0000
3003
0000
0000
0010
0000
2020
3030
0000
0022
0033
0000
2002
0000
,
0000
3003
0000
0000
0100
0000
0000
0000
0010
0000
0000
0000
0100
0000
0000
0000
,
2002
0000
0000
3003
0000
0000
0010
0000
0022
0033
0000
2020
3030
0000
2002
0000
,
0000
3003
0000
0000
1000
0000
0000
0000
0002
0000
0023
0000
0230
0000
2300
0000
,
3001
0000
0100
0010
0100
0010
0100
0001
0010
0000
0100
0010
0100
0010
0100
1000
,
0010
0000
0100
0010
0100
0010
0100
0001
0010
0000
0100
0010
0100
0010
0100
1000
,
0010
0000
0100
0001
0010
0000
0100
1000
0010
0000
0100
0001
0010
0100
0010
0100
,
0000
0001
0100
1000
0010
0000
0110
0000
,
0201
0000
0000
0000
1300
0000
0100
0000
0001
0000
0000
0010
0100
0000
1000
0000
,
0001
0100
0001
1000
0100
0000
0010
0100
1000
0001
1000
0000
0001
0100
0010
1000
,
0200
0000
0000
0000
0301
0000
0100
0000
1000
0000
0000
0010
0100
0000
0001
0000
,
1000
0010
1000
0001
1000
0000
0001
0010
0000
0100
1000
0001
0100
0010
1000
0001
,
0020
0000
0000
0000
1030
0000
0010
0000
0001
0000
0000
0100
0010
0000
1000
0000
,
0001
0100
0001
1000
0100
0000
0010
0001
1000
0010
1000
0000
0001
0010
0100
1000
,
0200
0000
0000
0000
0301
0000
0100
0000
1000
0000
0000
0010
0100
0000
0001
0000
,
1000
0010
1000
0010
0100
0001
1000
0100
0000
0010
0001
1000
0010
0000
0100
0000
,
0120
0000
0000
0000
0031
0000
0010
0000
1000
0000
0100
0010
0001
0010
0100
0000
,
1000
0001
1000
0001
0100
0010
1000
0001
0000
0001
1000
0010
1000
0001
0010
0001
,
0020
0000
0000
0000
1030
0000
0010
0000
0001
0000
1000
0010
0100
0010
1000
0000
,
0001
0100
0001
0100
0010
1000
0100
1000
0000
0001
0100
0010
1000
0100
0010
0000
,
0210
0000
0000
0000
0301
0000
0100
0000
1000
0000
0010
0100
0001
0100
0010
0000
,
1000
0001
1000
0100
0010
0100
1000
0001
0000
0100
0010
0100
0001
0010
0100
1000
,
0020
0000
0031
0010
1000
0100
0001
0100
,
1000
0100
1000
0100
0010
0001
1000
0010
0100
0001
0010
0100
1000
0000
0000
0000
,
2002
3003
0000
0000
;
