#VERSION:0.83;
#TITLE:Get Goin';
#SUBTITLE:;
#ARTIST:aespa;
#TITLETRANSLIT:;
#SUBTITLETRANSLIT:;
#ARTISTTRANSLIT:;
#GENRE:FRAGGLE K-POP;
#ORIGIN:;
#CREDIT:;
#BANNER:Get Goin'.png;
#BACKGROUND:Get Goin'-bg.png;
#PREVIEWVID:;
#JACKET:Get Goin'-jacket.png;
#CDIMAGE:;
#DISCIMAGE:;
#LYRICSPATH:;
#CDTITLE:;
#MUSIC:Get Goin'.ogg;
#OFFSET:0.007000;
#SAMPLESTART:35.212982;
#SAMPLELENGTH:15.620000;
#SELECTABLE:YES;
#BPMS:0.000=115.000;
#STOPS:;
#DELAYS:;
#WARPS:;
#TIMESIGNATURES:0.000=4=4;
#TICKCOUNTS:0.000=4;
#COMBOS:0.000=1;
#SPEEDS:0.000=1.000=0.000=0;
#SCROLLS:0.000=1.000;
#FAKES:;
#LABELS:0.000=Song Start;
#BGCHANGES:0.000=Get Goin'.mp4=1.000=0=0=0=StretchNoLoop====,
99999=-nosongbg-=1.000=0=0=0 // don't automatically add -songbackground-
;
#KEYSOUNDS:;
#ATTACKS:
;

//---------------dance-single - ----------------
#NOTEDATA:;
#CHARTNAME:;
#STEPSTYPE:dance-single;
#DESCRIPTION:;
#CHARTSTYLE:;
#DIFFICULTY:Challenge;
#METER:14;
#RADARVALUES:0.630111,0.679612,0.142283,0.117174,0.828591,527.000000,510.000000,17.000000,14.000000,11.000000,0.000000,6.000000,0.000000,0.000000,0.630111,0.679612,0.142283,0.117174,0.828591,527.000000,510.000000,17.000000,14.000000,11.000000,0.000000,6.000000,0.000000,0.000000;
#CREDIT:BlindedVanguard573;
#NOTES:
0000
0000
0000
0000
,
0000
0000
0000
0000
,
0000
0000
0000
0000
,
0000
0000
0000
0000
,
0000
0000
0000
0000
,
0000
0000
0000
0000
0000
0000
0000
0000
0000
0000
0000
0000
0000
0000
0001
1000
,
0100
1000
0001
0000
1000
0000
0001
0100
0001
1000
0001
0000
1000
0000
0100
0010
,
0001
0000
0000
0001
0000
0000
0001
0000
0000
0000
0100
0000
0000
0000
0010
1000
,
0001
1000
0100
0000
1000
0000
0001
0010
0001
1000
0001
0000
0100
0000
0010
0000
,
1000
0000
0000
1000
0000
0000
1000
0000
0000
0000
0100
0000
0000
0010
0001
0010
,
0001
1000
0010
0M00
0010
0000
0001
1000
0001
0000
0010
0001
0000
0000
1000
0001
,
0100
00M0
0100
1000
0001
0000
0100
0010
1000
0000
0001
1000
0000
0000
0100
0100
,
0001
0000
0100
0100
1000
0000
0001
1000
0000
0000
0000
0000
0000
0010
0100
0001
,
1000
0000
0010
0010
0001
0000
0010
0100
0000
0000
0000
0000
0000
1000
0001
0100
,
0001
0000
0010
0010
1000
0000
0001
0000
1000
0000
0100
0100
0001
1000
0100
0010
,
0001
0000
0000
0001
0000
0000
0001
0000
0000
0000
0100
0000
0000
0100
0000
0000
,
0010
0000
0000
0010
0000
0000
0010
0000
1000
0001
1000
0001
0000
1000
0010
0100
,
0001
0000
1000
0001
0000
0000
0100
0001
1000
0000
0100
1000
0001
0000
0100
0001
,
0010
0000
0011
0000
0001
0000
1001
0000
0001
0000
0101
0000
0001
0010
0100
1000
,
0001
0000
1000
0001
0100
0100
1000
0001
1000
0000
0010
0100
0001
0010
0M00
0010
,
1000
0000
1010
0000
1000
0000
1001
0000
1000
0000
1100
0000
1000
0001
0100
0010
,
2000
0000
0010
0000
3001
0000
1000
0002
0000
0010
0000
2003
0000
0000
3010
1000
,
0100
00M0
0100
0000
0001
1000
0001
0010
0010
1000
0000
0001
0000
0000
0100
0100
,
1000
0000
0100
0100
0001
0000
1000
0010
0000
0000
0000
0000
1000
0001
0010
0010
,
1000
0000
0010
0010
0001
0100
0000
0010
0000
0000
0000
0000
1000
0100
0010
0001
,
1000
0000
0100
0100
0001
0000
1000
0000
0001
0000
0010
0010
1000
0100
0010
0001
,
1000
1010
1000
1001
1000
1100
1000
1001
,
0001
0000
0011
0000
0001
0000
1001
0000
1000
0100
00M0
0100
0001
0100
00M0
0100
,
2000
0000
0010
0000
3001
0000
4000
3000
0002
0000
0010
0000
1003
0000
0001
0000
,
2000
0000
0100
0000
3001
0000
0100
0100
2000
0000
0010
0000
3100
0000
4000
3000
,
0002
0000
0010
0000
1003
0000
0004
0003
2000
0000
0010
0000
3001
0000
1000
0000
,
0002
0000
0000
0000
0000
0000
0100
0000
0000
0000
0000
0000
1003
0000
0000
0000
0000
0000
0004
0000
0000
0003
0000
0000
1000
0000
0000
0000
0000
0000
0000
0000
0000
0000
0000
0000
0100
0000
0000
0000
0010
0000
0000
0000
0100
0000
0000
0000
,
1000
0000
0010
1000
0001
0000
0010
0001
1000
0001
0100
0001
1000
0001
0040
0030
,
0200
0000
1000
0000
0310
0000
0100
0000
1000
0010
0100
0001
1000
0000
0400
0300
,
0020
0000
0000
0000
0000
0000
0001
0000
0000
0000
0000
0000
0130
0000
0000
0000
0000
0000
1000
0000
0000
0000
0000
0000
0001
0000
0000
0000
0100
0000
0000
0000
0010
0000
0000
0000
1000
0000
0000
0000
0000
0000
0001
0000
0000
0010
0000
0000
,
0001
0000
0100
0001
1000
0000
0100
1000
0001
0100
0000
0010
1000
0100
0010
0001
,
1000
0000
0000
0010
0100
0010
0100
0000
0000
0001
0000
0000
0010
0100
0010
0100
0000
0000
1000
0000
0000
0001
0100
0001
,
1000
0000
0001
0000
1000
0100
0000
0000
0001
0000
0100
0000
1000
0000
0000
0000
,
0000
0000
0000
0000
0000
0000
0000
0000
0000
0000
0000
0000
0001
0100
0010
1000
,
0100
0010
0001
0010
0100
0000
1000
0001
0100
0100
1000
0001
1000
0010
000M
0010
,
0100
0000
1000
0001
0010
0010
1000
0001
0010
0100
000M
0100
0001
0000
1000
0001
,
0100
0100
1000
0001
0010
0000
0001
0100
0010
0000
1000
0000
0100
0010
M000
0010
,
1000
0000
0001
1000
0010
0010
0001
1000
0100
0000
1000
0001
0100
0010
000M
0010
,
0001
0000
0100
0001
0000
2000
0000
0100
0000
0001
0000
3010
0000
1000
0000
0001
,
0000
0010
0001
1000
0010
0010
0001
1000
0100
1000
0000
0001
0000
1000
0010
0010
,
0001
0000
0100
0100
1000
0000
0010
0100
0000
0001
0000
0010
0000
0001
0100
0100
,
1000
0000
0010
0010
0001
1000
0000
0100
0000
0010
0000
1000
0000
0010
0001
1000
,
0100
0000
0010
0010
1000
0000
0100
0000
0010
0000
0100
0100
0001
0010
0100
1000
,
0001
0000
0101
0000
1000
0000
1100
0000
0001
0000
0011
0000
1000
0010
0100
0001
,
1000
0100
0000
0010
0000
0100
0000
0001
0000
0100
0000
1000
0000
0001
0100
0100
,
0010
0000
0100
0100
0001
0000
0010
0100
1000
0000
0001
0000
1000
0001
0010
0010
,
0100
0000
0001
1000
0100
0010
M000
0010
1000
0000
0001
0000
0010
0100
1000
0001
,
0100
0000
0010
0010
0100
0000
1000
0000
0010
0000
0100
0100
0010
0001
0100
0010
,
1000
0000
1010
0000
0001
0000
0011
0000
1000
0010
0000
0001
0010
0000
1000
0100
,
0000
0001
0100
0000
1000
0000
0001
1000
0100
0010
0001
1000
0010
0100
0001
0000
,
2000
0000
0000
0000
,
3000
0000
0000
0000
;

//---------------dance-single - ----------------
#NOTEDATA:;
#CHARTNAME:;
#STEPSTYPE:dance-single;
#DESCRIPTION:;
#CHARTSTYLE:;
#DIFFICULTY:Hard;
#METER:10;
#RADARVALUES:0.417284,0.445263,0.292936,0.083696,0.058587,349.000000,314.000000,35.000000,10.000000,0.000000,0.000000,0.000000,0.000000,0.000000,0.417284,0.445263,0.292936,0.083696,0.058587,349.000000,314.000000,35.000000,10.000000,0.000000,0.000000,0.000000,0.000000,0.000000;
#CREDIT:BlindedVanguard573;
#NOTES:
0000
0000
0000
0000
,
0000
0000
0000
0000
,
0000
0000
0000
0000
,
0000
0000
0000
0000
,
0000
0000
0000
0000
,
0000
0000
0000
0000
0000
0000
0000
0001
,
0010
0100
1000
0000
0001
0100
1000
0100
,
0001
0000
0000
0001
0000
0000
0001
0000
0000
0000
0010
0000
0000
0000
0100
0000
,
1000
0010
0100
0001
1000
0100
0001
0100
,
1000
0000
0000
1000
0000
0000
1000
0000
0000
0000
0010
0000
0000
0000
0010
0000
,
0100
0001
0010
0001
0100
0001
1000
0000
,
0100
1000
0010
1000
0100
1000
0001
0000
,
1000
0000
0001
0000
0010
0000
0000
0010
0000
0000
0000
0000
0000
0000
0000
0000
,
0001
0000
1000
0000
0010
0000
0000
0010
0000
0000
0000
0000
0000
0000
1000
0000
,
0001
0100
0100
0001
1000
0100
0100
1000
,
0001
1000
0000
1010
0000
0001
0000
0011
,
0000
1000
0000
1100
0000
0001
1001
1000
,
0010
0100
0001
0000
1000
0100
0001
0100
,
1000
0001
0000
0011
0000
1000
0000
1010
,
0001
0010
0100
1000
0001
0100
1000
0100
,
0001
1000
0000
1010
0000
0001
0000
0011
,
0001
0100
0010
0001
0010
0100
0001
0000
,
1000
0100
0010
1000
0010
0100
1000
0000
,
0001
0000
1000
0000
0010
0000
0000
2001
0000
0000
0000
0000
3100
0000
0000
0000
,
1000
0000
0001
0000
0010
0000
0000
1002
0000
0000
0000
0000
0103
0000
0001
0000
,
1000
0100
0100
0010
0001
0100
0100
0010
,
1000
0001
0000
0011
0000
1000
0000
1100
,
0000
0001
0000
0101
0000
1000
0000
1010
,
2000
0000
0100
0001
3002
0000
0010
0000
,
2003
0000
0010
0001
3002
0000
0100
1003
,
2000
0000
0100
0010
3002
0000
0100
0010
,
0023
0000
0000
0000
0000
0000
0130
0000
0000
1000
0000
0000
0001
0000
0000
0000
0000
0000
0100
0000
0010
0000
0100
0000
,
0001
0010
0100
0010
0001
0001
1000
0000
,
0100
1000
0010
0100
0010
1000
0001
0010
,
0001
0100
0010
0100
0001
0001
1000
0000
,
0100
1000
0001
0010
0001
0100
0010
1000
,
1010
0000
0001
0011
0000
1000
1100
0000
,
0001
0101
0000
0000
1001
1001
1001
0000
,
0000
0000
0000
0000
0000
0000
0000
0001
,
1000
0100
0010
0001
1000
0010
0100
0010
,
0001
0010
0100
0001
0010
0010
0100
0000
,
1000
0010
0100
0001
1000
0100
0010
0100
,
0001
0100
0010
0001
0100
0100
0010
1000
,
0001
0010
1000
0001
0100
0010
0001
0000
,
1000
0010
0001
1000
0100
0010
1000
0000
,
0001
0000
0010
0000
0100
0000
0100
1000
0000
0000
0000
0000
1001
0000
0001
0000
,
1000
0000
0010
0000
0100
0001
0000
0001
0000
0000
0000
0000
1001
0000
0001
0000
,
1000
0010
0010
0001
1000
0100
0100
0001
,
1000
1010
0000
0101
0000
0011
0000
1100
,
1000
0100
0001
0100
1000
0010
0001
0010
,
1000
0000
0010
0000
0100
0000
0100
0001
0000
0000
0000
0000
1001
0000
1000
0000
,
0001
0000
0010
0000
0100
1000
0000
1000
0000
0000
0000
0000
1001
0000
1000
0000
,
0001
0010
0010
1000
0001
0100
0100
1000
,
0001
0011
0000
1100
0000
1010
0000
0101
,
0001
1001
0000
0110
0001
0010
0100
1000
,
0020
0000
0000
0000
,
0030
0000
0000
0000
;

//---------------dance-single - ----------------
#NOTEDATA:;
#CHARTNAME:;
#STEPSTYPE:dance-single;
#DESCRIPTION:;
#CHARTSTYLE:;
#DIFFICULTY:Medium;
#METER:9;
#RADARVALUES:0.337175,0.374958,0.192501,0.066957,0.000000,282.000000,259.000000,23.000000,8.000000,0.000000,0.000000,0.000000,0.000000,0.000000,0.337175,0.374958,0.192501,0.066957,0.000000,282.000000,259.000000,23.000000,8.000000,0.000000,0.000000,0.000000,0.000000,0.000000;
#CREDIT:BlindedVanguard573;
#NOTES:
0000
0000
0000
0000
,
0000
0000
0000
0000
,
0000
0000
0000
0000
,
0000
0000
0000
0000
,
0000
0000
0000
0000
,
0000
0000
0000
0000
,
0001
0100
0001
0000
1000
0100
0010
0100
,
1000
0010
0100
0001
,
1000
0010
1000
0000
0001
0010
0100
0010
,
0001
0100
0010
1000
,
0001
0010
0100
0000
1000
0100
0010
0000
,
0001
0100
0010
0000
1000
0010
0100
0000
,
0001
1000
0001
0000
0110
0000
0000
0000
,
1000
0001
1000
0000
0110
0000
0000
0000
,
0001
0001
0001
0000
1000
1000
1000
0000
,
2002
3003
0000
0000
,
0000
0000
0000
0000
0001
0010
0100
1000
,
0001
0100
0010
0000
0010
0100
0001
0010
,
0100
1000
0000
1100
0000
1000
0000
1001
,
1000
0100
0010
0000
0010
0100
1000
0010
,
0100
0001
0000
0101
0000
0001
0000
1001
,
0001
0100
0010
0000
1000
0100
0001
0000
,
0100
0010
0001
0000
1000
0010
0001
0000
,
0010
0100
0001
0100
0010
0000
1000
0000
,
0100
0010
0001
0010
0100
0000
1000
0000
,
0001
0001
0001
0000
1000
1000
1000
0000
,
0220
0330
0000
0000
,
0001
0000
0010
0000
0100
1000
0001
1000
,
0001
0101
1000
1010
,
0001
0011
1000
1100
,
0010
1001
0100
1001
,
0010
1001
0100
0002
,
0013
0010
0010
0000
0100
0100
0100
0000
,
1000
1000
1000
0000
0001
0001
0001
0000
,
0100
0100
0100
0000
0010
0010
0010
0000
,
1000
1000
1000
0000
0001
0010
0100
1000
,
0010
0000
0000
0100
0000
0000
0001
0000
,
0000
1000
0000
0000
0010
0010
0010
0000
,
0000
0000
0000
0000
,
1000
0100
1000
0001
0100
0001
1000
0001
,
1000
1010
0001
0011
,
1000
0010
1000
0001
0010
0001
1000
0001
,
1000
1100
0001
0101
,
1000
0100
0010
0001
0010
0100
1000
0000
,
0001
0100
0010
1000
0010
0100
0001
0000
,
0010
0100
0010
0001
1000
0100
1000
0000
,
0010
0100
0010
1000
0001
0100
0001
0000
,
0010
0010
0010
0000
0100
0100
0100
0000
,
2002
3003
0000
0000
,
0001
0100
1000
0000
1000
0100
0001
0000
,
1000
0100
0010
0100
0001
0100
0010
0000
,
0001
0100
0010
0100
1000
0100
0010
0000
,
1000
1000
1000
0000
0001
0001
0001
0000
,
0010
0100
0000
1100
0000
0010
0000
0101
,
0000
0010
0000
1001
1000
0100
0010
0001
,
0200
0000
0000
0000
,
0300
0000
0000
0000
;

//---------------dance-single - ----------------
#NOTEDATA:;
#CHARTNAME:;
#STEPSTYPE:dance-single;
#DESCRIPTION:;
#CHARTSTYLE:;
#DIFFICULTY:Easy;
#METER:6;
#RADARVALUES:0.205653,0.257784,0.083696,0.075326,0.000000,172.000000,162.000000,10.000000,9.000000,0.000000,0.000000,0.000000,0.000000,0.000000,0.205653,0.257784,0.083696,0.075326,0.000000,172.000000,162.000000,10.000000,9.000000,0.000000,0.000000,0.000000,0.000000,0.000000;
#CREDIT:BlindedVanguard573;
#NOTES:
0000
0000
0000
0000
,
0000
0000
0000
0000
,
0000
0000
0000
0000
,
0000
0000
0000
0000
,
0000
0000
0000
0000
,
0000
0000
0000
0000
,
0001
0100
0010
1000
,
0001
0000
1000
0000
,
0001
0010
0100
1000
,
0001
0000
1000
0000
,
0001
0100
0001
0001
,
1000
0100
1000
1000
,
0001
1000
0001
0000
,
0010
0100
0010
0000
,
0001
0100
1000
0100
,
0001
0000
0000
0000
,
0000
0000
0000
1001
,
1000
0100
0010
0100
,
1000
1000
0001
0001
,
1000
0010
0100
0010
,
1000
1000
0001
0001
,
0010
0100
0010
0010
,
0001
1000
0001
0001
,
1000
0100
1100
0000
,
0001
0100
0101
0000
,
1000
0010
0001
0010
,
1000
0000
0000
0000
,
0001
0000
0010
0100
,
2000
3000
0002
0003
,
0200
0300
0020
0030
,
2000
3000
0002
0003
,
0020
0030
0100
0100
,
0100
1000
0100
1000
,
0001
0010
0001
0010
,
0001
0100
0001
0100
,
0010
1000
0010
1000
,
0001
0000
0000
0010
0000
0000
0100
0000
,
0000
1000
0000
0000
0001
0000
1001
0000
,
0000
0000
0000
0000
,
1000
0010
0001
0010
,
0100
0001
1000
1000
,
0001
0010
1000
0010
,
0100
1000
0001
0001
,
1000
0010
0100
1000
,
0001
0010
0100
0001
,
1000
0100
0011
0000
,
0001
0100
1010
0000
,
1000
0100
0001
0100
,
1000
1000
0001
0001
,
0100
0010
0100
1001
,
0001
0100
1010
0000
,
1000
0100
0011
0000
,
0001
0100
1000
0100
,
0001
0001
1000
1000
,
0100
0010
0100
1000
,
2002
0000
0000
0000
,
3003
0000
0000
0000
;

//---------------dance-single - ----------------
#NOTEDATA:;
#CHARTNAME:;
#STEPSTYPE:dance-single;
#DESCRIPTION:;
#CHARTSTYLE:;
#DIFFICULTY:Beginner;
#METER:2;
#RADARVALUES:0.142283,0.164044,0.100435,0.008370,0.000000,119.000000,107.000000,12.000000,1.000000,0.000000,0.000000,0.000000,0.000000,0.000000,0.142283,0.164044,0.100435,0.008370,0.000000,119.000000,107.000000,12.000000,1.000000,0.000000,0.000000,0.000000,0.000000,0.000000;
#CREDIT:BlindedVanguard573;
#NOTES:
0000
0000
0000
0000
,
0000
0000
0000
0000
,
0000
0000
0000
0000
,
0000
0000
0000
0000
,
0000
0000
0000
0000
,
0000
0000
0000
0000
,
0001
0001
0001
0000
,
0010
0000
0000
0000
,
0100
0100
0100
0000
,
1000
0000
0000
0000
,
0001
0001
0001
0000
,
1000
1000
1000
0000
,
0010
0000
1001
0000
,
0100
0000
1001
0000
,
0010
0000
0100
0000
,
1001
0000
0000
0000
,
0000
0000
0000
0000
,
1000
1000
0000
0010
,
0010
0000
0100
0000
,
0001
0001
0000
0010
,
0010
0000
0100
0000
,
1000
1000
1000
0000
,
0001
0001
0001
0000
,
0010
0000
1001
0000
,
0100
0000
1001
0000
,
0010
0000
0100
0000
,
1001
0000
0000
0000
,
0000
0000
0000
0000
,
0001
0000
0010
0000
,
0100
0000
1000
1000
,
1000
0000
0010
0000
,
0100
0000
0001
0001
,
0001
0000
0010
0000
,
0100
0000
1000
1000
,
1000
0000
0010
0000
,
0100
0000
0001
0001
,
0001
0000
0000
1000
,
0000
0000
0010
0010
,
0000
0000
0000
0000
,
1000
1000
1000
0000
,
0100
0100
0100
0000
,
0010
0010
0010
0000
,
0001
0001
0001
0000
,
0100
0100
0100
0000
,
0010
0010
0010
0000
,
0100
0000
1001
0000
,
0010
0000
1001
0000
,
0100
0000
0010
0000
,
1001
0000
0000
0000
,
0001
0001
0001
0000
,
0010
0000
1001
0000
,
0100
0000
1001
0000
,
0010
0000
0100
0000
,
1001
0000
0000
0000
,
1000
0000
0001
0001
,
0002
0000
0000
0000
,
0003
0000
0000
0000
;
