#TITLE:Garuda;
#SUBTITLE:;
#ARTIST:kors k;
#TITLETRANSLIT:;
#SUBTITLETRANSLIT:;
#ARTISTTRANSLIT:;
#GENRE:;
#CREDIT:;
#MUSIC:Garuda.ogg;
#BANNER:banner.png;
#BACKGROUND:background.png;
#CDTITLE:;
#SAMPLESTART:48.500;
#SAMPLELENGTH:18.000;
#SELECTABLE:YES;
#OFFSET:1.000;
#BPMS:0.000=160.000
,64.000=80.000
,66.000=160.000
,190.000=80.000
,192.000=160.000
,256.000=80.000
;
#STOPS:;
#BGCHANGES:;
#FGCHANGES:;

//--------------- dance-single - ----------------
#NOTES:
     dance-single:
     :
     Medium:
     12:
     0,0,0,0,0:
0000
0000
0000
0000
,
0000
0000
0000
0000
,
0000
0000
0000
0000
,
0000
0000
0000
0000
,
0000
0000
0000
0000
,
0201
0010
2000
3300
,
1000
0000
0100
0000
0001
0010
0100
0000
,
1000
0010
0101
0000
,
0001
1000
0001
0000
0010
0000
0100
0000
,
1100
1100
1000
0010
,
0100
0000
0001
0000
0010
0100
0010
0000
,
0011
0011
0001
0100
,
0010
0000
1000
0000
0100
0010
0100
0000
,
0011
0101
0100
0010
,
1010
1100
1000
0001
,
0010
0100
0010
0100
1000
0100
0010
0001
,
0000
0000
0000
0000
0000
0000
0000
0000
1000
0000
0000
1000
0000
0000
0100
0000
,
0001
0000
0000
0001
0000
0000
0100
0000
1000
0000
0000
0100
0000
0000
0010
0000
,
0022
0000
0000
0000
0033
0000
0000
0000
0001
0000
0000
0001
0000
0000
0100
0000
,
1000
0000
0000
1000
0000
0000
0100
0000
0001
0000
0000
0100
0000
0000
0010
0000
,
2010
0000
0000
0000
0002
0000
0000
0000
3003
0000
0000
1000
0000
0000
0100
0000
,
0001
0000
0000
0100
0000
0000
1000
0000
0100
0000
0000
0010
0000
0000
0001
0000
,
0022
0000
0000
0000
0033
0000
0000
0000
0001
0000
0000
0001
0000
0000
0010
0000
,
1000
0000
0000
1000
0000
0000
0010
0000
0002
0000
0000
0000
0100
0000
0000
0000
,
0000
0000
0000
1000
0000
0000
1003
0000
0000
0000
0000
0000
1001
0000
0000
0000
0000
0000
0001
0000
0000
0000
0001
0000
,
0010
0000
0010
0100
0000
0100
1000
0000
0100
0010
0000
0001
,
0100
0000
0000
0000
0000
0000
1001
0000
0000
1000
0000
1000
,
0010
0000
0010
0100
0000
0100
0001
0000
0010
0100
0000
1000
,
0020
0000
0000
0130
0000
0000
0001
0000
0010
0000
0011
0000
,
1000
0000
0010
0000
1010
0000
0001
0000
0100
0000
0101
0000
,
2000
0000
0000
0000
3000
0000
0000
0000
0001
0000
0000
0001
0000
0000
0001
0000
,
1000
0000
0000
1000
0000
0000
0010
0000
0100
0000
0000
0100
0000
0000
0010
0000
,
0220
0330
0201
0010
,
2000
3300
1000
0100
,
0001
0010
0100
0000
1000
0000
0010
0000
,
0101
0000
0000
0000
0001
1000
0001
0000
,
0010
0100
1200
0010
,
0002
0303
0001
0100
,
1000
0010
0100
0000
0001
0000
0010
0000
,
1100
0000
0000
0000
1000
0001
1000
0000
,
0010
0100
0110
0101
,
0001
0010
0110
1100
,
1000
0010
1001
1100
,
0001
0010
1001
0101
,
1000
0010
0200
0001
,
0010
1000
0010
0001
,
0010
0000
1300
0000
0100
0010
0100
0010
,
1000
0001
0100
0010
0000
0000
0000
0000
,
1000
0000
0000
0001
0000
0001
0000
0000
0100
0000
0000
0010
0000
0010
0000
0000
,
1000
0000
0000
0001
0000
0001
1000
0000
2002
0000
0000
0000
3003
0000
0000
0000
,
0001
0000
0000
1000
0000
1000
0000
0000
0100
0000
0000
0010
0000
0010
0000
0000
,
0001
0000
0000
1000
0000
1000
0001
0000
0200
0000
0000
0000
0320
0000
0000
0000
,
1030
0000
0000
0100
0000
0100
0000
0000
0010
0000
0000
0001
0000
0001
0000
0000
,
0100
0000
0000
0010
0000
0010
0100
0000
0220
0000
0000
0000
0330
0000
0000
0000
,
0001
0000
0000
0100
0000
0100
0000
0000
0010
0000
0000
1000
0000
1000
0000
0000
,
0002
0010
2003
3010
,
0001
0000
0100
0000
1000
0000
0100
0000
0001
0000
0010
0000
,
1000
0000
0010
0000
0001
0000
2002
0000
0000
3003
0000
0000
,
1000
0000
0010
0000
0001
0000
0010
0000
1000
0000
0100
0000
,
0001
0000
0100
0000
1000
0000
2002
0000
0000
3003
0000
0000
,
0101
0000
0001
0000
0100
0000
0110
0000
0010
0000
1000
0000
,
1100
0000
0100
0000
0010
0000
0022
0000
0000
0033
0000
0000
,
1001
0000
1000
0000
0010
0000
1001
0000
0001
0000
0010
0000
,
0100
1000
0100
1000
0001
0100
0010
0000
0000
0000
0000
0000
,
2002
0000
3003
0000
;

//--------------- dance-single - ----------------
#NOTES:
     dance-single:
     :
     Hard:
     15:
     0,0,0,0,0:
0000
0000
0000
0000
,
0000
0000
0000
0000
,
0000
0000
0000
0000
,
0000
0000
0000
0000
,
0000
0000
0000
0000
,
1000
0100
0001
0000
0202
0000
0303
0000
,
0001
0000
0100
0000
1000
0000
0001
0000
0100
0000
0010
0100
0010
0000
1000
0000
,
0001
0100
1000
0000
2200
0000
3300
0000
,
1000
0100
0001
0010
0100
1000
0010
0100
,
0101
0101
0011
0011
,
1010
1010
1100
1100
,
0101
0011
1010
1100
,
1010
0011
0101
1100
,
0001
0010
1000
0010
0001
1000
0010
1000
,
0001
0100
1000
0100
0001
1000
0100
1000
,
0001
0010
0001
0010
0100
1000
0100
1000
0001
0100
0001
1000
0010
0100
0001
0010
,
0000
0000
0000
0000
0000
0000
0000
0000
1001
0000
0000
1000
0100
1000
0100
0000
,
1100
0000
0000
1000
0010
1000
0010
0000
1010
0000
0000
1000
0001
1000
0001
0000
,
0010
0000
1000
0000
0010
0000
0001
0000
1001
0000
0000
0001
0100
0001
0100
0000
,
0101
0000
0000
0001
0010
0001
0010
0000
0011
0000
0000
0001
1000
0001
1000
0000
,
0001
0000
0000
0000
0010
0000
0000
0000
0100
0000
0000
0000
1000
0000
0000
0000
0010
0000
0000
0000
0100
0000
0000
0000
0002
0000
0000
0000
0000
0000
0000
0000
0000
0013
0000
0000
0100
0000
0000
0010
0000
0000
0001
0000
0000
0000
0000
0000
,
0011
0000
0000
0001
0100
0010
0100
0000
0101
0000
0000
0001
1000
0100
1000
0000
,
0001
0000
0010
0000
1000
0000
0010
0000
0011
0000
0000
1000
0100
0010
0100
0000
,
1100
0000
0000
1000
0010
0100
0010
1000
0020
0000
0000
0000
0130
0000
0001
0010
,
0100
0000
0000
1000
0000
0000
0010
0000
0000
0000
0000
0000
1010
0000
0000
0000
0000
0000
0010
0000
0100
0000
1000
0000
,
0100
0010
1000
0100
0010
0100
1000
0010
0100
1000
0100
0010
,
1000
0100
0010
0001
0000
0000
0011
0000
0000
0001
0010
0100
,
0010
0001
0100
0010
0001
0010
0100
0001
0010
0100
0010
0001
,
0100
0010
1000
0100
0010
0001
0011
0000
0101
0000
0110
0000
,
1010
0000
1100
0000
1001
0000
0011
0000
1100
0000
0110
0000
,
2002
0000
0000
0000
3003
0000
0000
0000
1000
0010
0000
0100
0010
0100
0001
0000
,
0100
0010
0000
1000
0100
0010
0001
0000
0011
0000
0000
1100
0000
0000
0001
1000
,
0002
0203
0320
2030
3001
0100
1000
0000
,
2200
0000
3300
0000
1000
0100
0001
0010
,
0100
0000
1000
0001
0100
0000
0010
0000
1000
0000
0100
0000
0001
0000
0000
0000
,
0202
0000
0000
0000
0303
0000
0000
0000
0001
0000
0100
0000
1000
0100
0010
0000
,
0001
0000
0100
0010
0100
0000
0001
0000
1000
0000
0010
0000
0001
0000
0000
0000
,
0022
0000
0033
0000
0001
0010
1000
0100
,
0010
0000
0001
1000
0010
0000
0100
0000
0001
0000
0010
0000
1000
0000
0000
0000
,
2020
0000
3030
0000
1000
0010
0001
0100
,
0010
0000
1000
0100
0010
0000
0001
0000
0011
0000
0000
0000
0101
0000
0000
0000
,
1100
0000
0000
0000
1010
0000
0000
0000
1000
0100
0010
0000
0001
0100
0010
0000
,
1000
0100
0010
0000
0001
0100
0010
0000
1010
0000
0000
0000
1100
0000
0000
0000
,
0101
0000
0000
0000
0011
0000
0000
0000
0001
0010
0100
0000
1000
0010
0100
0000
,
0001
0010
0100
0000
1000
0010
0100
0000
0001
0000
0001
0000
0010
0000
0010
0000
,
1000
1000
0001
0001
0100
0100
1000
1000
,
0010
0010
0001
0001
1000
0100
0001
0010
,
0100
1000
0010
0100
0001
0010
0001
1000
0000
0000
0000
0000
0000
0000
0000
0000
,
1000
0100
0010
0100
0000
0001
0100
0000
1000
0100
0010
0001
0000
0100
0010
0000
,
1000
0100
0010
0100
0000
0001
0100
1000
0100
0000
0010
0000
2002
0000
3003
0000
,
0001
0100
0010
0100
0000
1000
0100
0000
0001
0100
0010
1000
0000
0100
0010
0000
,
0001
0100
0010
0100
0000
1000
0100
0001
0100
0000
0010
0000
1000
0100
0010
0001
,
1000
0010
0100
0010
0000
0001
0010
0000
1000
0010
0100
0001
0000
0010
0100
0000
,
1000
0010
0100
0010
0000
0001
0010
1000
0010
0000
0100
0000
2002
0000
3003
0000
,
0001
0010
0100
0010
0000
1000
0010
0000
0001
0010
0100
1000
0000
0010
0100
0010
,
2000
0000
0000
0000
3001
0010
0001
0010
0100
0000
1000
0010
0100
0000
0000
0000
,
0101
0000
0011
0000
1100
0000
1010
0000
0101
0000
1010
0000
,
1001
0000
0011
0000
1100
0000
0220
0000
0000
0330
0000
0000
,
1100
0000
1010
0000
0110
0000
0011
0000
0110
0000
1010
0000
,
1100
0000
0000
0000
0101
0000
0000
0000
1100
0000
0000
0000
0220
0000
0000
0330
0000
0000
0001
0000
0100
0000
0001
0000
,
0101
0000
0100
0010
1000
0100
1100
0000
1000
0010
0100
0001
,
0101
0000
0100
0010
1000
0100
2002
0000
0000
3003
0000
0000
,
1000
0001
0010
1000
0010
0001
1000
0010
0001
0010
1000
0001
,
0010
0100
1000
0010
0100
0001
0110
0000
0000
0000
0000
0000
,
2002
0000
3003
0000
;
