#TITLE:Galway Girl;
#SUBTITLE:;
#ARTIST:Ed Sheeran;
#TITLETRANSLIT:;
#SUBTITLETRANSLIT:;
#ARTISTTRANSLIT:;
#GENRE:;
#CREDIT:;
#BANNER:Galway Girl.png;
#BACKGROUND:Galway Girl-bg.png;
#LYRICSPATH:Galway Girl.lrc;
#CDTITLE:;
#MUSIC:Galway Girl.ogg;
#OFFSET:2.112001;
#SAMPLESTART:38.640190;
#SAMPLELENGTH:12.000000;
#LASTBEATHINT:1.838335;
#SELECTABLE:YES;
#BPMS:0.000000=100.000000
;
#STOPS:66.000000=0.600000,
145.000000=0.600000
;
#BGCHANGES:3.500=Galway Girl.mp4=1.000=0=0=1=====,
99999=-nosongbg-=1.000=0=0=0 // don't automatically add -songbackground-
;
#KEYSOUNDS:;
#ATTACKS:;

//---------------dance-single - ----------------
#NOTES:
     dance-single:
     :
     Challenge:
     15:
     0.696067,0.755064,0.260875,0.370274,0.984592,579.000000,548.000000,31.000000,44.000000,0.000000,0.000000,0.696067,0.755064,0.260875,0.370274,0.984592,579.000000,548.000000,31.000000,44.000000,0.000000,0.000000:
// measure 0
0000
0000
0000
0000
,  // measure 1
0000
0000
0000
0000
,  // measure 2
0000
0000
0000
0000
,  // measure 3
0000
0000
0000
0000
,  // measure 4
0000
0000
0000
0000
,  // measure 5
0001
0000
1000
0010
0100
0010
1000
0000
0001
0010
0100
0000
1100
0000
0000
0000
,  // measure 6
1000
0000
0001
0100
0010
0100
0001
0000
1000
0100
0010
0000
0011
0000
1000
0001
,  // measure 7
1000
0000
0001
0100
0010
1000
0001
0000
1000
0100
0010
0001
0100
0000
0010
0100
,  // measure 8
0010
0000
1000
0100
0000
0100
0000
1000
0010
0100
0001
0000
1001
0000
0000
0000
,  // measure 9
2000
0000
0000
0000
3001
0000
3100
0010
0100
0000
0001
0000
0010
0000
0000
0000
0001
0000
1000
0000
0100
0000
0000
0000
1100
0000
0000
0000
0001
0000
1000
0000
,  // measure 10
0002
0000
0000
0000
1003
0000
0013
0100
0010
0000
1000
0000
0100
0000
0000
0000
1000
0000
0001
0000
0010
0000
0000
0000
0011
0000
0000
0000
1000
0000
0001
0000
,  // measure 11
0200
0000
0000
0000
0310
0000
1000
0001
1000
0000
0100
0000
0010
0000
0000
0000
0001
0000
1000
0000
0010
0000
0000
0000
1010
0000
0000
0000
1000
0000
0001
0000
,  // measure 12
0010
0100
0010
0100
1000
1000
0001
0100
0010
0100
0010
1000
0001
0010
0100
1000
,  // measure 13
0010
0000
1010
0000
1000
0001
0100
0001
0010
0000
0011
0000
1001
0000
1000
0001
,  // measure 14
0020
0000
1000
0000
0031
0000
0001
1000
0020
0000
0001
0000
1030
0000
1000
0001
,  // measure 15
0010
0100
0010
0100
0001
0100
0001
0100
1000
0010
0100
0001
1000
0000
0001
1000
,  // measure 16
0010
0001
0010
0100
0001
0010
0100
1000
0001
0000
0000
0000
2010
0000
3001
0010
,  // measure 17
0200
0000
0000
0000
0320
0000
0000
0000
1000
0000
0000
0000
3031
0000
0100
0000
0001
0000
1000
0100
1000
0000
0001
0000
0100
0000
0010
0000
1000
0000
1000
0000
,  // measure 18
0001
0000
1100
0000
0000
0000
0110
0000
0000
0000
0011
0000
1000
0000
0001
0000
0200
0000
0000
0000
0310
0000
1000
0000
0001
0000
0010
0100
0013
0000
0001
0000
,  // measure 19
1000
0001
0100
1000
0100
0001
0020
0000
0031
0100
0010
1000
0100
1000
0001
0001
,  // measure 20
1000
0011
0000
1100
0000
1001
0000
1000
0010
0100
0001
1000
0002
0000
1003
0100
,  // measure 21
0020
0000
0000
0000
0230
0000
0000
0000
0001
0000
0000
0000
1303
0000
0010
0000
1000
0000
0001
0010
0001
0000
1000
0000
0010
0000
0100
0000
0001
0000
0001
0000
,  // measure 22
1000
0000
0011
0000
0000
0000
0110
0000
0000
0000
1100
0000
0001
0000
1000
0000
0020
0000
0000
0000
0130
0000
0001
0000
1000
0000
0100
0010
3100
0000
1000
0000
,  // measure 23
0001
1000
0010
0001
0010
1000
0200
0000
1300
0010
0100
0001
0010
0001
1000
0020
,  // measure 24
0000
0000
0130
0001
0100
0000
0010
0000
1000
0000
0001
0000
0010
0000
0000
0000
0011
0000
0000
0000
0000
0000
0000
0000
1000
0000
0000
0000
0001
0000
0100
0000
,  // measure 25
0010
0100
0001
0000
1000
0100
0010
0000
2200
0000
3303
0000
0001
0000
1000
0010
,  // measure 26
0100
0010
1000
0000
0001
0010
0100
0000
0022
0000
3033
0000
1000
0000
0001
0100
,  // measure 27
0010
1000
0100
0000
1000
0010
0100
0000
0110
0000
0001
1000
0002
0000
0000
0000
,  // measure 28
0000
0000
0000
0000
0000
0000
0000
0000
0013
0000
0000
0000
0001
0000
1000
0100
,  // measure 29
1000
0000
0001
0000
1000
0010
0100
0001
0010
0000
0001
0000
1000
0010
1000
0010
,  // measure 30
0001
0010
0001
0010
1000
0100
0010
0001
0100
0000
0000
0000
0001
0100
0001
0100
,  // measure 31
0010
1000
0010
1000
0100
0010
0001
1000
0010
0000
0100
0001
2000
0000
0000
0000
,  // measure 32
0000
0010
0000
0000
3001
0000
1000
0100
,  // measure 33
0010
0001
0010
0000
0002
0000
0203
0000
0310
0000
1000
0001
2000
0000
3020
0000
,  // measure 34
0032
0000
1003
0001
0020
0000
2030
0000
3001
0000
0000
0001
1000
0000
0100
0000
,  // measure 35
1000
0001
1000
0000
0001
0100
0010
0100
0001
0000
1000
0000
1100
0000
0011
0000
,  // measure 36
0101
0000
1010
0000
1001
0000
0000
0000
0201
0000
1300
0100
0001
0010
0200
0000
,  // measure 37
0301
0000
0000
0000
0100
0000
0010
0000
0100
0000
1000
0001
1000
0000
0010
0000
0100
0000
0001
0000
0010
0000
0010
0000
1000
0000
0010
0000
0100
0000
0010
0000
,  // measure 38
0001
0000
0100
0010
0100
0000
0001
0000
2000
0000
0000
0000
3103
0000
1000
0000
1200
0000
0000
0000
0301
0000
0100
0000
1000
0000
0010
0000
0100
0000
0001
0000
,  // measure 39
0010
0000
0100
0000
1000
0000
0000
0000
0010
0000
0100
0000
0110
0000
0000
0000
0001
0000
1000
0000
0001
0000
0010
0000
0100
0000
1000
0001
1003
0000
0010
0000
,  // measure 40
0200
0000
0000
0000
0301
0000
1000
0000
0001
0000
0100
0000
0010
0000
1000
0000
0200
0000
0000
0000
1300
0000
0001
0100
0001
0000
1000
0000
0020
0000
0000
0000
,  // measure 41
0130
0000
0001
0000
1000
0000
0001
0000
0010
0000
0100
1000
0100
0000
1000
0000
0001
0000
0100
0000
1000
0000
0100
0000
0020
0000
0000
0000
1330
0000
0001
0100
,  // measure 42
0001
0000
1000
0000
0100
0000
0010
0000
0002
0000
0000
0000
1003
0000
0010
0000
0100
0000
0001
1000
0001
0000
0010
0000
0100
1000
0100
0000
1000
0000
0001
0000
,  // measure 43
0100
0000
0010
0000
1000
0000
0000
0000
0001
0000
0010
0100
0010
0000
0001
0000
1000
0000
0010
0100
0010
0000
1000
0000
0001
0000
1000
0010
1000
0000
0001
0000
,  // measure 44
0200
0000
0000
0000
0310
0000
0000
0000
1000
0000
0100
0000
0010
0000
0001
0000
0200
0000
0000
0000
0331
0000
1000
0100
0010
0000
0001
0000
0200
0000
0000
0000
,  // measure 45
0310
0000
1000
0000
0001
0000
1000
0000
0100
0000
0010
0001
0010
0000
0001
0000
1000
0000
0010
0000
0001
0000
0010
0000
0200
0000
0000
0000
0331
0000
1000
0010
,  // measure 46
0100
0000
0001
0000
0010
0000
0100
0000
2000
0000
0000
0000
3001
0000
0100
0000
0010
0000
1000
0001
1000
0000
0100
0000
0010
0001
0100
0000
0001
0000
1000
0000
,  // measure 47
0010
0000
0100
0000
0001
0000
0000
0000
1000
0000
0100
0010
0001
0000
1000
0000
0001
0000
0100
0010
1000
0000
0001
0000
0010
0000
0001
0100
0010
0003
1000
0000
,  // measure 48
0200
0000
0300
0000
;

//---------------dance-single - ----------------
#NOTES:
     dance-single:
     :
     Hard:
     12:
     0.519345,0.571400,0.227213,0.479673,0.525957,432.000000,405.000000,27.000000,57.000000,0.000000,0.000000,0.519345,0.571400,0.227213,0.479673,0.525957,432.000000,405.000000,27.000000,57.000000,0.000000,0.000000:
0000
0000
0000
0000
,
0000
0000
0000
0000
,
0000
0000
0000
0000
,
0000
0000
0000
0000
,
0000
0000
0000
0000
,
1000
0000
0010
0000
0100
0000
0001
0000
1000
0100
1000
0100
0010
0000
0000
0000
,
0001
0000
0100
0000
0010
0000
1000
0000
0001
0010
0001
0010
0100
0000
0000
0000
,
1000
0100
1000
0000
0001
0000
0100
0010
0100
0000
0001
0000
0010
0000
0000
0000
,
0001
0000
1000
0010
0000
0010
0000
0100
0001
0000
1000
0000
1001
0000
0000
0000
,
2200
0000
3300
0001
0100
0010
1000
0000
0000
1000
0100
0000
1100
0000
0000
0000
,
0022
0000
0033
1000
0010
0100
0001
0000
0000
0001
0010
0000
0011
0000
0000
0000
,
0202
0000
0303
1000
0100
0010
0001
0000
0000
0001
0100
0000
0101
0000
1000
0001
,
1000
0000
0001
0100
0000
0100
0000
0010
1000
0000
0001
0010
0100
0000
1000
0001
,
2000
0000
3020
0000
0130
0001
0100
0001
1000
0000
0100
0000
0010
0000
0001
0100
,
0010
0000
0010
0000
0010
0000
1000
0100
0010
0000
0010
0000
0010
0000
0000
0000
,
0001
0100
0001
0000
1000
0100
1000
0000
0001
0000
0100
0000
0010
0000
1000
0100
,
0000
1000
0001
1000
0000
0001
0100
0010
1000
0000
0000
0000
0102
0000
1003
0000
,
2100
0000
3001
0000
1002
0000
0103
0010
0100
0001
0100
0000
0010
0000
1000
0200
,
0000
0302
0000
0203
0000
2300
0000
3010
0200
0030
0301
0000
0012
0000
1033
0000
,
2100
0000
3001
0000
2001
0000
3010
0100
0010
1000
0010
0000
0100
0000
0001
0020
,
0000
2030
0000
3020
0000
0032
0000
0103
0020
0300
1030
0000
2100
0000
3100
0010
,
0002
0000
1003
0000
1001
0000
0001
0100
0010
0100
0001
0000
1000
0000
0001
0010
,
0000
0011
0000
1000
0000
1010
0000
0001
0200
0000
0310
1000
0002
0000
0013
0100
,
2000
0000
3001
0000
1001
0000
1000
0010
0100
0010
1000
0000
0001
0000
1000
0100
,
0010
0000
0001
0100
0000
0100
0010
0000
0110
0000
0000
0000
2000
0000
0001
0000
,
3100
0000
1000
0000
0001
1000
0001
0000
0010
0000
0000
0000
0002
0000
1000
0000
,
0103
0000
0001
0000
1000
0001
1000
0000
0100
0000
0000
0000
1000
0000
0100
0000
,
0010
0100
0010
0000
0001
0100
0010
0000
1000
0000
0000
0000
0002
0000
0000
0000
,
0000
0000
0000
0000
0013
0000
1001
1000
,
0010
0000
0100
0010
0100
0000
0001
0000
1000
0000
0000
0000
0001
0010
0001
0000
,
1000
0100
1000
0000
0001
1000
0001
1000
0001
0000
0000
0000
1000
0000
0010
0000
,
0001
0000
0010
0000
1000
0000
0100
0000
0010
0000
0001
1000
0002
0000
0000
0000
,
0000
0100
0000
0000
1003
0000
0001
0100
,
0010
0000
1000
0100
0010
0000
0001
0001
,
0001
0000
1000
1000
1000
0000
0001
0100
,
0010
1000
0100
0010
0001
1000
0010
0010
,
0100
0100
1001
0000
1020
0130
0210
0301
,
2001
0000
3001
0010
0100
1000
0010
0100
0010
0000
1000
0200
0000
0302
0000
0203
,
0000
2300
0000
3010
0100
0000
0001
0000
0021
0000
0130
0000
0210
0000
1300
0000
,
1002
0000
0103
0000
0001
0010
0200
0000
1300
0000
0001
0100
0010
0000
1000
0100
,
0010
0000
0001
0000
1000
0001
1000
0001
0200
0000
0010
0000
0301
0010
0200
0000
,
0000
0000
1300
0001
1000
0100
0010
0000
0002
0000
0103
0010
2000
0000
3010
0100
,
0001
0100
0010
1000
0001
0000
1000
0100
0020
0000
0031
1000
0001
0100
0010
1000
,
0100
0010
0002
0000
1003
0010
1000
0010
1000
0000
0001
0010
0100
0000
1000
0010
,
0000
0010
0100
0000
0001
1000
0001
1000
0020
0000
0100
0000
1030
0100
0020
0000
,
0000
0000
0031
1000
0001
0010
0100
0000
2000
0000
3010
0100
0002
0000
0103
0010
,
1000
0010
0100
0001
1000
0000
0001
0010
0200
0000
1300
0001
1000
0010
0100
0001
,
0010
0100
2000
0000
3001
0100
0001
0100
0001
0000
1000
0100
0000
1000
0010
0100
,
0002
0000
0003
0000
;

//---------------dance-single - ----------------
#NOTES:
     dance-single:
     :
     Medium:
     9:
     0.339017,0.346921,0.109399,0.218798,0.155683,282.000000,269.000000,13.000000,26.000000,0.000000,0.000000,0.339017,0.346921,0.109399,0.218798,0.155683,282.000000,269.000000,13.000000,26.000000,0.000000,0.000000:
0000
0000
0000
0000
,
0000
0000
0000
0000
,
0000
0000
0000
0000
,
0000
0000
0000
0000
,
0000
0000
0000
0000
,
1000
0100
0010
0000
0001
0100
0010
0000
,
1000
0010
0100
0001
0010
0100
1000
0000
,
0001
0100
0010
0000
1000
0100
0010
0000
,
0001
0000
0000
1000
0000
0000
0010
0000
0000
0000
0100
0000
0100
0000
0000
0000
,
0102
0000
0000
0000
1003
0100
1000
0000
0000
0000
0001
0000
1000
0000
0000
0000
,
2100
0000
0000
0000
3001
0100
0001
0000
0000
0000
1000
0000
0001
0000
0000
0000
,
0012
0000
0000
0000
1003
0010
1000
0000
0000
0000
0001
0000
1000
0000
0000
0000
,
2100
0000
3001
0100
0010
1000
0001
0000
,
0101
0000
0100
0000
0010
1000
0010
0000
1000
0000
0001
0000
0010
0000
0000
0000
,
0100
0100
0100
0000
0010
0010
0010
0000
,
0001
0000
1000
0000
0010
0000
0100
0000
0001
1000
0001
0000
1000
0000
0000
0000
,
0001
0010
0100
1000
0010
0000
2010
0000
,
3002
0000
0000
0000
0013
0000
0100
0000
1000
0000
0000
0000
0001
0000
0100
0010
,
0000
0100
0000
0010
0000
0100
0000
0001
0000
1000
0000
0000
0002
0000
0000
0000
,
0023
0000
0000
0000
0130
0000
1000
0000
0001
0000
0000
0000
1000
0000
0010
0100
,
0000
0010
0000
0100
0000
0010
0000
1000
0000
0001
0000
0000
1002
0000
0000
0000
,
0203
0000
0000
0000
0310
0000
1000
0000
0001
0000
0000
0000
1000
0000
0001
0010
,
0000
0100
0000
0010
0000
0100
0000
1000
0000
0001
0000
0000
2001
0000
0000
0000
,
3020
0000
0000
0000
0130
0000
0001
0000
1000
0000
0000
0000
0001
0000
1000
0100
,
0000
0010
0001
0000
0100
0000
0010
0000
1000
0000
0000
0000
0002
0000
0000
0000
,
0103
0010
0100
0000
0001
0000
2000
0000
,
3100
0010
0100
0000
1000
0000
0001
0010
,
0100
0000
1000
0010
0100
0000
0020
0000
,
0000
0000
0000
0000
0130
0000
0001
0100
,
0001
0000
1000
0100
1000
0000
0001
0010
,
0100
1000
0010
0100
0001
0000
1000
0010
,
1000
0000
0001
0010
0001
0000
2000
0000
,
0000
0010
0000
0000
3001
0000
1000
0100
,
0010
0000
0001
1000
0001
0000
0100
0100
,
0100
0000
0010
0010
0010
0000
1000
0010
,
0100
0001
0010
0100
1000
0000
0100
0100
,
0010
0010
1001
0000
0201
0000
0310
1000
,
0200
0000
0000
0000
0310
0000
0001
0000
1000
0000
0001
0100
0000
0010
0000
0100
,
0000
0010
0000
1000
0000
0001
0000
0000
2100
0000
0000
0000
3100
0000
0010
0000
,
0002
0000
0000
0003
0100
0000
0110
0000
0000
0000
0000
0000
0001
0000
0100
0000
,
0010
1000
0001
0000
2000
0000
3100
0020
,
0000
0000
0031
0000
1000
0000
0010
0100
0010
0000
0000
0000
0100
0000
0001
0000
,
1000
0001
0010
0000
0001
0001
1000
1000
,
0001
0000
0100
0000
0010
0000
0000
0000
1000
0000
0100
0000
0010
0000
0001
1000
,
0002
0000
0103
0000
1002
0000
0013
0200
,
0000
0000
1300
0000
0001
0000
0100
0010
0100
0000
0000
0000
0010
0000
1000
0000
,
0001
1000
0100
0000
1000
1000
0001
0001
,
1000
0000
0010
0000
0100
0000
0000
0000
0001
0000
0010
0000
0100
0000
1000
0001
,
2000
0000
3000
0000
;

//---------------dance-single - ----------------
#NOTES:
     dance-single:
     :
     Easy:
     6:
     0.242842,0.285700,0.168306,0.302951,0.000000,202.000000,182.000000,20.000000,36.000000,0.000000,0.000000,0.242842,0.285700,0.168306,0.302951,0.000000,202.000000,182.000000,20.000000,36.000000,0.000000,0.000000:
0000
0000
0000
0000
,
0000
0000
0000
0000
,
0000
0000
0000
0000
,
0000
0000
0000
0000
,
0000
0000
0000
0000
,
0001
0000
0100
0000
0010
0010
0010
0000
,
1000
0000
0100
0000
0010
0010
0010
0000
,
0001
0100
0001
0000
1000
0100
1000
0000
,
0010
0000
0000
0000
,
2000
0000
3010
0010
0000
1000
0001
0000
,
0002
0000
0013
0010
0000
0001
1000
0000
,
2000
0000
3100
0100
0000
1000
0001
0000
,
2002
0000
3003
0000
0001
0100
0010
0000
,
1000
0010
1000
0000
0001
0000
0001
0000
,
0010
0010
0010
0000
0100
0100
0100
0000
,
1000
0000
0001
0000
0100
0010
0100
0000
,
0001
0010
0100
0000
1000
0000
1001
0000
,
1001
0000
2002
0000
3003
0000
0001
0100
,
0010
0000
1000
0100
0010
0000
1001
3000
,
1001
0000
2002
0000
3003
0000
1000
0100
,
0010
0000
0001
0100
0010
0000
1001
0000
,
0110
0000
2002
0000
3003
0000
0001
0010
,
0100
0000
1000
0001
1000
0000
1001
0003
,
0110
0000
2002
0000
3003
0000
1000
0100
,
0010
0002
0003
1000
,
1000
0010
0000
0010
,
0010
0100
0000
0100
,
0100
0001
1000
0200
,
0000
0000
0300
1000
,
0100
0000
0010
0000
0001
0000
1000
0010
,
1000
0000
0001
0100
0001
0000
1000
0000
,
1000
0001
0010
0100
,
0000
0100
0000
0000
0000
0000
2000
0000
,
3000
0100
0010
0002
,
0003
0100
0010
2000
,
3000
0000
0010
0000
0100
0000
0001
1000
,
0001
1000
0001
0000
1001
0000
0110
0000
,
2002
0000
3003
0000
1000
0100
0010
0000
,
0001
0100
0010
0000
1001
0000
0110
0000
,
2002
0000
3003
0000
0001
0010
0100
0000
,
2000
0000
3000
0000
0002
0000
0003
0200
,
0000
0300
0010
0000
2000
0000
3200
0000
,
0320
0000
0031
0000
1000
0100
1000
0000
,
0001
0100
0001
0000
1000
0000
1000
0001
,
0200
0000
0310
0000
2002
0000
0003
3020
,
0000
0030
0100
0000
0002
0000
0023
0000
,
0230
0000
1300
0000
0001
0010
0001
0000
,
1000
0010
1000
0000
0001
0000
0001
1000
,
0020
0000
0030
0000
;

//---------------dance-single - ----------------
#NOTES:
     dance-single:
     :
     Beginner:
     2:
     0.117814,0.142850,0.033661,0.092568,0.000000,98.000000,94.000000,4.000000,11.000000,0.000000,0.000000,0.117814,0.142850,0.033661,0.092568,0.000000,98.000000,94.000000,4.000000,11.000000,0.000000,0.000000:
0000
0000
0000
0000
,
0000
0000
0000
0000
,
0000
0000
0000
0000
,
0000
0000
0000
0000
,
0000
0000
0000
0000
,
1000
0000
1000
0000
,
0001
0000
0000
0000
,
0001
0000
0001
0000
,
0100
0000
0000
0000
,
0020
0030
0000
0010
,
2000
3000
0000
1000
,
0200
0300
0000
0100
,
0020
0030
0001
0000
,
1000
1000
1000
0000
,
0010
0010
0010
0000
,
0100
0100
0100
0000
,
0001
0001
0001
0000
,
0000
1000
0000
0000
,
0100
0100
0000
0010
,
0010
0010
0000
0001
,
0000
0001
0000
0100
,
0100
0100
0000
0010
,
0000
0010
0000
1000
,
1000
1000
0000
0100
,
0000
0100
0000
0020
,
0000
0030
0000
0002
,
0000
0003
0000
0200
,
0000
0300
0000
2002
,
0000
3003
0000
1000
,
1000
0100
0000
0010
,
0010
0001
0000
1000
,
0000
1000
0000
0010
,
0000
0000
0000
0000
,
1000
0000
1000
0000
,
0001
0000
0001
0000
,
0010
0000
0010
0100
,
0100
0100
0000
0000
,
1001
0000
0000
1000
,
1000
0000
0010
0010
,
0010
0000
0100
0000
,
0100
0000
0001
0001
,
0000
0010
0010
0000
,
0010
0000
0100
0100
,
0000
0100
0100
0000
,
1000
0000
1001
0000
,
1000
0000
0010
0010
,
0010
0000
0100
0100
,
0000
0100
0100
0000
,
2002
0000
3003
0000
;

//---------------dance-double - ----------------
#NOTES:
     dance-double:
     :
     Challenge:
     15:
     0.686449,0.734657,0.286121,0.395520,0.984592,571.000000,537.000000,34.000000,47.000000,0.000000,0.000000,0.686449,0.734657,0.286121,0.395520,0.984592,571.000000,537.000000,34.000000,47.000000,0.000000,0.000000:
00000000
00000000
00000000
00000000
,
00000000
00000000
00000000
00000000
,
00000000
00000000
00000000
00000000
,
00000000
00000000
00000000
00000000
,
00000000
00000000
00000000
00000000
,
00011000
00000000
00001000
00100000
00010000
00100000
00001000
00000000
01000000
00001000
00020000
00000000
00030010
00000000
00000000
00000000
,
00010000
00000000
00010000
00000100
00001000
00000100
00010000
00000000
00000010
00010000
00002000
00000000
01003000
00000000
00001000
00010000
,
00001000
00000000
00100000
00010000
10000000
00010000
00100000
00000000
00010000
01000000
00001000
00000000
01001000
00000000
00001000
00010000
,
00000100
00000000
00001000
00000010
00000000
00000010
00000000
00000100
00000001
00000010
00000100
00000000
00001100
00000000
00000000
00000000
,
00001002
00000000
00000000
00000000
00000103
00000000
00000013
00001000
00000010
00000000
00001000
00000000
00000100
00000000
00000000
00000000
00001000
00000000
00000100
00000000
00010000
00000000
00000000
00000000
00011000
00000000
00000000
00000000
00001000
00000000
00000000
00000000
,
00200000
00000000
00000000
00000000
00310000
00000000
10000000
00100000
10000000
00000000
00010000
00000000
01000000
00000000
00000000
00000000
00010000
00000000
01000000
00000000
00100000
00000000
10000000
00000000
01000000
00000000
00000000
00000000
00100000
00000000
00000000
00000000
,
00002000
00000000
00000000
00000000
00013000
00000000
00000010
00001000
00000010
00000000
00000100
00000000
00000001
00000000
00000000
00000000
00001000
00000000
00000100
00000000
00000010
00000000
00000000
00000000
00000011
00000000
00000000
00000000
00001000
00000000
00000001
00000000
,
00000100
00000010
00000100
00000010
00001000
00000000
00000100
00010000
00000100
00010000
00001000
01000000
00100000
10000000
01000000
00100000
,
00010000
00000000
00110000
00000000
10000000
00010000
01000000
00100000
10000000
00000000
10100000
00000000
01010000
00000000
10000000
01000000
,
00020000
00000000
00032000
00000000
00003020
00000300
00000031
00000100
00002000
00000000
00023000
00000000
00230000
00000000
10300000
00010000
,
00100000
01000000
00100000
01000000
00010000
01000000
00010000
01000000
10000000
00100000
01000000
00010000
00200000
00000000
00301000
00010000
,
00000010
00000100
00000010
00000100
00001000
00000100
00000001
00000010
00000100
00000000
00000000
00000000
00020100
00000000
00031000
00000100
,
00000010
00000000
00001000
00000000
00000200
00000000
00000000
00000000
00000010
00000000
00000000
00000000
00010300
00000000
00001000
00100000
00001000
00000000
01000000
00000000
00100000
00000000
10000000
00000000
00010000
00000000
00000000
00000000
10000000
00000000
10100000
00000000
,
00000000
00000000
10010000
00000000
00000000
00000000
01010000
00000000
00000000
00000000
01001000
00000000
00000000
00000000
00001000
00000000
00200000
00000000
00000000
00000000
00301000
00000000
00010000
00000000
00000010
00000000
00001000
00000001
00001000
00000000
00000001
00000000
,
00000010
00001000
00000010
00000001
00000100
00000010
00002000
00000000
00003001
00000010
00000100
00010000
00000020
00000000
00001030
00001100
,
00000000
00000110
00000000
00000011
00000000
00001001
00000000
00001000
00000001
00000100
00000010
00010000
00002000
00000000
00013000
00100000
,
01000000
00000000
00010000
00000000
00200000
00000000
00000000
00000000
01000000
00000000
00000000
00000000
00301000
00000000
00010000
00000100
00010000
00000000
00000010
00000000
00000100
00000000
00000001
00000000
00001000
00000000
00000000
00000000
00000001
00000000
00000101
00000000
,
00000000
00000000
00001001
00000000
00000000
00000000
00001010
00000000
00000000
00000000
00010010
00000000
00000000
00000000
00010000
00000000
00000200
00000000
00000000
00000000
00010300
00000000
00001000
00000000
01000000
00000000
00010000
10000000
00010000
00000000
10000000
00000000
,
01000000
00000000
00010000
00000000
01000000
00000000
10000000
00000000
00100000
00000000
01000000
00000000
00020000
00000000
00000000
00000000
10030000
00000000
01000000
00000000
00100000
00000000
00001000
00000000
01000000
00000000
00100000
10000000
00100000
00000000
02000000
00000000
,
00000000
03010000
00100000
00001000
00000020
00000000
00001000
00000000
00000031
00000000
00000000
00000000
00001001
00000000
00000001
00000100
,
00000010
00000100
00000002
00000000
00000013
00001000
00010000
00000000
00011000
00000000
00000000
00000000
00101000
00000000
00100000
00010000
,
01000000
00010000
00200000
00000000
00301000
00010000
00100000
00000000
10100000
00000000
00000000
00000000
10010000
00000000
10000000
00100000
,
01000000
00100000
20000000
00000000
31000000
00010000
00001000
00000000
00011000
00000000
00010000
00000010
00000200
00000000
00000000
00000000
,
00000000
00000000
00000000
00000000
00000000
00000000
00000000
00000000
00000310
00000000
00000000
00000000
00001000
00000000
00000001
00000010
,
00000100
00000000
00001000
00000000
00000010
00010000
00000010
00010000
00001000
00000000
00100000
00000000
00010000
01000000
00100000
01000000
,
10000000
01000000
00100000
01000000
00010000
00100000
00001000
00010000
00000010
00000000
00001000
00000000
00000001
00000010
00000001
00000010
,
00001000
00000010
00001000
00000010
00000001
00000100
00000010
00001000
00000100
00000000
00010000
00001000
00020000
00000000
00000000
00000000
,
00000000
01000000
00000000
00000000
00031000
00000000
00100000
00010000
,
10000000
00100000
10000000
00100000
01000000
00000000
00001000
00000000
00010000
00000000
00000000
00000000
00002000
00000000
00100000
00000000
,
01000000
00000000
00013000
00001000
00020000
00000000
00000010
00000000
00030100
00000000
00000000
00000000
00010000
00001000
00010000
00000000
,
00000010
00001000
00000010
00000000
00001000
00000100
00000010
00000001
00001000
00000000
00000010
00000000
00001010
00000000
00010010
00000000
,
00011000
00000000
00101000
00000000
00110000
00000000
00000000
00000000
20010000
00000000
30100000
01000000
10000000
01000000
00200000
00000000
,
10300000
00000000
00000000
00000000
00010000
00000000
00100000
01000000
00100000
00000000
00010000
00000000
01000000
00000000
00001000
00000000
00010000
00000000
00000010
00000000
00000100
00000000
00000100
00000000
00001000
00000000
00000100
00000000
00000010
00000000
00001000
00000001
,
00001000
00000000
00000100
00000000
00000010
00000000
00000001
00000000
00000200
00000000
00003000
00000000
00000310
00000000
00001000
00000000
00000100
00000000
00010000
00001000
00010000
00000000
00001000
00000000
01000000
00000000
00100000
00000000
10000000
00000000
01000000
00000000
,
00010000
00000000
01000000
00000000
10000000
00000000
00000000
00000000
00010000
00000000
01000000
00000000
00100000
00000000
10000000
00000000
01000000
00000000
10000000
00010000
10000000
00000000
00200000
00000000
00000000
00000000
00310000
00000000
00001000
00000000
00000100
00000000
,
00000010
00000000
00001000
00000000
00000001
00000000
00000000
00000000
00001000
00000000
00000100
00000000
00000010
00000000
00000001
00000000
00000200
00000000
00000000
00000000
00000310
00000000
00001000
00000001
00001000
00000000
00000100
00000000
00020000
00000000
00000000
00000000
,
01030000
00000000
00000000
00000000
00010000
00000000
00001000
00000000
01000000
00000000
00100000
01000000
00100000
00000000
10000000
00000000
00010000
00000000
10000000
01000000
10000000
00000000
00100000
00000000
00020000
00000000
00000000
00000000
00031000
00000000
00100000
00000000
,
01000000
00000000
00100000
00001000
00100000
00000000
00001000
00000000
00020000
00000000
00000000
00000000
00030010
00000000
00000100
00000000
00001000
00000000
00000100
00000010
00000100
00000000
00000001
00000000
00000010
00000100
00000010
00000000
00000001
00000000
00001000
00000000
,
00000010
00000000
00010000
00000000
00002000
00000000
00000000
00000000
00103000
00000000
00010000
01000000
00010000
00000000
10000000
00000000
00100000
00000000
01000000
00010000
01030000
00000000
00100000
00000000
10000000
00000000
01300000
00000000
00100000
00000000
00001000
00000000
,
00020000
00000000
00000000
00000000
00000000
00000000
00000000
00000000
00031000
00000000
00010000
00000000
00100000
00000000
10000000
00000000
02000000
00000000
00000000
00000000
03100000
00000000
00010000
10000000
00100000
00000000
01000000
00000000
00002000
00000000
00000000
00000000
,
00003100
00000000
00000000
00000000
00001000
00000000
00010000
00000000
00000100
00000000
00001000
00000010
00001000
00000000
00000001
00000000
00001000
00000000
00000001
00000010
00000100
00000000
00001000
00000000
00000020
00000000
00000000
00000000
00013030
00000000
00000100
00000000
,
00001000
00000000
00000010
00010000
00000010
00000000
00010000
00000000
00002000
00000000
00000000
00000000
00103000
00000000
00010000
00000000
10000000
00000000
00010000
01000000
00100000
00000000
10000000
00000000
01000000
00100000
01000000
00000000
10000000
00000000
00010000
00000000
,
01000000
00000000
00001000
00000000
00020000
00000000
00000000
00000000
00030010
00000000
00001000
00000100
00000010
00000000
00000001
00000000
00001000
00000000
00000010
00000100
00000001
00000300
00002000
00000000
00000000
00000000
00003031
00000010
00000100
00000000
00001000
00000000
,
00200000
00030000
00000000
00000000
00000000
00000000
00000000
00000000
00300030
00000000
00000000
00000000
00000000
00000000
00000000
00000000
;

//---------------dance-double - ----------------
#NOTES:
     dance-double:
     :
     Hard:
     12:
     0.508525,0.510178,0.244044,0.513334,0.483880,423.000000,394.000000,29.000000,61.000000,0.000000,0.000000,0.508525,0.510178,0.244044,0.513334,0.483880,423.000000,394.000000,29.000000,61.000000,0.000000,0.000000:
00000000
00000000
00000000
00000000
,
00000000
00000000
00000000
00000000
,
00000000
00000000
00000000
00000000
,
00000000
00000000
00000000
00000000
,
00000000
00000000
00000000
00000000
,
00010000
00000000
00001000
00000000
00100000
00000000
00010000
00000000
10000000
00100000
10000000
00100000
01000000
00000000
00000000
00000000
,
00010000
00000000
01000000
00000000
00001000
00000000
00010000
00000000
00000100
00001000
00000100
00001000
00000010
00000000
00000000
00000000
,
00001000
00000001
00001000
00000000
00000001
00000000
00000100
00000010
00000100
00000000
00000010
00000000
00001000
00000000
00000000
00000000
,
00000001
00000000
00001000
00000100
00000000
00000100
00000000
00010000
00001000
00000000
00100000
00000000
00010000
00000000
00000000
00000000
,
02020000
00000000
03030000
10030000
01000000
00100000
00010000
00000000
00000000
01000000
00001000
00000000
01001000
00000000
00010000
00000000
,
00022000
00000000
00033000
00010000
00000100
00001000
00000010
00000000
00000000
00001000
00000001
00000000
00001001
00000000
00000010
00000000
,
00000022
00000000
00000033
00000001
00000100
00000010
00001000
00000000
00000000
00000001
00001000
00000000
00001100
00000000
00010000
00001000
,
00010000
00000000
00001000
01000000
00000000
01000000
00000000
00100000
10000000
00000000
00010000
00100000
01000000
00000000
10000000
00010000
,
20000000
00000000
30100000
00000000
10000000
01000000
00100000
00010000
02000000
00000000
03002000
00000000
00023000
00000000
00030100
00001000
,
00000010
00000000
00000010
00000000
00000010
00000000
00010000
00001000
00100000
00000000
00100000
00000000
00100000
00000000
00000000
00000000
,
00001000
00010000
00001000
00000000
00010000
00000010
00010000
00000000
00000010
00000100
00000010
00000100
00000010
00000000
00001000
00000002
,
00000000
00000013
00000100
00020000
00000000
00031000
01000000
00001000
00010000
00000000
00000000
00000000
00021000
00000000
00030010
00000000
,
00012000
00000000
00103000
00000000
00021000
00000000
00031000
00010000
00100000
10000000
00010000
00000000
10000000
00000000
00010000
00200000
,
00000000
20300000
00000000
30200000
00000000
00320000
00000000
01030000
00002000
00000000
00013000
00000000
00012000
00000000
01003000
00000000
,
00021000
00000000
00030100
00000000
00012000
00000000
00013000
00001000
00000100
00000001
00001000
00000000
00000001
00000000
00001000
00000200
,
00000000
00000302
00000000
00000203
00000000
00002300
00000000
00003010
00020000
00000000
00031000
00000000
00102000
00000000
00013000
00000000
,
00020010
00000000
00031000
00000000
00012000
00000000
00103000
01000000
00010000
01000000
10000000
00000000
00010000
00000000
10000000
00200000
,
00000000
00320000
00000000
00032000
00000000
00003200
00000000
00000310
00020000
00000000
00031000
00000000
00020100
00000000
00031000
00000000
,
01002000
00000000
00013000
00000000
00021000
00000000
00030100
00000000
00010000
00000010
00000100
00000001
00001000
00000000
00000001
00000010
,
00000000
00000100
00001000
00000000
00000010
00000100
00000010
00000000
00010000
00000000
00003000
00000000
00012000
00000000
00100000
00000000
,
01003000
00000000
00001000
00000000
00010000
00001000
00100000
00000000
00101000
00000000
00000000
00000000
00021000
00000000
00000010
00000000
,
00030100
00000000
00010000
00000000
00001000
00010000
00000010
00000000
00010010
00000000
00000000
00000000
00010000
00000000
00001000
00000000
,
00100000
00010000
00100000
00000000
00010000
10000000
00010000
00000000
01000000
00000000
00100000
00000000
20000000
00000000
00000000
00000000
,
00000000
00000000
00000000
00000000
30010000
00000000
10000000
01000000
,
00100000
00000000
00010000
00000000
00001000
00000000
00000100
00000000
00000010
00000000
00000001
00000000
00001000
00000010
00001000
00000010
,
00000100
00000001
00000100
00000000
00000001
00001000
00000001
00000000
00001000
00000000
00000000
00000000
00000001
00000000
00000010
00000000
,
00000100
00000000
00001000
00000000
00010000
00000000
00100000
00000000
01000000
00000000
10000000
00010000
20000000
00000000
00000000
00000000
,
00000000
00100000
00000000
00000000
30010000
00000000
10000000
00010000
,
01000000
00100000
01000000
00000000
00001000
00000000
00010000
00000000
00001000
00000000
00000000
00000000
00100000
00000000
00001000
00000000
,
00010000
00000010
00000010
00010000
00001000
00000000
00010000
00000100
,
00000010
00000000
00000001
00000000
00001000
00000001
00001000
00000000
00000010
00000000
00000000
00000000
00001010
00000000
00001010
00000000
,
00010010
00000000
00010010
00000000
00011000
00000000
00000000
00000000
00201000
00000000
00310000
01000000
00200000
00000000
10300000
01000000
,
00200000
00000000
00310000
00000000
10000000
00000000
00000000
00000000
00010000
00000000
10000000
00200000
00000000
02300000
00000000
23000000
,
00000000
32000000
00000000
03010000
00100000
00000000
00001000
00000000
00010020
00000000
00001030
00000100
00000020
00000000
00000031
00000100
,
00000020
00000000
00001030
00000000
00000001
00000000
00000000
00000000
00001000
00000000
00000001
00000010
00000000
00000130
00001000
00000300
,
00000010
00000103
00000010
00000300
00001000
00000001
00001000
00000001
00000020
00000000
00000000
00000000
00000130
00010000
00002000
00000000
,
00000000
00000000
00103000
00000000
00010000
01000000
00010000
00000000
10000000
00000000
01000000
00100000
00010000
00000000
01000000
00100000
,
01000000
00100000
01000000
00010000
10000000
00000000
00010000
00100000
00002000
00000000
00013000
00000000
00000010
00000100
00000010
00000000
,
00001000
00000001
00001000
00000000
00000100
00000000
00010000
00000000
00001000
00000000
00100000
00010000
00000000
01000000
00010000
00000000
,
20000000
00000000
00000000
00000000
30010000
10000000
00010000
10000000
02000000
00000000
00000000
00000000
03100000
00001000
00020000
00000000
,
00000000
00000000
00030100
00000000
00001000
00000010
00001000
00000000
00000001
00000000
00000010
00000100
00001000
00000000
00000010
00000100
,
00000010
00000100
00000010
00001000
00000001
00000000
00001000
00000100
00020000
00000000
00031000
00000000
01000000
00100000
01000000
00000000
,
00010000
10000000
00010000
00000000
00100000
00000000
00001000
00000000
00010000
00000000
00000010
00001000
00000000
00003001
00000010
00000100
,
00020000
00000000
00030000
00000000
;

//---------------dance-double - ----------------
#NOTES:
     dance-double:
     :
     Medium:
     8:
     0.318580,0.326514,0.185137,0.269290,0.063115,265.000000,243.000000,22.000000,32.000000,0.000000,0.000000,0.318580,0.326514,0.185137,0.269290,0.063115,265.000000,243.000000,22.000000,32.000000,0.000000,0.000000:
00000000
00000000
00000000
00000000
,
00000000
00000000
00000000
00000000
,
00000000
00000000
00000000
00000000
,
00000000
00000000
00000000
00000000
,
00000000
00000000
00000000
00000000
,
00001000
00010000
00001000
00000000
00010000
00000010
00001000
00000000
,
00000001
00000010
00000001
00000010
00000100
00010000
00001000
00000000
,
00010000
00001000
00010000
00000000
00001000
01000000
00010000
00000000
,
20020000
00000000
00000000
30030000
,
00020000
00000000
00000000
00000000
01030000
00001000
01000000
00000000
00000000
00000000
00001000
00000000
00010000
00000000
00000000
00000000
,
00020000
00000000
00000000
00000000
00030100
00001000
00000100
00000000
00000000
00000000
00001000
00000000
00000001
00000000
00000000
00000000
,
00000002
00000000
00000000
00000000
00000103
00000010
00000100
00000000
00000000
00000000
00000100
00000000
00000010
00000000
00000000
00000000
,
00001000
00000010
00000100
00000001
00001000
00000100
00010000
00000000
,
00001000
00001000
00100000
00100000
00010000
01000000
00100000
00000000
,
10000000
00010000
10000000
00010000
00100000
00100000
00100000
00000000
,
00010000
01000000
00001000
00010000
00000010
00000010
00000010
00000000
,
00001000
00000001
00000010
00000100
00010000
00000000
00101000
00000000
,
00010010
00000000
00022000
00000000
00033000
00000000
00001000
00100000
,
00010000
10000000
00100000
01000000
00001000
00000000
01001000
00000000
,
00010100
00000000
00022000
00000000
00033000
00000000
00010000
00000100
,
00000010
00000001
00001000
00000010
00010000
00000000
00010010
00000000
,
00101000
00000000
00000000
00000000
00022000
00000000
00000000
00000000
00033000
00000000
00000000
00000000
00001000
00000000
00100000
00010000
,
00000000
10000000
00000000
00010000
00000000
01000000
00000000
00001000
00000000
00010000
00000000
00000000
01001000
00000000
00000000
00000000
,
00010100
00000000
00022000
00000000
00033000
00000000
00010000
00000100
,
00000010
00000001
00002000
00000000
00003010
00000000
00001000
00000001
,
00001000
00000000
00000001
00000010
00000100
00000000
00010000
00001000
,
00010000
00000000
00001000
00100000
01000000
00000000
10000000
00010000
,
10000000
00010000
01000000
00100000
10000000
00000000
00020000
00000000
,
00000000
00000000
00000000
00000000
01030000
00000000
00010000
01000000
,
00010000
01000000
00001000
00010000
00000100
00000000
00001000
00000010
,
00001000
00000010
00010000
00001000
00100000
00000000
00010000
00010000
,
10000000
10000000
00010000
01000000
00001000
00000000
00022000
00000000
,
00000000
00000000
00033000
00010000
,
00000100
00000000
00000010
00000010
00000010
00000000
00000001
00000100
,
00000010
00000000
00001000
00000100
00000010
00000000
00000100
00000000
,
00010000
00000000
00001000
00001000
00001000
00000000
00100000
00010000
,
01000000
00100000
10000000
00000000
10010000
00000000
00011000
00000000
,
00002002
00000000
00000000
00000000
00003003
00000000
00000000
00000000
00000001
00000000
00001000
00000010
00000000
00000100
00000000
00000010
,
00000000
00001000
00000000
00000001
00000000
00000010
00000000
00000000
00001001
00000000
00000000
00000000
00011000
00000000
00000000
00000000
,
20020000
00000000
30030000
00000000
00010000
10000000
00100000
01000000
,
00002000
00000000
00013000
00000000
00012000
00000000
00103000
00200000
,
00000000
00310000
01000000
00100000
10000000
00010000
20000000
00000000
,
31000000
00100000
00020000
00000000
01030000
00001000
01000000
00001000
,
00010000
00000100
00000010
00000000
00000001
00001000
00000001
00001000
,
00000020
00000000
00010030
00000000
00020010
00000000
00031000
00200000
,
00000000
00310000
10000000
00010000
02000000
00000000
03200000
00000000
,
10300000
01000000
00100000
00000000
00010000
00010000
10000000
10000000
,
00010000
01000000
00001000
00000000
00010000
00000100
00000010
00000001
,
00000200
00000000
00000300
00000000
;

//---------------dance-double - ----------------
#NOTES:
     dance-double:
     :
     Easy:
     5:
     0.186339,0.244886,0.008415,0.378689,0.000000,155.000000,154.000000,1.000000,45.000000,0.000000,0.000000,0.186339,0.244886,0.008415,0.378689,0.000000,155.000000,154.000000,1.000000,45.000000,0.000000,0.000000:
00000000
00000000
00000000
00000000
,
00000000
00000000
00000000
00000000
,
00000000
00000000
00000000
00000000
,
00000000
00000000
00000000
00000000
,
00000000
00000000
00000000
00000000
,
00010000
00000000
00000000
00010000
00000000
00000000
00000000
00000000
,
00001000
00000000
00000000
00001000
00000000
00000000
00000000
00000000
,
00100000
00000000
00000000
00100000
00000000
00000000
00000000
00000000
,
01000000
00000000
00000000
00000000
,
20000000
00000000
30100000
00100000
00000000
00000000
01000000
00000000
,
00020000
00000000
00130000
00100000
00000000
00000000
00001000
00000000
,
00020000
00000000
00030010
00000010
00000000
00000000
00001000
00000000
,
00000002
00000013
00000200
00001300
,
00000002
00000000
00000203
00000000
00000310
00000010
00000010
00000000
,
00001000
00001000
00001000
00000000
00000100
00000100
00000100
00000000
,
00020000
00032000
00203000
00320000
,
10030000
00000000
00100000
01000000
00100000
00000000
20000000
00000000
,
30020000
00230000
00300000
00001000
,
00010000
00000000
00000010
00000010
00000010
00000000
00002000
00000000
,
00003002
00000023
00000030
00000001
,
00001000
00000000
00000100
00000100
00000100
00000000
00020000
00000000
,
00032000
02003000
03000000
00010000
,
01000000
00000000
00100000
00100000
00100000
00000000
20000000
00000000
,
30020000
00230000
00300000
00001000
,
00010000
00000020
00000030
00002000
,
00003000
00001000
00000000
00000200
,
00000300
00000100
00000000
00000010
,
00000010
00000001
00000001
00001000
,
00000000
00000000
00000000
00000001
,
00000100
00000010
00010000
00001000
,
00001000
00100000
00000000
00100000
,
00010000
10000000
00100000
02000000
,
00000000
00000000
03000000
00100000
,
10000000
01000000
00000000
00100000
,
00001000
00010000
00000000
00010000
,
00000100
00000000
00000010
00000000
00000000
00000000
00000001
00001000
,
00000001
00001000
00000001
00000000
00002000
00000000
00003020
00000000
,
00020030
00030000
00001000
00100000
,
00010000
00010000
00010000
00000000
00200000
00000000
00302000
00000000
,
00023000
00030000
00000010
00001000
,
00000100
00000000
00000000
00000000
00020000
00000000
00000000
00032000
,
00000000
00103000
00010000
10000000
,
00100000
00100000
00100000
00000000
20000000
00000000
32000000
00000000
,
03200000
00000000
00310000
00000000
10000000
00000000
00010000
01000000
,
00002000
00000000
00103000
00000000
00012000
00000000
00000000
00023000
,
00000000
00030100
00001000
00000001
,
00000100
00000100
00000100
00000000
00000002
00000000
00000023
00000000
,
00000230
00000000
00001300
00000000
00000001
00000000
00001000
00000001
,
00002000
00000000
00003000
00000000
;
