#VERSION:0.83;
#TITLE:GLORIOUS OUTBURST;
#SUBTITLE:;
#ARTIST:osc444;
#TITLETRANSLIT:;
#SUBTITLETRANSLIT:;
#ARTISTTRANSLIT:;
#GENRE:;
#CREDIT:D0omsday;
#MUSIC:GLORIOUS OUTBURST.ogg;
#BANNER:;
#BACKGROUND:;
#JACKET:;
#DISCIMAGE:;
#CDIMAGE:;
#SELECTABLE:YES;
#LYRICSPATH:;
#CDTITLE:;
#SAMPLESTART:72.713;
#SAMPLELENGTH:12.000;
#OFFSET:0.79;
#BPMS:0.000000=160.000000,
132.000000=80.000000,
148.000000=160.000000
;
#STOPS:;
#WARPS:;
#DELAYS:;
#SPEEDS:;
#SCROLLS:;
#TICKCOUNTS:;
#TIMESIGNATURES:;
#LABELS:;
#COMBOS:;
#FAKES:;
#BGCHANGES:;
#FGCHANGES:;
#ATTACKS:;

//---------------dance-single - ---------------
#NOTEDATA:;
#CHARTNAME:;
#CHARTSTYLE:;
#CREDIT:D0omsday;
#STEPSTYPE:dance-single;
#DESCRIPTION:;
#DIFFICULTY:Beginner;
#METER:3;
#METERF:3;
#RADARVALUES:0,0,0,0,0;
#NOTES:
// measure 0
0000
0000
0000
0000
,  // measure 1
0000
0000
0000
0000
,  // measure 2
0000
0000
0000
0000
,  // measure 3
0000
0000
0000
0000
,  // measure 4
0000
0000
0000
0000
,  // measure 5
1000
0000
0000
0000
,  // measure 6
1000
0000
0000
0000
,  // measure 7
0001
0000
0000
0000
,  // measure 8
0001
0000
0000
0000
,  // measure 9
0010
0000
0010
0000
,  // measure 10
0100
0000
0100
0000
,  // measure 11
1000
0000
1000
0000
,  // measure 12
0001
0000
0001
0000
,  // measure 13
1000
0000
0000
0000
,  // measure 14
0010
0000
0000
0000
,  // measure 15
0100
0000
0000
0000
,  // measure 16
0001
0001
0000
0000
,  // measure 17
1001
0000
0100
0000
,  // measure 18
0010
0000
1000
0000
,  // measure 19
0100
0000
0010
0000
,  // measure 20
0001
0000
0100
0000
,  // measure 21
0001
0000
0010
0000
,  // measure 22
0100
0000
1000
0000
,  // measure 23
0010
0000
0000
0000
,  // measure 24
0010
0010
0010
0000
,  // measure 25
0100
1001
0000
0000
,  // measure 26
1000
0000
0100
0000
,  // measure 27
0010
0000
0100
0000
,  // measure 28
1000
0000
0001
0001
,  // measure 29
0001
0000
0100
0000
,  // measure 30
0010
0000
1000
0000
,  // measure 31
0001
0000
0001
0000
,  // measure 32
0010
0000
0000
0000
,  // measure 33
1001
0000
1000
0000
,  // measure 34
0100
0000
0010
0010
,  // measure 35
0001
0000
1000
0000
,  // measure 36
0010
0000
0100
0100
,  // measure 37
0001
0000
0000
0000
,  // measure 38
0001
0000
0000
0000
,  // measure 39
1000
0000
0000
0000
,  // measure 40
1000
0000
0000
0000
,  // measure 41
0100
0000
0000
0000
,  // measure 42
0100
0000
0000
0000
,  // measure 43
0010
0000
0010
0000
,  // measure 44
0220
0000
0330
0000
,  // measure 45
1001
0000
1000
0000
,  // measure 46
0001
0000
0100
0100
,  // measure 47
0100
0000
0010
0000
,  // measure 48
1000
0000
0001
0001
,  // measure 49
0001
0000
0010
0000
,  // measure 50
0100
0000
1000
1000
,  // measure 51
1000
0000
0001
0000
,  // measure 52
0100
0000
0010
0010
,  // measure 53
0010
0000
0100
0000
,  // measure 54
0001
0000
1000
0000
,  // measure 55
0100
0000
0010
0000
,  // measure 56
0001
0000
1000
0000
,  // measure 57
0010
0000
0100
0000
,  // measure 58
0010
0000
1000
1000
,  // measure 59
1000
0000
0001
0000
,  // measure 60
0010
0000
0100
0100
,  // measure 61
0100
0000
0000
0000
,  // measure 62
0100
0000
0000
0000
,  // measure 63
0010
0000
0000
0000
,  // measure 64
0010
0000
0000
0000
,  // measure 65
0001
0000
0001
0000
,  // measure 66
1000
0000
1000
0000
,  // measure 67
0010
0000
0010
0000
,  // measure 68
0100
0000
0100
0100
;

//---------------dance-single - ---------------
#NOTEDATA:;
#CHARTNAME:;
#CHARTSTYLE:;
#CREDIT:D0omsday;
#STEPSTYPE:dance-single;
#DESCRIPTION:;
#DIFFICULTY:Easy;
#METER:6;
#METERF:6;
#RADARVALUES:0,0,0,0,0;
#NOTES:
// measure 0
0000
0000
0000
0000
,  // measure 1
0000
0000
0000
0000
,  // measure 2
0000
0000
0000
0000
,  // measure 3
0000
0000
0000
0000
,  // measure 4
0000
0000
0000
0000
,  // measure 5
1000
0010
1000
0000
,  // measure 6
0001
0010
0001
0000
,  // measure 7
1000
1000
0001
0001
,  // measure 8
0100
0100
0010
1000
,  // measure 9
1001
0001
0010
0010
,  // measure 10
0000
1000
0010
0010
,  // measure 11
0000
0001
0100
0100
,  // measure 12
0000
1000
0100
0100
,  // measure 13
1000
0001
1000
0000
,  // measure 14
0010
0100
0010
0000
,  // measure 15
1000
0100
0010
0001
,  // measure 16
0100
0100
0000
0010
,  // measure 17
1001
1000
0100
0010
,  // measure 18
0100
1000
0100
0010
,  // measure 19
0001
1000
0010
0100
,  // measure 20
0010
1000
0010
0100
,  // measure 21
0001
1000
0100
0010
,  // measure 22
0100
1000
0100
0010
,  // measure 23
0001
1000
0001
1000
,  // measure 24
0010
0010
0010
0010
,  // measure 25
0100
1001
0000
1000
,  // measure 26
0100
0000
0010
0001
,  // measure 27
0010
0000
0001
1000
,  // measure 28
0001
0000
1000
0010
,  // measure 29
0100
0000
0001
0100
,  // measure 30
0001
0000
1000
0100
,  // measure 31
1000
0000
0001
0010
,  // measure 32
0001
0000
1000
0010
,  // measure 33
1000
0000
0001
0001
,  // measure 34
0001
0000
0010
0010
,  // measure 35
0010
0000
0100
0100
,  // measure 36
0100
0000
1000
1000
,  // measure 37
1000
0000
0001
0000
,  // measure 38
1000
0000
0001
0100
,  // measure 39
0010
0000
0100
0000
,  // measure 40
0010
0000
0100
0001
,  // measure 41
1000
0000
0001
0000
,  // measure 42
1000
0000
0001
0010
,  // measure 43
0100
0010
0100
0010
,  // measure 44
0200
0000
0000
0300
,  // measure 45
1000
0000
0010
0100
,  // measure 46
0001
0000
1000
0100
,  // measure 47
0010
0000
0100
1000
,  // measure 48
0010
0000
0100
0001
,  // measure 49
1000
0000
0010
1000
,  // measure 50
0001
0000
0010
0100
,  // measure 51
1000
0000
0100
0010
,  // measure 52
0001
0000
0100
0001
,  // measure 53
1000
0010
0100
0010
,  // measure 54
1000
0001
0010
0100
,  // measure 55
1000
0001
0100
0010
,  // measure 56
0100
0001
0010
0100
,  // measure 57
1000
0010
1000
0100
,  // measure 58
0010
0001
0100
0001
,  // measure 59
1000
0010
1000
0001
,  // measure 60
0010
0100
0010
0001
,  // measure 61
1000
0000
0010
0000
,  // measure 62
1000
0000
0010
0000
,  // measure 63
0100
0000
0001
0000
,  // measure 64
0100
0000
0001
0000
,  // measure 65
1000
0000
0100
0010
,  // measure 66
0100
0000
1000
0001
,  // measure 67
1000
0000
0001
0100
,  // measure 68
0001
0000
1000
0010
;

//---------------dance-single - ---------------
#NOTEDATA:;
#CHARTNAME:RH+ by 9 standards;
#CHARTSTYLE:;
#CREDIT:D0omsday;
#STEPSTYPE:dance-single;
#DESCRIPTION:;
#DIFFICULTY:Medium;
#METER:9;
#METERF:9;
#RADARVALUES:0,0,0,0,0;
#NOTES:
// measure 0
0000
0000
0000
0000
,  // measure 1
0000
0000
0000
0000
,  // measure 2
0000
0000
0000
0000
,  // measure 3
0000
0000
0000
0000
,  // measure 4
0000
0000
1001
0000
,  // measure 5
1000
0100
0010
0100
,  // measure 6
1000
0000
0001
0000
0100
0000
0010
0100
,  // measure 7
0010
0000
1000
0010
1000
0000
0001
0010
,  // measure 8
0001
0000
1000
0000
0100
0010
0001
0000
,  // measure 9
1000
0000
0000
0000
0010
0000
0000
0100
0000
0000
0010
0000
0000
0000
0000
0000
,  // measure 10
1000
0000
0000
0000
0001
0000
0000
0010
0000
0000
0001
0000
0000
0000
0000
0000
,  // measure 11
0100
0000
0000
0000
0010
0000
0000
1000
0000
0000
0010
0000
0000
0000
0000
0000
,  // measure 12
0100
0000
0000
0000
0001
0000
0000
1000
0000
0000
0001
0000
1000
0000
0000
0000
,  // measure 13
0100
0000
0010
0000
0001
1000
0001
0000
,  // measure 14
0100
0000
0010
0000
1000
0001
1000
0000
,  // measure 15
0100
0010
0100
0000
0010
0100
0010
0000
,  // measure 16
0001
0000
0001
0000
1000
1000
1000
0000
,  // measure 17
0020
0000
0000
0000
0000
0000
0000
0000
0130
0000
0000
0000
0000
0000
0001
0000
0000
0000
0000
1000
0000
0000
0000
0000
0000
0000
0000
0000
0000
0000
0001
0000
,  // measure 18
0000
0000
0000
1000
0000
0000
0000
0000
0000
0000
0000
0000
0000
0000
0001
0000
0000
0000
0000
1000
0000
0000
0000
0000
0200
0000
0000
0000
0000
0000
0000
0000
,  // measure 19
0320
0000
0000
0000
0000
0000
0000
0000
0130
0000
0000
0000
0000
0000
1000
0000
0000
0000
0000
0001
0000
0000
0000
0000
0000
0000
0000
0000
0000
0000
1000
0000
,  // measure 20
0000
0000
0000
0001
0000
0000
0000
0000
0000
0000
0000
0000
0000
0000
1000
0000
0000
0000
0000
0000
0001
0000
0000
0000
0020
0000
0000
0000
0000
0000
0000
0000
,  // measure 21
0230
0000
0000
0000
0000
0000
0000
0000
1300
0000
0000
0000
0000
0000
0010
0000
0000
0000
0000
0100
0000
0000
0000
0000
0000
0000
0000
0000
0000
0000
0010
0000
,  // measure 22
0000
0000
0000
0100
0000
0000
0000
0000
0000
0000
0000
0000
0000
0000
0010
0000
0000
0000
0000
0000
1000
0000
0000
0000
0001
0000
0000
0000
0000
0000
0000
0000
,  // measure 23
1001
1000
0100
0010
,  // measure 24
0001
1000
0001
0000
0100
0010
0100
0000
,  // measure 25
0010
0000
1001
0000
1000
0000
0100
1000
,  // measure 26
0001
0000
0010
0000
0001
0000
0100
0001
,  // measure 27
1000
0000
0010
0000
1000
0000
0100
0010
,  // measure 28
0001
0000
0100
0000
0001
0000
2002
3003
,  // measure 29
0220
0330
1000
0000
0001
0000
0010
0100
,  // measure 30
1000
0000
0001
0000
0100
0000
0010
1000
,  // measure 31
0001
0000
0010
0000
0001
0000
0100
0010
,  // measure 32
1000
0001
0010
0100
,  // measure 33
1001
0000
1000
0010
0100
0000
0001
1000
,  // measure 34
0100
0000
0010
0100
1000
0000
0010
0100
,  // measure 35
0001
0000
1000
0001
0010
0000
0001
1000
,  // measure 36
0010
0000
0100
0010
1000
0000
0100
0010
,  // measure 37
0001
0010
0001
1000
,  // measure 38
0010
1000
0100
0010
,  // measure 39
0001
1000
0001
0000
0100
0000
0010
0000
,  // measure 40
0100
0001
0010
0100
,  // measure 41
1000
0100
1000
0000
0001
0000
0100
0000
,  // measure 42
0010
1000
0001
0010
,  // measure 43
0100
0010
0100
0000
1000
0001
1000
0000
,  // measure 44
2002
0000
0000
3003
,  // measure 45
1000
0000
0001
0010
0001
0000
1000
0010
,  // measure 46
1000
0000
0001
0100
0001
0000
1000
0000
,  // measure 47
0100
0000
0010
0001
0010
0000
0001
0100
,  // measure 48
0001
0000
1000
0010
1000
0000
0100
0000
,  // measure 49
0010
0000
0001
0100
0001
0000
1000
0100
,  // measure 50
1000
0000
0001
0010
0001
0000
0100
0000
,  // measure 51
0010
0000
1000
0010
1000
0000
0001
0010
,  // measure 52
0001
0000
1000
0100
1000
0000
0001
0000
,  // measure 53
0100
0000
0010
0000
1000
0000
0100
1000
,  // measure 54
0001
0000
0010
0000
0001
1000
0001
1000
,  // measure 55
0010
0000
0100
0000
0010
0000
1000
0100
,  // measure 56
0010
0000
0001
0000
1000
0000
0010
1000
,  // measure 57
0001
0000
0010
0000
0100
0000
0010
0001
,  // measure 58
0100
0000
0010
0000
1000
0000
0010
1000
,  // measure 59
0100
0000
0010
0000
0001
0000
1000
0010
,  // measure 60
0100
0000
0001
0000
1000
0000
0100
1000
,  // measure 61
0001
0010
0100
1000
,  // measure 62
0010
0000
0100
0000
0001
0000
1000
0001
,  // measure 63
1000
0100
0010
0100
,  // measure 64
1000
0000
0010
0000
0100
0000
0001
1000
,  // measure 65
0001
0000
0010
0000
0001
0000
1000
0010
,  // measure 66
1000
0000
0010
0000
0100
0000
0001
0010
,  // measure 67
0001
0000
0100
0000
0001
0000
0010
0100
,  // measure 68
0010
0000
0001
0000
1000
0000
0010
0100
;

//---------------dance-single - ---------------
#NOTEDATA:;
#CHARTNAME:;
#CHARTSTYLE:;
#CREDIT:D0omsday;
#STEPSTYPE:dance-single;
#DESCRIPTION:;
#DIFFICULTY:Hard;
#METER:13;
#METERF:13;
#RADARVALUES:0,0,0,0,0;
#NOTES:
// measure 0
0000
0000
0000
0000
,  // measure 1
0000
0000
0000
0000
,  // measure 2
0000
0000
0000
0000
,  // measure 3
0000
0000
0000
0000
,  // measure 4
0000
0000
0000
0000
1000
0100
0010
0001
,  // measure 5
1000
0000
0000
0000
0010
0000
1000
0010
0000
0000
0100
0000
0000
0001
0000
0000
,  // measure 6
0010
0000
0000
0100
0000
0000
1000
0000
0000
0001
0000
0000
0010
0000
0000
0000
,  // measure 7
0001
0000
0000
0000
1000
0000
0010
0100
0000
0000
0001
0000
0000
0010
0000
0000
,  // measure 8
0001
0000
0000
1000
0000
0000
0010
0000
0000
0100
0000
0000
0001
0000
0000
0000
,  // measure 9
1000
0000
0000
0000
0010
0000
0000
0010
0000
0100
0010
0000
0100
0000
0000
0000
,  // measure 10
0001
0000
0000
0000
0010
0000
0000
0010
0000
0100
0010
0000
0100
0000
0000
0000
,  // measure 11
1000
0000
0000
0000
0001
0000
0000
0001
0000
0100
0001
0000
0100
0000
0000
0000
,  // measure 12
0010
0000
0000
0000
1000
0000
0000
1000
0000
0100
1000
0000
0100
0000
0010
0000
,  // measure 13
0001
0000
0010
0000
0100
0000
0000
0100
0000
0010
0100
0000
0010
0000
0001
0000
,  // measure 14
1000
0000
0010
0000
0100
0000
0000
0100
0000
0001
0100
0000
0001
0000
1000
0000
,  // measure 15
0100
0000
0000
0000
0010
0000
0000
0001
0000
1000
0001
0000
0100
0000
0010
0000
,  // measure 16
1000
0000
0000
0000
1000
0000
0000
0000
0001
1000
0001
1000
0001
0000
0000
0000
,  // measure 17
0220
0000
0000
0000
0330
0000
0000
0000
0001
0000
0000
0000
0000
0000
0010
0000
0000
0000
0000
0010
0000
0000
0000
0000
0001
0000
0000
0000
0000
0000
1000
0000
,  // measure 18
0000
0000
0000
1000
0000
0000
0000
0000
0001
0000
0000
0000
0000
0000
0100
0000
0000
0000
0000
0100
0000
0000
0000
0000
0002
0000
0000
0000
0023
0000
0000
0000
,  // measure 19
0230
0000
0000
0000
0000
0000
0000
0000
1300
0000
0000
0000
0000
0000
0010
0000
0000
0000
0000
0010
0000
0000
0000
0000
1000
0000
0000
0000
0000
0000
0001
0000
,  // measure 20
0000
0000
0000
0001
0000
0000
0000
0000
1000
0000
0000
0000
0000
0000
0100
0000
0020
0000
0000
0000
0230
0000
0000
0000
2300
0000
0000
0000
3000
0000
0000
0000
,  // measure 21
2002
0000
0000
0000
3003
0000
0000
0000
0001
0000
0000
0000
0000
0000
0100
0000
0000
0000
0000
0100
0000
0000
0000
0000
0010
0000
0000
0000
0000
0000
1000
0000
,  // measure 22
0000
0000
0000
1000
0000
0000
0000
0000
0100
0000
0000
0000
0000
0000
0010
0000
0001
0000
0000
0000
0010
0000
0000
0000
0100
0000
0000
0000
0010
0000
0000
0000
,  // measure 23
0002
0003
1001
0000
1010
0000
0110
0000
,  // measure 24
0001
0010
0100
1000
0100
0010
0001
0000
,  // measure 25
0100
0000
1001
0000
1000
0100
0010
0100
,  // measure 26
1000
0000
0001
0100
0010
1000
0001
1000
,  // measure 27
0100
0000
0010
0100
1000
0001
0100
0010
,  // measure 28
1000
0000
0010
1000
0001
0010
0220
0330
,  // measure 29
2002
3003
0001
0100
0010
0100
0001
0010
,  // measure 30
0100
0000
1000
0010
1000
0001
0010
0001
,  // measure 31
0100
0010
1000
0100
,  // measure 32
0010
0000
0000
0000
0001
0000
1000
0001
0000
1000
0001
0000
1000
0000
0000
0000
,  // measure 33
0010
0000
0000
0110
0000
0000
1000
0001
1000
0000
0100
0010
0100
0000
1000
0000
,  // measure 34
0001
0100
0010
0100
0000
0000
0001
0010
0000
0100
1000
0000
0001
1000
0000
0000
,  // measure 35
0010
0100
0001
1000
0000
0000
0100
0010
0100
0000
1000
0001
1000
0000
0010
0000
,  // measure 36
0100
0001
0010
0100
1000
0000
0000
1001
0000
0001
0100
0000
0010
1000
0000
0000
,  // measure 37
0001
0010
0001
0100
0010
0000
0000
1000
,  // measure 38
0000
0100
0010
0000
0100
0000
0000
0000
,  // measure 39
0000
0010
0001
1000
0010
0000
0000
1000
,  // measure 40
0000
0100
0010
0000
0001
0000
0000
0000
,  // measure 41
0000
0010
0001
0100
0010
0000
0000
1000
,  // measure 42
0000
0100
0010
0000
0100
0000
0000
0000
,  // measure 43
1000
0010
1000
0010
0100
0001
0100
0001
,  // measure 44
2000
0010
0010
0000
0000
3000
0110
0000
,  // measure 45
1001
0000
0000
1000
0000
0000
0010
0000
0100
0000
0000
0001
0000
0000
1000
0000
,  // measure 46
0100
0000
0000
0010
0000
0000
0100
0000
1000
0001
0000
0100
0000
0000
0010
0000
,  // measure 47
1000
0000
0000
0100
0000
0000
1000
0000
0001
0000
0000
0100
0000
0000
0010
0000
,  // measure 48
1000
0000
0000
0001
0000
0000
0010
0000
0001
1000
0000
0010
0000
0000
0100
0000
,  // measure 49
0001
0000
0000
0010
0000
0000
0100
0000
0010
0000
0000
0001
0000
0000
1000
0000
,  // measure 50
0010
0000
0000
0100
0000
0000
0001
0000
1000
0100
0000
0010
0000
0000
0100
0000
,  // measure 51
1000
0000
0000
0001
0000
0000
0100
0000
0010
0000
0000
1000
0000
0000
0001
0000
,  // measure 52
0010
0000
0000
0100
0000
0000
0010
0000
0001
1000
0000
0010
0000
0000
1000
0000
,  // measure 53
0100
0000
0010
0100
1000
0001
0100
0010
,  // measure 54
1000
0000
0001
0010
0100
0010
0001
1000
,  // measure 55
0010
0000
0100
0010
1000
0001
0010
0100
,  // measure 56
1000
0000
0010
1000
0001
0010
0001
0100
,  // measure 57
0010
1000
0001
1000
0100
0010
0100
1000
,  // measure 58
0010
0000
0100
0000
0001
0000
0010
0000
0001
0010
0000
0100
0000
0000
1000
0000
,  // measure 59
0001
0100
0010
0100
0001
1000
0100
0010
,  // measure 60
0001
0000
1000
0000
0010
0000
0100
0010
0000
0100
0010
0000
0100
0000
0000
0000
,  // measure 61
0001
0000
0000
0000
0010
0000
0100
0010
0000
0000
0001
0000
0000
1000
0000
0000
,  // measure 62
0010
0000
0000
0100
0000
0000
0001
0000
0000
1000
0000
0000
0100
0000
0000
0000
,  // measure 63
0010
0000
0000
0000
0100
0000
1000
0001
0000
0000
0100
0000
0000
0010
0000
0000
,  // measure 64
1000
0000
0000
0001
0000
0000
0010
0000
0000
0001
0000
0000
0100
0000
0000
0000
,  // measure 65
0010
0000
0000
1000
0000
0000
0001
0000
0010
0000
0000
0100
0000
0000
1000
0000
,  // measure 66
0001
0000
0000
0100
0000
0000
0001
0000
0010
0100
0000
0010
0000
0000
0001
0000
,  // measure 67
1000
0000
0000
0010
0000
0000
0100
0000
0010
0000
0000
1000
0000
0000
0001
0000
,  // measure 68
0010
0000
0000
0100
0000
0000
0010
0000
0001
1000
0000
0010
0000
0000
1000
0001
;

//---------------dance-single - ---------------
#NOTEDATA:;
#CHARTNAME:;
#CHARTSTYLE:;
#CREDIT:D0omsday;
#STEPSTYPE:dance-single;
#DESCRIPTION:;
#DIFFICULTY:Challenge;
#METER:16;
#METERF:16;
#RADARVALUES:0,0,0,0,0;
#NOTES:
// measure 0
0000
0000
0000
0000
,  // measure 1
0000
0000
0000
0000
,  // measure 2
0000
0000
0000
0000
,  // measure 3
0000
0000
0000
0000
,  // measure 4
0000
0000
0000
0000
0000
0000
0000
0000
1000
0000
0001
0000
1000
0100
0010
0001
,  // measure 5
0100
0000
0010
0000
0100
0000
0001
1000
0000
0000
0100
0000
0010
0000
0100
1000
,  // measure 6
0001
0000
0100
0000
0010
0000
0100
0001
1000
0000
0100
0000
1000
0000
0010
1000
,  // measure 7
0001
0000
0010
0000
0001
0000
1000
0010
0000
0000
0100
0000
0010
0000
1000
0100
,  // measure 8
0010
0000
0100
0000
1000
0000
0001
0100
0010
1000
0010
1000
0001
0000
0010
0000
,  // measure 9
0100
0000
1000
0000
0100
0000
0010
0100
0000
0100
1000
0000
0001
0000
0100
0010
,  // measure 10
1000
0000
0001
0000
0010
0000
0001
0010
0000
0010
0100
0000
1000
0000
0010
1000
,  // measure 11
0001
0000
0100
0000
0010
0000
1000
0010
0000
0010
0100
0000
0001
0000
0010
0001
,  // measure 12
0100
0000
0010
0000
1000
0000
0100
1000
0000
1000
0100
0010
0001
0000
1000
0010
,  // measure 13
0100
0001
0010
0001
1000
0010
1000
0100
,  // measure 14
0010
0001
1000
0010
0100
0001
0100
0010
,  // measure 15
1000
0001
0010
0100
1000
0001
1000
0010
0100
0001
0010
0100
1000
0010
1000
0001
,  // measure 16
0100
0000
0000
0000
0100
0000
0000
0000
0001
0010
0100
0010
0001
0000
0000
0000
,  // measure 17
2001
0000
0000
0000
0000
0000
3010
0000
0100
0000
0000
0000
0001
0000
0010
0000
0000
0000
0000
1000
0000
0000
0000
0000
0010
0000
0000
0000
0001
0000
0100
0000
,  // measure 18
0000
0000
0000
1000
0000
0000
0100
0000
0010
0000
0000
0000
1000
0000
0100
0000
0000
0000
0000
0001
0000
0000
0100
0000
0020
0000
0000
0000
0000
0000
0000
0000
,  // measure 19
0032
0000
0000
0000
0000
0000
0103
0000
0010
0000
0000
0000
1000
0000
0100
0000
0000
0000
0000
0001
0000
0000
0000
0000
0100
0000
0000
0000
1000
0000
0010
0000
,  // measure 20
0000
0000
0000
0001
0000
0000
0010
0000
0100
0000
0000
0000
0001
0000
0010
0000
0200
0000
0000
0000
0320
0000
0000
0000
0032
0000
0000
0000
2003
0000
0000
0000
,  // measure 21
3020
0000
0000
0000
0130
0000
0010
0000
1000
0000
0000
0000
0100
0000
0010
0000
0000
0000
0000
1000
0000
0000
0000
0000
0010
0000
0000
0000
0001
0000
0100
0000
,  // measure 22
0000
0000
0000
1000
0000
0000
0100
0000
0010
0000
0000
0000
1000
0000
0100
0000
0010
0000
0001
0000
0100
0000
0001
0000
0010
0000
0100
0000
1000
0000
0010
0000
,  // measure 23
0200
0000
0310
0001
0010
0100
0010
1000
,  // measure 24
0001
0010
0001
0000
1000
0010
1000
0000
0001
0100
0001
0000
1000
0000
0000
0000
,  // measure 25
0010
0000
0000
0000
0110
0000
0100
0001
0000
0000
0010
0000
0100
0000
0010
0001
,  // measure 26
1000
0000
0010
0000
0100
0001
0100
0001
0000
1000
0100
0000
0010
0000
0100
0000
,  // measure 27
1000
0000
0000
0100
0010
0000
0001
0100
0000
0000
0010
0000
0100
0000
0001
1000
,  // measure 28
0100
0000
0010
0000
0001
1000
0001
1000
0000
0000
0001
0000
0022
0000
0033
0000
,  // measure 29
2200
0000
3300
1000
0001
0000
0100
0010
0000
0000
1000
0000
0100
0000
1000
0001
,  // measure 30
0100
0000
0001
0000
0010
0100
0010
0100
0000
0000
1000
0000
0010
0000
1000
0001
,  // measure 31
0010
0000
0000
0001
1000
0000
0010
1000
0010
0000
0100
0010
0100
0000
0001
0100
,  // measure 32
0001
0000
0010
0000
0100
0000
1000
0010
0100
0001
0010
0000
0100
0000
0000
0000
,  // measure 33
1001
0000
0000
0000
0001
0000
0100
0010
0000
0000
1000
0000
0100
0000
1000
0000
0001
0000
0000
0000
0001
0000
0000
0001
0000
0001
1000
0000
0010
0000
0100
0000
,  // measure 34
0001
0000
0010
0000
0100
0000
0000
0100
0000
0100
1000
0000
0001
0000
0100
0000
0010
0000
0000
0000
0010
0000
0000
0010
0000
0010
1000
0000
0001
0000
0010
0000
,  // measure 35
0001
0000
1000
0000
0100
0000
1000
0010
0000
0000
0100
0000
0010
0000
1000
0000
0001
0000
0000
0000
0001
0000
0000
0001
0000
0001
0010
0000
0100
0000
1000
0000
,  // measure 36
0010
0000
0100
0000
0001
0000
0000
0001
0000
0000
1000
0000
0001
0000
0010
0000
0100
0000
0000
0000
1000
0000
0001
1000
0000
0001
1000
0000
0001
0000
0000
0000
,  // measure 37
0010
0100
1000
0001
0100
0000
0010
0100
,  // measure 38
0001
0010
0100
0000
1000
0000
1000
0000
,  // measure 39
0001
1000
0010
0100
0010
0000
1000
0100
,  // measure 40
0010
0001
0100
0000
0010
0000
0010
0000
,  // measure 41
0100
0001
0010
0001
1000
0000
0100
0010
,  // measure 42
0100
0000
1000
0000
0010
0000
0000
0000
0100
0000
0000
0000
0100
0000
0010
0100
,  // measure 43
0001
1000
0100
0010
1000
0010
0100
1000
,  // measure 44
0001
0000
0100
0010
0001
0000
0010
0100
0000
0001
1000
0100
0010
0000
0000
0000
,  // measure 45
0001
0000
1000
0010
0000
1000
0001
0000
0010
0000
0001
1000
0000
0100
1000
0000
,  // measure 46
0010
0000
0100
0001
0000
1000
0100
1000
0001
0010
0000
1000
0000
0010
0001
0000
,  // measure 47
1000
0000
0010
0100
0000
0001
0100
0000
0010
0000
1000
0100
0000
1000
0001
0000
,  // measure 48
0010
0000
0100
1000
0000
0010
0100
0010
1000
0100
0000
0001
0000
0100
1000
0000
,  // measure 49
0001
0000
1000
0100
0000
0010
0001
0000
1000
0000
0010
0100
0000
0001
1000
0000
,  // measure 50
0100
0000
0010
0100
0000
1000
0010
0100
0001
0100
0000
1000
0000
0100
0001
0000
,  // measure 51
1000
0000
0001
0010
0000
0100
0010
0000
0001
0000
0100
0010
0000
1000
0100
0000
,  // measure 52
0010
0000
0001
0100
0000
0010
1000
0100
1000
0010
0000
0001
0000
0010
1000
0000
,  // measure 53
0001
0000
0010
0000
0001
0000
0100
0010
1000
0000
0001
0010
0000
0100
0010
0000
,  // measure 54
1000
0000
0010
0100
1000
0000
0001
1000
0001
0100
0010
0100
0001
0010
0100
1000
,  // measure 55
0001
0000
0010
0000
0100
0000
1000
0001
0010
0000
0001
0100
0000
0010
0100
0000
,  // measure 56
1000
0000
0100
0010
1000
0000
0100
0010
0001
0100
0000
1000
0000
0100
0001
0000
,  // measure 57
0010
0000
0001
1000
0100
0000
0010
0001
1000
0000
0010
0100
0000
0001
1000
0100
,  // measure 58
0001
0000
0100
0010
0000
0001
0100
0010
1000
0100
0000
0001
0000
0100
1000
0000
,  // measure 59
0100
0000
0010
0001
1000
0000
0010
1000
0001
0000
0100
0010
0000
1000
0001
0010
,  // measure 60
1000
0000
0010
0100
1000
0000
0001
0100
0010
1000
0100
0010
0001
0000
0100
0000
,  // measure 61
0110
0000
0000
0000
0001
0000
1000
0100
0010
0000
0100
0000
1000
0100
0000
0000
,  // measure 62
0110
0000
0000
0100
0001
0000
0100
0000
0010
0100
0000
0000
1100
0000
1000
0000
,  // measure 63
0010
0000
0000
0000
0100
0000
0001
0010
0100
0000
0010
0000
0001
0010
0000
0000
,  // measure 64
0110
0000
0000
0010
1000
0000
0010
0000
0100
0010
0000
0000
0011
0000
0000
0001
,  // measure 65
1000
0000
0010
0100
0000
0010
0100
0000
0001
0000
0010
0100
0000
0010
0100
0000
,  // measure 66
1000
0000
0001
0100
0000
0001
0100
0000
0010
1000
0000
0001
0000
1000
0010
0000
,  // measure 67
0010
0000
1000
0001
0000
1000
0001
0000
0010
0000
0001
1000
0000
0001
1000
0000
,  // measure 68
0010
0000
0100
0001
0000
0100
0001
0000
1000
0100
0000
0010
0000
0001
0100
0010
;

//---------------dance-double - ---------------
#NOTEDATA:;
#CHARTNAME:;
#CHARTSTYLE:;
#CREDIT:;
#STEPSTYPE:dance-double;
#DESCRIPTION:;
#DIFFICULTY:Challenge;
#METER:16;
#METERF:16;
#RADARVALUES:0,0,0,0,0;
#NOTES:
// measure 0
00000000
00000000
00000000
00000000
,  // measure 1
00000000
00000000
00000000
00000000
,  // measure 2
00000000
00000000
00000000
00000000
,  // measure 3
00000000
00000000
00000000
00000000
,  // measure 4
00000000
00000000
00000000
00000000
00000000
00000000
00000000
00000000
00010000
00000000
00001000
00000000
00010000
00000100
00001000
00000001
,  // measure 5
00000100
00000000
00000010
00000000
00001000
00000000
00000100
00010000
00001000
00000000
00010000
00000000
00100000
01000000
00000000
00000000
,  // measure 6
01010000
00000000
00000000
10000000
01000000
00000000
10000000
00000000
00010000
00100000
00000000
00000000
00101000
00000000
00000000
00000000
,  // measure 7
00001000
00000000
00010000
00000000
00100000
00000000
01000000
00010000
00100000
00000000
00010000
00000000
01000000
00001000
00000000
00000000
,  // measure 8
00011000
00000000
00000000
00000100
00001000
00000000
00000001
00000000
00000100
00000010
00000100
00000010
00001000
00000000
00000000
00000000
,  // measure 9
00001001
00000000
00001000
00000000
00000010
00000000
00010000
00001000
00000000
00001000
00000010
00000000
00000100
00000000
00001000
00000000
,  // measure 10
00000010
00000000
00000100
00000000
00001000
00000000
00000000
00001000
00000000
00001000
00010000
00000000
00100000
00000000
01000000
00000000
,  // measure 11
00010000
00000000
10000000
00000000
01000000
00000000
00000000
01000000
00000000
01000000
00010000
00000000
01000000
00000000
00100000
00000000
,  // measure 12
00001000
00000000
00010000
00000000
00100000
00000000
00000000
00100000
00000000
00100000
01000000
00010000
01000000
00000000
00001000
00000000
,  // measure 13
00010000
00000100
00000010
00001000
00000010
00000001
00000100
00000010
,  // measure 14
00001000
00010000
01000000
00100000
10000000
00010000
00100000
01000000
,  // measure 15
10000000
01000000
00100000
00010000
01000000
00000000
00000000
01000000
00000000
01000000
00001000
00000000
00010000
00001000
00010000
00000100
,  // measure 16
00000010
00000000
00000000
00000000
00000100
00000000
00000000
00000000
00000010
00000100
00001000
00000001
00010000
00000000
00000000
00000000
,  // measure 17
00020100
00000000
00000000
00000000
00000000
00000000
01030000
00000000
00100000
00000000
00000000
00000000
01000000
00000000
10000000
00000000
00000000
00000000
00000000
00001000
00000000
00000000
00000000
00000000
00010000
00000000
00000000
00000000
01000000
00000000
00100000
00000000
,  // measure 18
00000000
00000000
00000000
00000000
00000000
00000000
00000000
00000000
00000000
00000010
00000000
00000000
00000000
00000000
00000000
00000000
00000000
00000000
00010000
00000000
00000000
00000000
00000000
00000000
00001000
00000000
00000000
00000000
00000000
00000000
00000000
00000000
00000000
00000000
00000000
00000000
00000100
00000000
00000000
00000000
00000000
00000000
00000001
00000000
00000000
00000000
00000000
00000000
00000000
00000000
00000000
00000000
00000000
00000000
00000000
00000000
00000000
00010000
00000000
00000000
00000000
00000000
00000000
00000000
00000000
00000000
00001000
00000000
00000000
00000000
00000000
00000000
00000020
00000000
00000000
00000000
00000000
00000000
00000000
00000000
00000000
00000000
00000000
00000000
00000000
00000000
00000000
00000000
00000000
00000000
00000000
00000000
00000030
00000000
00000000
00000000
,  // measure 19
00000002
00000000
00000000
00000000
00000000
00000000
00000103
00000000
00000010
00000000
00000000
00000000
00001000
00000000
00000100
00000000
00000000
00000000
00000000
01000000
00000000
00000000
00000000
00000000
00001000
00000000
00000000
00000000
00000100
00000000
00000010
00000000
,  // measure 20
00000000
00000000
00000000
00100000
00000000
00000000
00001000
00000000
00010000
00000000
00000000
00000000
01000000
00000000
10000000
00000000
00020000
00000000
00000000
00000000
02030000
00000000
00000000
00000000
23000000
00000000
00000000
00000000
32000000
00000000
00000000
00000000
,  // measure 21
03002000
00000000
00000000
00000000
00013000
00000000
00001000
00000000
00100000
00000000
00000000
00000000
00010000
00000000
01000000
00000000
00000000
00000000
00000000
00000010
00000000
00000000
00000000
00000000
00010000
00000000
00000000
00000000
00001000
00000000
00100000
00000000
,  // measure 22
00000000
00000000
00000000
00000100
00000000
00000000
00010000
00000000
00001000
00000000
00000000
00000000
00000100
00000000
00000010
00000000
00001000
00000000
00000000
00000000
00000001
00000000
00000010
00000000
00000100
00000000
00000000
00000000
00010000
00000000
00001000
00000000
,  // measure 23
00200000
00000000
00301000
10000000
00100000
00010000
00001000
00000100
,  // measure 24
00000001
00000010
00001000
00010000
01000000
10000000
00001000
00000000
,  // measure 25
00010000
00000000
00000000
00000000
00001001
00000000
00000001
00000100
00000000
00000000
00000010
00000000
00001000
00000000
00000100
00000000
,  // measure 26
00000001
00000000
00000100
00000000
00001000
00000000
00000010
00010000
00000000
00000000
00001000
00000000
01000000
00000000
00100000
00000000
,  // measure 27
00010000
00000000
00000000
00000000
00001000
00000000
00100000
01000000
00000000
00000000
10000000
00000000
01000000
00000000
00010000
00000000
,  // measure 28
00001000
00000000
00000100
00000001
00001000
00000000
00000100
00000010
00000000
00000000
00000001
00000000
00000202
00000000
00000303
00000000
,  // measure 29
00020020
00000000
00030030
00000000
00001000
00000000
00100000
00010000
00000000
00000000
10000000
00000000
00100000
00000000
01000000
00000000
,  // measure 30
10000000
00000000
01000000
00000000
00010000
00000000
00100000
00001000
00000000
00000000
00010000
00000000
00000010
00000000
00001000
00000000
,  // measure 31
00000001
00000000
00000010
00000100
00010000
00000100
00000010
00000001
,  // measure 32
00000100
00000000
00000000
00000000
00000010
00000000
00010000
00001000
00000000
00010000
00001000
00000000
00100000
00000000
00000000
00000000
,  // measure 33
01100000
00000000
00000000
00000000
01000000
00000000
00100000
00000000
00010000
00000000
01000000
00000000
00100000
00000000
10000000
00000000
00010000
00000000
00000000
00000000
00010000
00000000
00000000
00010000
00000000
00010000
00100000
00000000
00001000
00000000
00010000
00000000
,  // measure 34
00100000
00000000
00000000
00000000
00010000
00000000
00000000
00010000
00000000
00010000
00000010
00000000
00001000
00000000
00000001
00000000
00000010
00000000
00000000
00000000
00000100
00000000
00000000
00000100
00000000
00000100
00010000
00000000
00001000
00000000
00000100
00000000
,  // measure 35
00000010
00000000
00000000
00000000
00001000
00000000
00000001
00000000
00000010
00000000
00000100
00000000
00001000
00000000
00010000
00000000
00100000
00000000
00000000
00000000
00100000
00000000
00000000
00100000
00000000
00100000
00001000
00000000
00010000
00000000
00100000
00000000
,  // measure 36
10000000
00000000
00000000
00000000
01000000
00000000
00000000
01000000
00000000
00000000
00010000
00000000
00001000
00000000
00100000
00000000
00010000
00000000
00000000
00000000
01000000
00000000
00001000
00010000
00000000
00001000
00010000
00000000
00000100
00000000
00000000
00000000
,  // measure 37
00000010
00000001
00001000
00000010
00000100
00000000
00000010
00010000
,  // measure 38
00001000
00100000
00010000
00000000
10000000
00000000
10000000
00000000
,  // measure 39
00100000
01000000
00010000
01000000
00100000
00000000
00010000
00001000
,  // measure 40
00100000
00001000
00010000
00000000
00000100
00000000
00000100
00000000
,  // measure 41
00000010
00000001
00001000
00000010
00010000
00000000
00001000
00000010
,  // measure 42
00001000
00000000
00010000
00000000
00000010
00000000
00000000
00000000
00000100
00000000
00000000
00000000
00000100
00000000
00000010
00001000
,  // measure 43
00000001
00000010
00000100
00001000
00010000
00100000
01000000
10000000
,  // measure 44
00100000
00000000
10000000
00010000
01000000
00000000
00001000
00010000
00000000
00000100
00001000
00000001
00000010
00000000
00000000
00000000
,  // measure 45
00000100
00000000
00000000
00010000
00000000
00000010
00000100
00000000
00001000
00000000
00000000
00010000
00000000
01000000
00100000
00000000
,  // measure 46
00001000
00000000
00000000
01000000
00000000
00100000
10000000
00000000
01000000
00100000
00000000
10000000
00000000
00100000
00010000
00000000
,  // measure 47
10000000
00000000
00000000
00100000
00000000
01000000
00010000
00000000
00100000
00000000
00000000
01000000
00000000
00010000
00001000
00000000
,  // measure 48
00100000
00000000
00000000
00001000
00000000
00010000
00000010
00000000
00000100
00001000
00000000
00000100
00000000
00000001
00001000
00000000
,  // measure 49
00000010
00000000
00000000
00010000
00000000
00001000
00100000
00000000
01000000
00000000
00000000
00010000
00000000
00001000
00100000
00000000
,  // measure 50
00010000
00000000
00000000
10000000
00000000
01000000
00100000
00000000
00010000
10000000
00000000
00100000
00000000
00010000
00001000
00000000
,  // measure 51
01000000
00000000
00000000
00100000
00000000
10000000
00010000
00000000
00100000
00000000
00000000
00010000
00000000
01000000
00001000
00000000
,  // measure 52
00010000
00000000
00000000
00000100
00000000
00000010
00000001
00000000
00000100
00000010
00000000
00000001
00000000
00000010
00000100
00000000
,  // measure 53
00001000
00000000
00010000
00000000
00000010
00000000
00001000
00000001
00000010
00000000
00000001
00001000
00000010
00000000
00001000
00000000
,  // measure 54
00010000
00000000
01000000
00000000
00100000
00000000
10000000
00010000
00100000
00000000
01000000
00010000
00001000
00100000
00010000
00000000
,  // measure 55
10000000
00000000
00100000
00000000
01000000
00000000
00010000
01000000
00001000
00000000
00010000
00001000
00100000
00000000
00010000
00000000
,  // measure 56
00001000
00000000
00000100
00000000
00000010
00000000
00000001
00001000
00000010
00000100
00000000
00001000
00000000
00010000
00000010
00000000
,  // measure 57
00001000
00000000
00000100
00000000
00000010
00000000
00001000
00000010
00000100
00000000
00001000
00000010
00000100
00000000
00001000
00000000
,  // measure 58
00010000
00000000
00100000
00000000
01000000
00000000
00010000
00100000
01000000
10000000
00000000
00100000
00000000
00010000
00100000
00000000
,  // measure 59
01000000
00000000
00010000
00000000
10000000
00000000
01000000
00100000
10000000
00000000
00100000
00010000
01000000
00000000
00001000
00000000
,  // measure 60
00010000
00000000
00000010
00000000
00000100
00000000
00001000
00010000
00000000
00001000
00010000
00000000
01000000
00000000
00000000
00000000
,  // measure 61
00100000
00000000
00000000
00000000
00010000
00000000
10000000
00100000
01000000
00000000
00100000
00000000
10000000
00010000
00000000
00000000
,  // measure 62
00110000
00000000
00000000
00001000
01000000
00000000
00001000
00000000
00010000
00000010
00000000
00000000
00001010
00000000
00001000
00000000
,  // measure 63
00000001
00000000
00000000
00000000
00000010
00000000
00000100
00001000
00000001
00000000
00001000
00000000
00000010
00010000
00000000
00000000
,  // measure 64
00011000
00000000
00000000
00100000
00010000
00000000
00100000
00000000
01000000
10000000
00000000
00000000
10010000
00000000
00000000
00010000
,  // measure 65
01000000
00000000
00000000
00100000
00000000
10000000
00010000
00000000
00100000
00000000
00000000
01000000
00000000
00100000
00001000
00000000
,  // measure 66
00010000
00000000
00000000
00000010
00000000
00001000
00000001
00000000
00000010
00000100
00000000
00001000
00000000
00000001
00000100
00000000
,  // measure 67
00000010
00000000
00000000
00001000
00000000
00000001
00000010
00000000
00000100
00000000
00000000
00001000
00000000
00000010
00010000
00000000
,  // measure 68
00001000
00000000
00000000
00100000
00000000
00010000
10000000
00000000
00100000
01000000
00000000
00001000
00000000
00010000
00000100
00001000
;
