#TITLE:Funky sonic World;
#SUBTITLE:;
#ARTIST:Des-ROW feat.SHIGE;
#TITLETRANSLIT:;
#SUBTITLETRANSLIT:;
#ARTISTTRANSLIT:;
#GENRE:;
#CREDIT:;
#MUSIC:Funky sonic World.ogg;
#BANNER:banner.png;
#BACKGROUND:background.png;
#CDTITLE:;
#SAMPLESTART:39.084;
#SAMPLELENGTH:18.000;
#SELECTABLE:YES;
#OFFSET:-0.681;
#BPMS:0.000=400.000;
#STOPS:108.000=0.300
,410.000=0.300
;
#BGCHANGES:;
#FGCHANGES:;

//--------------- dance-single - ----------------
#NOTES:
     dance-single:
     :
     Easy:
     10:
     0,0,0,0,0:
0000
0000
0000
0000
,
0000
0000
0000
0000
,
0000
0000
0000
0000
,
0000
0000
0000
0000
,
0000
0000
0000
0000
,
0000
0000
0000
0000
,
0000
0000
0000
0000
,
0000
0000
0000
0000
,
0000
0000
0000
0000
,
0000
0000
0000
0000
,
0000
0000
0000
0000
,
0000
0000
0000
0000
,
1000
0000
0001
0000
,
1000
0000
0000
0000
,
0010
0000
0100
0000
,
0010
0000
1000
0000
,
0001
0000
0010
0000
,
0100
0000
1000
0000
,
0001
0000
0000
0100
,
0000
0100
0010
0000
,
1001
0000
0000
2000
,
0000
3200
0000
0300
,
1000
0000
0000
0002
,
0000
0203
0000
0300
,
0010
0000
0010
0000
,
1000
0000
0001
0000
,
0010
0100
0010
0000
,
0110
0000
0001
0000
,
1000
0000
0100
1000
,
0100
0000
0010
0000
,
0001
0000
0100
0000
,
0000
0000
0010
0000
,
1000
0000
0100
0000
,
1000
0000
0001
0000
,
1000
0000
1001
0000
,
0000
0000
0001
0000
,
0100
0000
0001
0010
,
0001
0000
1000
0000
,
0010
0000
0100
0000
,
0000
0000
0001
0000
,
1000
0000
0100
0000
,
1000
0000
0001
0000
,
0010
0000
0110
0000
,
0000
0000
2000
0000
,
0000
0001
0000
0000
,
0001
0000
0000
3100
,
0000
0000
0001
0000
,
1000
0000
0002
0000
,
0000
1000
0000
0000
,
1000
0000
0000
0103
,
0000
0000
1000
0000
,
0001
0000
2001
0000
,
0000
0010
0000
0000
,
0010
0000
0000
3001
,
0000
0000
1000
0000
,
0010
0000
0100
0010
,
0100
0000
0001
0000
,
0100
0000
0010
0100
,
0010
0000
1000
0000
,
0010
0000
0100
0000
,
0001
0000
0010
0000
,
0100
0000
0110
0000
,
0010
0000
1001
0000
,
0000
0000
2000
3002
,
2003
3002
2003
3002
,
2003
3002
2003
3000
,
0010
0000
0100
0000
,
0001
0000
0010
0000
,
0010
0100
0000
0000
,
0220
0000
0330
0000
,
1000
0000
0001
0000
,
0100
0000
0010
0000
,
0010
0100
0000
0000
,
0220
0000
0330
0000
,
1000
0000
0001
0000
,
1000
0100
1000
0000
,
0001
0000
0100
0001
,
0000
0100
0010
0000
,
1000
0000
1001
0000
,
0000
0000
0002
2003
,
3002
2003
3002
2003
,
3002
2003
3002
0003
,
0010
0000
0100
0000
,
1000
0000
0001
0000
,
0001
0100
0000
0000
,
2020
0000
3030
0000
,
1000
0001
1000
0000
,
0010
0000
0100
0000
,
0001
0010
0001
0000
,
0100
0000
0010
1000
,
0010
0000
0100
0000
,
0001
0000
1001
0000
,
0200
0020
0000
0000
,
0000
0000
0000
0000
,
0330
0000
1000
0000
,
0001
0000
1001
0000
,
1000
0100
1000
0000
,
0010
0000
1001
0000
,
0001
0100
0001
0000
,
0010
0000
0001
1000
,
0001
0000
1000
0010
,
1000
0000
0001
0010
,
0100
0000
1100
0000
,
1000
0000
0001
0000
,
2000
0000
0000
0000
,
3010
0000
0100
0000
,
0001
0000
0010
0000
,
0100
0000
1000
0000
,
0001
0000
0100
0000
,
0010
0100
0010
0000
,
1000
0000
0001
0000
,
2000
0000
3100
0020
,
0000
0130
2000
0000
,
3100
0020
0000
0031
,
1000
0000
0001
0000
,
0200
0000
1000
0000
,
0010
0000
0301
0000
,
0100
0010
0100
0000
,
0220
0000
0330
0000
,
0001
1000
0000
1000
,
0002
0000
0000
0013
,
0000
0010
0000
0001
,
1000
0000
0100
0000
,
1000
0001
0000
0001
,
2000
0000
0000
3010
,
0000
0010
0000
0100
,
0001
0000
0110
0000
,
1000
0100
0000
0100
,
2000
0000
0000
3010
,
0000
0010
0000
0100
,
0001
0000
0100
0000
,
0010
1000
0010
0000
,
0100
0001
0100
0000
,
0020
0000
0100
0000
,
0130
0000
0000
0000
,
0002
2003
3002
2003
,
3002
2003
3002
2003
,
3002
0003
0010
0000
,
0100
0000
1000
0000
,
0010
0000
0010
0100
,
0000
0000
2002
0000
,
3003
0000
0001
0000
,
1000
0000
0100
0000
,
0010
0000
0010
0100
,
0000
0000
2002
0000
,
3003
0000
1000
0010
,
1000
0000
0001
0000
,
0010
0000
0010
0000
,
0100
1000
0000
0001
,
0100
0000
0010
0000
,
1000
0001
1000
0000
,
0200
0320
0230
0320
,
0230
0320
0230
0320
,
0230
0300
1000
0000
,
0001
0000
0100
0000
,
0010
0000
0010
1000
,
0000
0000
2200
0000
,
3300
0000
0001
0010
,
0001
0000
1000
0000
,
0010
0100
0010
0000
,
1000
0100
0010
0000
,
0001
1000
0001
0000
,
0100
0000
0010
0000
,
1000
0000
0002
0200
,
0000
0000
0000
0000
,
0000
0000
0303
0000
,
0010
0000
1000
0000
,
0001
0010
0100
0000
,
1000
0010
0100
0000
,
0001
1000
0001
0000
,
1000
0000
0100
0000
,
0110
0000
1000
0001
,
1000
0000
0010
0000
,
0110
0000
0100
0000
,
2002
3003
0000
0000
;

//--------------- dance-single - ----------------
#NOTES:
     dance-single:
     :
     Medium:
     14:
     0,0,0,0,0:
0000
0000
0000
0000
,
0000
0000
0000
0000
,
0000
0000
0000
0000
,
0000
0000
0000
0000
,
0000
0000
0000
0000
,
0000
0000
0000
0000
,
0000
0000
0000
0000
,
0000
0000
0000
0000
,
0000
0000
0000
0000
,
0000
0000
0000
0000
,
0000
0000
0000
0000
,
0000
0000
0000
0000
,
0001
1000
0000
0001
,
0010
0100
1000
0001
,
1000
0010
0000
1000
,
0001
1000
0100
0010
,
0001
0100
0000
0001
,
0010
0001
1000
0010
,
0100
0000
0100
0010
,
0000
0010
1001
0000
,
0001
0010
0001
0010
,
0000
0200
0000
0300
,
1000
0001
1000
0001
,
0000
0200
0000
0300
,
0010
1000
0010
1000
,
0000
0200
0000
0310
,
0001
0100
0010
1000
,
1001
0000
0001
0010
,
0001
0000
0010
0100
,
0010
0000
0001
1000
,
0100
0000
0010
0000
,
0110
0000
1000
0010
,
1000
0000
0001
0100
,
0010
0000
1000
0000
,
1000
0001
0000
0001
,
1000
0000
1001
0000
,
0001
0000
0010
0100
,
1000
0000
0010
0100
,
0001
0000
1000
0000
,
0100
0000
0010
0001
,
0010
0001
0000
0100
,
0010
0000
1010
0000
,
0100
0000
0011
0000
,
0100
0000
1002
0000
,
0000
0100
0100
0000
,
0000
0010
0000
0010
,
0000
1003
0001
1000
,
0001
0000
2001
0000
,
0000
0100
0100
0000
,
0000
0010
0000
0010
,
0000
3001
1000
0001
,
1000
0000
1200
0000
,
0000
0010
0010
0000
,
0000
0001
0000
0001
,
0300
0100
1000
0010
,
0100
0000
0001
0010
,
0001
0010
0100
1000
,
0100
0000
0010
0100
,
1000
0001
0100
0010
,
0100
0000
0001
1000
,
0100
0010
0001
1000
,
0010
1000
0100
0000
,
0110
0000
2002
0000
,
3003
0000
2000
3200
,
0302
0203
2300
3200
,
0302
0203
1300
0001
,
0010
0001
1000
0100
,
0010
0001
0200
0010
,
0310
0100
0001
1000
,
1001
0000
0001
0010
,
0100
1000
0010
0100
,
0001
0100
0020
0100
,
0130
0010
1000
0001
,
1001
0000
1000
0100
,
1000
0001
0100
0001
,
1000
0100
0010
0001
,
0010
1000
0010
0001
,
0100
0010
0100
0001
,
0010
0100
1000
0000
,
1001
0000
0002
0203
,
2300
3200
0302
0203
,
2300
3200
0301
1000
,
0001
0010
0100
1000
,
0010
0100
0002
0010
,
0013
0001
0100
0010
,
1001
0000
1000
0010
,
0100
0001
0010
0100
,
1000
0001
0200
0000
,
0010
0000
0310
1000
,
0100
1000
0001
0010
,
0100
1000
0100
0000
,
0110
0000
0011
0000
,
0001
0200
0000
0010
,
0000
0310
0000
0001
,
1000
0001
1000
0000
,
1001
0000
1000
0100
,
1000
0100
0010
0001
,
0010
0001
1000
0100
,
0010
0001
0100
0010
,
0100
0000
0001
1000
,
0001
1000
0100
1000
,
0001
0010
0002
0000
,
1003
0001
1000
0001
1000
0000
0000
0000
,
0001
0000
0100
0000
,
1000
0000
0000
0000
,
0100
0001
0100
0001
,
0100
0010
1000
0001
,
0010
0100
1000
0001
,
0100
0010
0100
0001
,
1000
0100
1000
0001
,
0010
0100
1000
0010
,
0200
0000
0301
0010
,
0010
1000
0010
0010
,
0001
0010
0100
1000
,
0001
0100
0010
0000
,
1001
0000
1000
0100
,
1000
0001
0100
0001
,
1000
0100
0010
0001
,
0100
0010
1000
0010
,
0100
0000
0000
0001
,
0020
0000
0000
0100
,
0000
0130
0000
0010
,
0001
0100
0010
0000
,
0110
0000
0000
0010
,
1000
2000
0000
0100
,
0000
3100
0000
1000
,
0010
0100
0001
0000
,
1001
0000
0000
1000
,
0200
0000
0010
0310
,
0000
0100
1000
0001
,
0100
0000
0110
0000
,
0010
1000
0100
1000
,
0001
1000
0100
1000
,
0010
0100
0001
0010
,
0100
1000
0010
0000
,
2000
3200
0302
0203
,
2300
3200
0302
0203
,
1300
0001
0010
0001
,
1000
0010
0100
0001
,
0020
0100
0130
0010
,
0001
1000
1001
0000
,
0001
0010
0100
1000
,
0001
0100
0010
0100
,
0002
1000
1003
0001
,
0010
0100
1001
0000
,
1000
0100
1000
0001
,
0100
0001
1000
0100
,
0010
0001
0010
1000
,
0010
0001
0100
0010
,
1000
0100
1000
0001
,
0010
0000
1001
0000
,
0002
0203
2300
3200
,
0302
0203
2300
3200
,
0301
1000
0001
0010
,
0100
1000
0010
0100
,
0002
0010
0013
0001
,
0100
0010
1001
0000
,
1000
0010
0100
0001
,
0010
0100
1000
0001
,
0200
0000
0010
0000
,
0310
1000
0100
1000
,
0001
0010
0100
1000
,
0100
0000
0110
0000
,
0011
0000
0001
2000
,
0000
0010
0000
3010
,
0000
0001
1000
0001
,
1000
0000
1001
0000
,
1000
0100
1000
0100
,
0010
0001
0010
0001
,
1000
0010
0100
0001
,
0010
0100
1000
0001
,
0100
0010
0100
0010
,
0001
0010
1000
0010
,
0100
0000
0000
0000
0110
0000
0001
1000
,
0002
0003
0000
0000
;

//--------------- dance-single - ----------------
#NOTES:
     dance-single:
     :
     Hard:
     17:
     0,0,0,0,0:
0000
0000
0000
0000
,
0000
0000
0000
0000
,
0000
0000
0000
0000
,
0000
0000
0000
0000
,
0000
0000
0000
0000
,
0000
0000
0000
0000
,
0000
0000
0000
0000
,
0000
0000
0000
0000
,
0000
0000
0000
0000
,
0000
0000
0000
0000
,
0000
0000
0000
0000
,
0000
0000
0000
0000
,
1000
0200
0000
0301
,
0100
1000
0100
0010
,
0001
0200
0000
1300
,
0100
0001
0100
0010
,
1000
0002
0000
0013
,
1000
0010
0001
0010
,
0110
0000
0100
1001
,
0000
0000
1000
0000
0001
1000
0001
1000
,
0001
0100
0100
0001
,
0000
0020
0000
0130
,
1000
1000
0010
0100
,
0000
0002
0000
1003
,
0100
0100
0010
0001
,
1000
0000
0010
0100
0010
0000
1000
0000
,
0001
0000
0010
0100
1000
0000
0010
0100
,
0001
0000
1000
0100
,
0010
0100
1000
0001
,
1000
0100
0010
0001
,
0100
0010
0100
0001
,
0010
0100
1000
0010
,
0100
0010
1000
0001
,
1000
0100
0110
0000
,
1001
0000
0000
0000
1000
0000
0001
0010
,
0100
1000
0001
0100
,
0010
0100
0001
1000
,
0001
0100
0010
1000
,
0100
0010
0100
1000
,
0010
0100
0001
0010
,
0100
1000
0001
0100
,
0001
1000
1100
0000
,
0101
0000
0000
0000
1000
0001
1000
0001
,
1000
0010
0100
0001
,
0000
0100
0020
0000
,
1030
0100
0000
0100
,
0000
0001
0100
1000
,
0100
0010
0001
0000
,
0100
0010
2000
0000
,
3100
0010
0000
0010
,
0000
0001
0010
1000
,
0010
0001
0100
0000
,
0010
1000
0200
0000
,
1300
0001
0100
0100
,
0001
0100
0010
1000
,
0001
1000
0001
0000
0010
0000
0010
0000
,
0100
0100
1000
1000
,
0001
0001
0100
0100
,
0010
0010
1000
1000
,
0001
0001
0010
0100
,
0110
0010
0001
1000
,
1001
0001
0100
0000
,
0110
0000
2002
0000
,
3003
0000
0000
0000
0001
1000
0001
1000
,
0001
1000
0001
1000
0001
1000
0001
1000
,
0001
1000
0001
1000
0001
0000
0010
0000
,
0100
1000
0010
0100
,
0010
1000
0002
0100
,
0103
0002
0010
0013
,
0100
0000
1000
0000
0010
0000
0100
0001
,
0100
0000
0010
1000
0010
0000
0100
0000
,
0001
1000
0200
0010
,
0310
0002
1000
1003
,
0010
0000
0100
0000
0001
0000
1000
0100
,
1000
0000
0001
0100
0001
0000
0010
0000
,
0100
0000
1000
0000
0001
0000
0100
0010
,
0100
0000
0001
0000
0010
0000
0100
1000
,
0100
0010
0001
0100
,
0100
0000
0001
0000
1000
0001
0100
0000
,
0010
0000
0000
0000
0100
0010
0100
0010
,
0100
0010
0100
0010
0100
0010
0100
0010
,
0100
0010
0100
0010
0100
0000
0001
0000
,
1000
0100
0010
0001
,
0100
0010
2000
0100
,
3100
0020
0001
0031
,
0100
0000
0010
0000
1000
0000
0001
0010
,
0100
0000
1000
0010
0100
0000
0001
0000
,
1000
0100
0120
0000
,
0001
0000
0001
0000
0031
0000
0010
0100
,
1000
0010
0100
0001
,
0100
0000
1000
0000
0100
0000
0001
0100
,
0001
0000
0110
0000
,
0001
0000
1000
0000
0100
0000
0010
0100
,
1000
0001
0100
0010
,
0100
1000
0100
0001
,
0100
0000
0010
0000
1000
0000
0001
0100
,
0001
0000
1000
0100
1000
0000
0001
0010
,
0100
0000
1000
0010
0100
0000
0001
0000
,
0010
0001
1000
0001
,
0010
0100
0210
1000
,
1000
1300
0100
0010
,
0001
0000
1000
0000
0010
1000
0010
1000
,
0010
0100
0001
1000
0010
0000
0000
0000
,
0200
0000
0301
0010
,
0200
0000
0000
0000
,
0301
0100
1000
0001
,
1000
0010
0100
0001
,
0010
1000
0010
0001
,
0100
1000
0100
0001
,
0010
0100
1000
0010
,
0100
1000
0100
0001
,
0020
0000
0000
0000
0130
1000
0100
0000
,
0010
0000
0001
1000
0001
0000
0010
0000
,
0100
1000
0010
0100
,
0001
0010
1000
0010
,
0002
0000
0000
0000
0103
0010
0100
0000
,
0001
0000
0010
0100
0010
0000
0001
0000
,
1000
0010
0100
1000
,
0100
0001
0100
0010
,
2000
0000
3000
0100
,
1100
0000
0001
0010
,
0000
1000
0010
0001
,
0010
0000
0100
1000
0001
0000
0100
0000
,
0020
0000
0030
1000
,
1010
0000
0001
0100
,
0000
1000
0100
0001
,
0100
0000
0010
1000
0002
0000
0003
0000
,
0020
0000
0030
0001
,
0011
0000
0001
0100
,
0010
1000
0100
1000
,
0001
0010
1000
0010
,
0001
0000
0100
0000
0010
0100
0010
0000
,
1000
0000
0100
0000
1000
0001
1000
0000
,
0010
1000
0010
1000
0001
0100
0010
0000
,
1000
0000
0100
0010
0001
0000
0000
0000
,
1000
0001
1000
0001
1000
0001
1000
0001
,
1000
0001
1000
0001
1000
0001
1000
0001
,
1000
0010
0100
0001
,
0010
0100
0010
0001
,
2000
0100
3100
2000
,
0010
3010
0100
0001
,
0010
0000
0100
1000
0100
0000
0010
0001
,
0010
0100
1000
0001
,
0200
0010
0310
2000
,
0001
3001
0010
0100
,
1000
0000
0001
0100
0001
0000
1000
0100
,
1000
0010
0100
0001
,
1000
0000
0100
0010
0100
0000
1000
0000
,
0010
0000
0100
0001
0100
0000
0010
0000
,
1000
0000
0100
0010
0001
0000
1000
0000
,
0010
0100
0001
0000
1000
0000
0000
0000
,
0100
0010
0100
0010
0100
0010
0100
0010
,
0100
0010
0100
0010
0100
0010
0100
0010
,
0100
1000
0001
0100
,
0010
1000
0100
0010
,
0002
0100
0103
0020
,
1000
1030
0100
0010
,
0001
0000
1000
0010
0100
0000
0001
0010
,
0100
1000
0001
0100
,
0120
0000
1000
1000
,
1030
0000
0010
0100
0001
0000
0010
0000
,
0100
1000
0100
0001
,
0100
0000
1000
0100
1000
0000
0010
0000
,
0110
0000
1000
0001
,
0100
0000
0010
0100
0001
0000
1000
0000
,
0100
0010
0100
0001
,
0100
1000
0100
0010
,
0001
0000
1000
0100
1000
0000
0001
0100
,
0001
0000
1000
0010
0100
0000
0001
0010
,
0100
1000
0010
1000
,
0001
1000
0010
0100
,
0210
0001
0001
0301
,
0100
0010
1000
0001
,
0010
0001
0010
0100
1000
0100
1000
0001
,
0200
0300
0000
0000
;
