#VERSION:0.83;
#TITLE:Free Bird;
#SUBTITLE:;
#ARTIST:Mat Weasel Busters;
#TITLETRANSLIT:;
#SUBTITLETRANSLIT:;
#ARTISTTRANSLIT:;
#GENRE:;
#CREDIT:;
#MUSIC:Free Bird.ogg;
#BANNER:Free Bird-bn.png;
#BACKGROUND:Free Bird-bg.png;
#CDTITLE:laserlight-cdtitle.png;
#SAMPLESTART:66.000;
#SAMPLELENGTH:17.438;
#SELECTABLE:YES;
#OFFSET:0.000;
#BPMS:0.000=160.000
,124.000=80.000
,126.000=160.000
,133.000=80.000
,133.500=160.000
,139.000=320.000
,142.000=160.000
,156.000=80.000
,157.500=160.000
,169.500=80.000
,171.500=160.000
,184.000=80.000
,186.000=160.000
,213.000=80.000
,215.000=160.000
;
#STOPS:;
#BGCHANGES:;
#FGCHANGES:;

//--------------- dance-single - ----------------
#NOTEDATA:;
#STEPSTYPE:dance-single;
#DESCRIPTION:;
#DIFFICULTY:Beginner;
#METER:3;
#RADARVALUES:0,0,0,0,0;
#NOTES:
0000
0000
0000
0000
,
0000
0000
0000
0000
,
0000
0000
0000
0000
,
0000
0000
0000
0000
,
0000
0000
0000
0000
,
0000
0000
0000
0000
,
0000
0000
0000
0000
,
0000
0000
0000
0000
,
1000
0000
0000
0000
,
0001
0000
0000
0000
,
0100
0000
0010
0000
,
0100
0000
0001
0000
,
1000
0000
0000
0000
,
0100
0000
0000
0000
,
0010
0000
0001
0000
,
1000
0000
0010
0000
,
0100
0000
0000
0000
,
0001
0000
0000
0000
,
0010
0000
0000
0000
,
0100
0000
0000
0000
,
1000
0000
0000
0000
,
0010
0000
0000
0000
,
0100
0000
0000
0000
,
0010
0000
0000
0000
,
1000
0001
0010
0000
,
0000
0000
0000
0000
,
0100
0100
1000
0000
,
0000
0000
0000
0000
,
0010
0000
0100
0000
,
0010
1000
0001
0010
,
0100
0000
1000
0000
,
0000
0000
0001
0000
,
0000
0000
0000
0000
,
0000
0000
0000
1000
0000
0000
0000
0000
,
0000
0000
0000
0000
,
0000
0000
0000
0000
,
0000
0001
0000
0000
,
0000
0100
0000
0010
,
0000
1000
0000
0001
,
0000
0000
0000
0010
0000
0000
0000
0100
,
0000
0000
0000
1000
0000
0000
0000
0001
,
0000
0000
0000
0100
0000
0000
0000
0010
,
0000
0000
0000
1000
0000
0000
0000
0001
,
0000
0000
0000
0010
0000
0000
0000
0100
,
0000
0000
0000
0010
0000
0000
0000
0001
,
0000
0000
0000
0100
0000
0000
0000
0000
,
0000
0000
0000
0000
,
0000
0000
0000
0100
0000
0000
0000
0000
,
0000
0000
0000
0010
0000
0000
0000
0000
,
0000
0000
0000
0000
,
0000
0000
0000
0001
0000
0000
0000
0000
,
0000
0000
0000
0100
0000
0000
0000
0000
,
0000
0000
0000
0010
0000
0000
0000
0000
,
0000
0000
0000
0000
0000
0000
0000
1000
,
0000
0001
0000
0100
0000
0000
0000
0010
,
0000
0000
0000
1000
0000
0000
0000
0100
,
0000
0000
0000
0010
0000
0000
0000
0001
,
0000
0000
0000
0000
0000
0000
0000
0100
,
0000
0010
0000
1000
0000
0000
0000
0001
,
0000
0000
0000
0010
0000
0000
0000
0100
,
0000
0000
0000
0010
0000
0000
0000
0001
,
0000
0000
0000
0000
0000
0000
0000
0100
,
0000
0000
0000
0010
0000
0000
0000
1000
,
0000
0001
0000
0010
0000
0000
0000
0100
,
0000
0000
0000
0010
0000
0000
0000
0001
,
0000
0000
0000
0100
0000
0000
0000
0010
,
0000
1000
0000
0010
0000
0000
0000
0100
,
0000
0000
0000
0001
0000
0000
0000
0010
,
0000
0000
0000
0100
0000
0000
0000
0000
,
0000
0000
0000
0000
0000
0000
0000
1000
,
0000
1000
0000
0000
0000
0000
0000
0001
,
0000
0001
0000
0000
0000
0000
0000
0100
,
0000
0000
0000
0010
0000
0000
0000
1000
,
0000
0000
0000
0001
0000
0000
0000
0010
,
0000
0010
0000
0000
0000
0000
0000
0100
,
0000
0100
0000
0000
0000
0000
0000
1000
,
0000
0000
0000
0001
0000
0000
0000
1000
,
0000
0000
0000
0001
0000
0000
0000
1000
,
0000
0010
0000
0000
0000
0000
0000
0100
,
0000
0001
0000
0000
0000
0000
0000
0010
,
0000
0000
0000
0100
0000
0000
0000
1000
,
0000
0000
0000
0010
0000
0000
0000
0100
,
0000
0001
0000
0000
0000
0000
0000
0100
,
0000
0010
0000
0000
0000
0000
0000
1000
,
0000
0000
0000
0100
0000
0000
0000
0010
,
0000
0000
0000
0001
0000
0000
0000
0100
,
0000
0010
0000
1000
0000
0001
0000
0010
,
0000
0100
0000
1000
0000
0010
0000
0100
,
0000
0010
0000
1000
0000
0001
0000
0010
,
0000
0100
0000
0010
0000
0001
0000
0100
,
0000
0010
0000
0100
0000
0001
0000
0010
,
0000
0100
0000
1000
0000
0010
0000
0100
,
0000
0010
0000
1000
0000
0100
0000
0010
,
0000
0001
0000
0100
0000
0010
0000
1000
,
0000
0100
0000
0010
0000
0001
0000
0100
,
0000
0010
0000
1000
0000
0010
0000
0100
,
0000
0001
0000
0010
0000
0100
0000
1000
;

//--------------- dance-single - ----------------
#NOTEDATA:;
#STEPSTYPE:dance-single;
#DESCRIPTION:;
#DIFFICULTY:Easy;
#METER:8;
#RADARVALUES:0,0,0,0,0;
#NOTES:
0000
0000
0000
0000
,
0000
0000
0000
0000
,
0000
0000
0000
0000
,
0000
0000
0000
0000
,
0000
0000
0000
0000
,
0000
0000
0000
0000
,
0000
0000
0000
0000
,
0000
0000
0000
0000
,
0001
1000
0010
0100
,
0010
1000
0100
0010
0001
0000
0100
0010
,
1000
0100
0010
0001
,
0100
0010
1000
1001
,
1000
0001
0010
0100
,
0010
0001
0100
0010
1000
0000
0100
0010
,
0001
0100
0010
1000
,
0100
0010
0001
1001
,
0100
0010
1000
0000
,
1000
0010
0100
0001
0010
0000
0001
0100
,
0010
1000
0001
0010
,
0100
0000
1000
0000
0010
0100
0010
1000
,
0001
0000
0010
0000
0100
0000
1000
0010
,
1000
0000
0100
0000
0010
0000
0001
0010
,
0001
0100
0010
1000
,
0001
0010
0100
1000
,
0010
0100
0001
0000
0100
0000
0010
0000
,
1000
0001
0010
0000
0100
0000
0000
0000
,
1000
0000
0010
0000
0100
0000
0001
0100
,
0010
1000
0100
0010
0001
0000
0000
0000
,
0001
0100
0010
1000
,
0001
0010
0100
0010
0001
0000
0100
0000
,
0010
1000
0010
0100
,
0000
0001
0010
0000
0001
0000
1000
0000
,
0001
0100
0001
0000
,
1000
0000
0100
0000
0000
0001
0000
1000
,
0000
0100
0010
0001
1000
0000
0000
0000
,
0000
0000
0000
0000
,
0000
0100
0001
1000
,
0010
0100
0010
1000
,
0100
0000
0010
0000
0001
0000
0100
0010
,
0100
0000
0000
0001
0000
0010
0100
0010
,
0001
0100
0000
0010
1000
0010
0100
0001
,
0010
0100
0000
0010
0000
0001
0000
0100
,
0010
1000
0000
0000
0000
0000
0000
0100
,
0000
0010
0000
1000
0100
0010
0000
0001
,
0010
0001
0000
0100
0010
0100
0000
1000
,
0000
0001
0000
0010
0100
1000
0000
0000
,
0020
0000
0000
0000
0000
0000
0000
0000
0000
0000
0000
0000
0000
0000
0000
0000
0000
0000
0000
0000
0000
0000
0000
0000
0000
0000
0000
0000
0000
0000
0000
0000
0000
0000
0000
0000
0000
0000
0000
0000
0000
0000
0000
0000
0000
0000
0000
0000
0000
0000
0000
0000
0000
0000
0000
0000
0000
0000
0000
0000
0000
0000
0000
0000
0000
0000
0000
0000
0000
0000
0000
0000
0000
0000
0000
0000
0000
0000
0000
0000
0000
0000
0000
0000
0000
0000
0000
0000
0000
0000
0000
0030
0000
0000
0000
0000
0000
0000
0000
0000
0000
0000
0000
0000
0000
0000
0000
0000
0000
0000
0000
0000
0000
0000
0000
0000
0000
0000
0000
0000
0000
0000
0000
0000
0000
0000
0000
0000
0000
0000
0000
0000
0000
0000
0000
0000
0000
0000
0000
0000
0000
0000
0000
0000
0000
0000
0000
0000
0000
0000
0000
0000
0000
0000
0000
0000
0000
0000
0000
0000
0000
0000
0000
0000
0000
0000
0000
0000
0000
0000
0000
0000
0000
0000
0000
0000
0000
0000
0000
0000
0000
0000
0000
0000
0000
0000
0000
0000
0000
0000
0000
0000
,
0000
0000
0000
1000
0000
0000
0000
0000
,
0000
0000
0000
0001
0000
0000
0000
0000
,
0000
0000
0000
0010
0000
0000
0000
0000
,
0000
0000
0000
0100
0000
0000
0000
0000
,
0000
0000
0000
1000
0000
0000
0000
0000
,
0000
0000
0000
0010
0000
0000
0000
0000
,
0000
0000
0000
0000
0000
0000
0000
0100
,
0000
0001
0000
0010
0000
0100
0000
0010
,
0001
0100
0010
1000
0000
0001
0010
0100
,
1000
0000
0010
0100
0000
0001
0010
0000
,
0100
1000
0000
0000
0001
0010
0100
0010
,
0000
0001
0000
0100
0000
0010
1000
0100
,
1000
0010
0100
0010
1000
0000
0000
0100
,
0010
0000
0001
1000
0000
0010
0100
0000
,
0100
0001
0000
0000
0000
0000
0000
0010
,
0000
0100
0000
1000
0000
0001
0100
0001
,
0100
0001
0010
0100
0000
1000
0010
1000
,
0010
0000
1000
0100
0000
0100
0010
0000
,
0010
0001
0000
0000
0000
0000
0100
0001
,
0000
0010
0000
0100
0000
1000
0010
1000
,
0000
0100
0000
0010
0000
0001
0100
0010
,
1000
0000
0100
0010
0000
0010
0001
0000
,
0001
0100
0000
0000
0000
0000
0000
0010
,
0000
0100
0000
0001
0000
0010
0000
0100
,
0000
0010
0000
0001
0000
0100
0000
0010
,
0000
0100
0000
0001
0000
0010
0000
0100
,
0000
1000
0000
0000
0000
0000
0000
1000
,
0001
0000
0010
0100
0000
0100
1000
0000
,
1000
0010
0000
0100
0001
0000
0010
0001
,
0000
0010
0100
0000
1000
0001
0000
0100
,
0010
1000
0100
0000
0000
0000
0000
0010
,
0001
0000
0001
1000
0000
1000
0010
0000
,
0100
0010
0000
1000
0001
0010
0100
1000
,
0000
0001
0000
0100
0000
0010
0000
1000
,
0000
0001
0000
0010
0000
0100
1000
0100
,
0010
0001
0100
0010
0000
0000
0000
1000
,
0001
1000
0100
0010
0000
0000
0000
0010
,
0001
0010
0000
0100
1000
0010
0000
0100
,
0001
0100
0010
0100
0001
0010
0100
1000
,
0000
0010
0000
0100
0000
0001
0000
0100
,
0000
0010
0000
1000
0000
0100
0000
0010
,
0000
0001
0010
0100
0000
1000
0001
0100
,
0000
0010
1000
0100
0000
0010
0001
0100
,
0000
0001
0000
0010
0000
0100
0000
1000
,
0000
0010
0100
0010
0000
1000
0000
0100
,
0000
0010
0001
0010
0000
0100
0000
1000
,
0010
0100
0010
1000
0100
0010
0000
0001
,
0000
1000
0010
0100
0000
0001
0000
0010
,
0000
0100
0010
0001
0000
0100
0000
0010
,
0000
1000
0010
0100
0000
0001
0000
0010
;

//--------------- dance-single - ----------------
#NOTEDATA:;
#STEPSTYPE:dance-single;
#DESCRIPTION:;
#DIFFICULTY:Medium;
#METER:12;
#RADARVALUES:0,0,0,0,0;
#NOTES:
0000
0000
0000
0000
,
0000
0000
0000
0000
,
0000
0000
0000
0000
,
0000
0000
0000
0000
,
0000
0000
0000
0000
,
0000
0000
0000
0000
,
0000
0000
0000
0000
,
0000
0000
0000
0000
,
1000
0001
0100
0010
,
0100
0001
0010
0100
1000
0000
1000
0010
,
0100
0001
0000
0001
0010
0000
0010
0100
,
0000
0100
2000
0000
3000
1000
0010
0100
,
0010
0000
1000
0000
0100
0000
0010
0001
,
0100
0001
0010
1000
0010
0001
0100
1000
,
0100
0001
0000
0001
0010
0000
0010
0100
,
0000
0100
1000
0000
0000
0000
0000
0000
,
0010
0000
0100
0000
0001
0000
1000
0100
,
0001
0100
1000
0010
0100
0000
0001
0010
,
0100
0010
0000
0001
0100
0000
0100
0010
,
0000
0010
1000
0000
0000
0100
0010
0100
,
1000
0000
0010
0000
0100
0000
0001
0010
,
0001
0100
0010
0100
0001
0000
0010
0100
,
0010
0001
0000
0100
0010
0000
0010
1000
,
0000
1000
0100
0000
0000
0000
0000
0000
,
0010
0100
1000
0010
0100
0010
1000
0100
,
0010
0100
1000
0010
0100
0001
0000
0000
,
0011
0000
1001
0000
0101
0000
1000
0010
,
0100
0001
0010
0100
1000
0000
0000
0000
,
1000
0010
0000
0010
0100
0000
0100
0001
,
0000
0001
0010
0100
1000
0010
0100
0010
,
1000
0001
0010
0100
0010
0000
0001
0000
,
0000
0100
0010
0000
1000
0000
0001
0000
,
1010
0000
1001
0000
1000
0100
0010
0000
,
0001
0100
0010
0000
0000
1000
0000
0001
,
0000
0010
0100
1000
0001
0100
0010
0000
,
0000
0000
0000
0100
,
0000
0000
0000
0000
0010
0000
0000
0000
1000
0000
0001
0010
0001
0000
1000
0000
,
0010
0000
0100
0000
0001
0000
1000
0100
,
0010
0000
0011
0000
1001
0000
1000
0010
,
0100
0000
0000
0001
0000
0010
0100
1000
,
0010
0100
0000
0001
0010
0001
0100
0010
,
0100
0001
0000
0010
0000
0100
1000
0010
,
0100
0000
0001
0000
0000
0000
0010
0100
0010
0000
0001
0000
1000
0000
0010
0000
,
0000
0100
0000
0001
0010
0001
0000
0100
,
0010
1000
0010
0100
0001
0010
0000
0100
,
0000
0010
0000
0001
1000
0010
0000
0000
,
0100
0001
1000
0001
1000
0001
1000
0001
0000
0000
0000
0000
0000
0000
0000
0000
,
0000
0000
0000
0101
0000
0000
0000
0000
,
0000
0000
0000
0110
0000
0000
0000
0000
,
0000
0000
0000
1100
0000
0000
0000
0000
,
0000
0000
0000
1001
0000
0000
0000
0000
,
0000
0000
0000
1010
0000
0000
0000
0000
,
0000
0000
0000
0101
0000
0000
0000
0000
,
0000
0000
0000
0000
0000
0000
0010
0001
1000
0010
0000
0000
0000
0000
1000
0000
,
0000
0001
0000
0010
0000
0100
0000
0010
,
0001
0100
0010
1000
0000
1000
0100
0010
,
0001
0000
0001
0100
0000
0100
0010
0000
,
0010
2000
0000
3000
1000
0100
0010
0100
,
0000
1000
0000
0010
0000
0100
0001
0010
,
0001
0100
1000
0100
0001
0010
1000
0010
,
0001
0000
0001
0100
0000
0100
0010
0000
,
0010
1000
0000
0000
0000
0000
0000
0100
,
0000
0010
0000
0001
0000
1000
0010
0001
,
0010
1000
0100
0010
0000
0001
0100
0010
,
0100
0000
0001
0010
0000
0010
0100
0000
,
0100
1000
0000
0000
0010
0100
0010
1000
,
0000
0100
0000
0010
0000
0001
0100
0001
,
0010
0100
0010
0001
0000
0100
0010
0100
,
0001
0000
0010
0100
0000
0100
1000
0000
,
1000
0010
0000
0000
0000
0000
0000
0100
,
0010
1000
0100
0010
0100
1000
0010
0100
,
0010
1000
0100
0010
0001
0000
0000
0101
,
0000
1001
0000
0011
0000
1000
0100
0010
,
0001
0100
0010
1000
0010
0100
0001
1000
,
0100
0000
0100
0010
0000
0010
0001
0000
,
0001
0100
0010
1000
0100
0010
0100
1000
,
0001
0100
0010
0100
0001
0010
0100
0010
,
0001
0100
0010
0100
0001
0010
0100
1000
,
0001
0010
0001
1000
0010
0100
0000
0001
,
0010
0100
0010
0001
1000
0010
0000
0000
,
0100
1000
0001
0010
,
0100
0000
1000
0000
0010
0100
0001
0010
,
0100
0000
0010
0000
0001
0000
1000
0000
0010
0100
0010
0000
1000
0000
0100
0000
,
0010
0000
0001
0000
0010
0000
0100
0000
1000
0010
1000
0000
0100
0000
0010
0000
,
0001
0100
0000
0010
1000
0100
0000
0010
,
1000
0010
0001
0010
0001
0100
0010
1000
,
0000
0100
0010
0100
0000
1000
0000
0010
,
0000
0100
0001
0010
0000
0100
0000
0010
,
0000
0001
0100
0010
0000
1000
0000
0001
,
0000
0010
0001
0100
0000
0010
1000
0001
,
0000
1000
0100
0010
0000
0001
0000
0100
,
0000
0010
1000
0010
0000
0100
0000
0001
,
0000
0010
0001
0010
0000
0100
0000
0010
,
0000
0001
0100
0000
0010
1000
0000
0100
,
0000
1000
0010
0100
0000
0001
0000
0010
,
0000
0100
1000
0010
0000
0100
0000
0010
,
0000
1000
0001
0010
0000
0100
0000
0010
;

//--------------- dance-single - ----------------
#NOTEDATA:;
#STEPSTYPE:dance-single;
#DESCRIPTION:;
#DIFFICULTY:Hard;
#METER:15;
#RADARVALUES:0,0,0,0,0;
#NOTES:
0000
0000
0000
0000
,
0000
0000
0000
0000
,
0000
0000
0000
0000
,
0000
0000
0000
0000
,
0200
0000
0000
0300
,
0002
0000
0000
0003
,
2000
0000
0000
3000
,
0000
0000
0000
0000
,
0010
1001
0010
0101
,
0010
0001
0100
0001
0010
0000
0001
0100
,
0010
1000
0000
0010
0100
0000
0010
1000
,
0000
0010
0100
0000
0010
1000
0100
0010
,
0001
0000
0010
0000
0110
0000
1000
0010
,
0100
0010
1000
0001
0010
0000
0010
0001
,
0100
0010
0000
0100
0001
0000
0100
0010
,
0000
0100
0001
0010
1000
0010
0001
0100
,
1010
0000
1100
0000
0101
0000
0010
0001
,
0100
0010
1000
0010
0100
0000
0010
1000
,
0100
0010
0000
0001
0100
0000
0100
0010
,
0000
0010
1000
0000
0100
0010
0001
1000
,
0101
0000
0011
0000
1100
0000
0100
1000
,
0010
0100
0001
0100
0010
0000
0100
0001
,
0010
0100
0000
1000
0010
0000
0010
0100
,
0000
0100
0001
1000
0100
0001
0100
1000
,
0020
0130
0001
0010
0001
0100
0001
0010
,
0100
1000
0001
0200
0300
0000
0000
0000
,
1010
0000
1001
0000
0011
0001
2000
3010
,
0100
0010
1000
0100
1000
0000
0000
0000
,
0002
0000
0203
0000
0000
0000
0302
0000
0013
0100
1000
0000
0010
0000
1000
0000
,
0001
0010
0001
0100
0010
1000
0100
1000
,
0010
0200
0000
0301
0020
0000
0230
0300
,
0000
0001
1000
0010
0100
0000
0000
0000
0001
0000
0000
0000
1000
0000
0001
0010
,
0001
0000
0100
0000
0010
0000
1000
0001
1000
0100
0000
0010
0001
0000
0100
0010
,
1000
0010
0100
0000
0000
0000
0001
0000
0000
0000
0010
0000
0100
1000
0010
0000
,
1000
0000
0200
0000
0310
0001
0100
0000
0010
0000
0000
0000
0000
0000
0000
0000
,
0200
0000
0301
0000
0000
0000
0010
0001
,
0100
0000
0000
0000
0001
0000
0010
0000
0100
0000
0000
0000
1000
0010
1000
0000
,
0100
0000
0010
0001
1000
0000
0010
0000
0100
0000
0000
0000
0002
0000
0000
0000
,
2003
0000
3001
0100
0010
0000
1000
0000
0010
0000
0100
0001
0100
0000
0010
1000
,
0100
0010
0001
1000
0010
0000
0200
0000
0000
0000
0302
0000
1003
0100
0010
0000
,
0001
0000
0100
0000
0010
1000
0010
0000
0100
0001
0000
0001
0010
0000
0100
0000
,
1000
0000
0010
0000
0000
0000
0200
0000
0000
0000
0302
0000
1003
0100
0010
0000
,
0001
0000
1000
0000
0010
1000
0010
0000
0100
0000
0000
0001
0010
0000
0200
0000
,
0000
0000
1300
0000
0100
0010
0001
0000
1000
0000
0001
0000
0010
0001
0010
0000
,
0100
1000
0000
0010
0100
0000
0001
0010
0001
0000
0100
0000
0000
0000
0020
0000
,
0000
0000
2030
0000
3001
0010
0100
0000
1000
0000
0001
0000
0000
0000
0000
0000
,
1000
0100
0010
0001
0100
0010
2000
0001
0000
0000
0000
0000
0000
0000
0000
0000
,
0000
0000
0000
3002
0000
0000
0000
0000
,
0000
0000
0000
0203
0000
0000
0000
0000
,
0000
0000
0000
0320
0000
0000
0000
0000
,
0000
0000
0000
2030
0000
0000
0000
0000
,
0000
0000
0000
3200
0000
0000
0000
0000
,
0000
0000
0000
0320
0000
0000
0000
0000
,
0000
0000
0000
0000
0030
0000
0001
0010
0100
1000
0010
0100
0001
0000
0010
0000
,
0000
1100
0000
0001
0000
0011
0000
0100
,
0001
0010
0001
0100
0000
0001
0010
0100
,
1000
0000
0010
0100
0000
0010
1000
0000
,
0010
0100
0000
0100
0001
0010
0001
0100
,
0000
0010
0000
1010
0000
1000
0100
0010
,
0100
1000
0001
0100
0010
0100
0001
0010
,
0100
0000
0010
0001
0000
0010
0100
0000
,
0010
0001
0100
2000
0000
3020
0000
0031
,
0000
0101
0000
0011
0000
0100
0001
0010
,
0100
1000
0100
0010
0000
0100
1000
0010
,
0100
0000
0001
0010
0000
0001
0100
0000
,
0001
0010
0000
0000
0100
1000
0001
1001
,
0000
0011
0000
1100
0000
0010
1000
0100
,
0010
0001
1000
0010
0000
0100
0001
1000
,
0100
0000
0100
0010
0000
0001
1000
0010
,
0100
0010
1000
0002
0010
2003
0100
3001
,
0010
0001
0010
1000
0010
1000
0010
0001
,
0100
1000
0100
1000
0100
0001
0100
0001
,
0100
1000
0000
0100
0001
0010
0000
0010
,
1000
0000
0001
0000
0010
0000
0001
0000
1000
0000
0010
0000
0100
0000
0010
1000
,
0010
0000
0100
0000
0010
0000
1000
0000
0010
0000
1000
0000
0100
0000
0010
0001
,
0010
0000
0100
0000
0010
0000
0001
0000
0010
0000
0001
0000
0100
0000
0010
0100
,
0001
0000
0010
0100
1000
0000
0010
0100
0010
0000
1000
0001
1000
0000
0100
0010
,
0100
0000
1000
0010
0100
0000
0001
0000
0010
0000
0100
0000
0010
0000
0001
0100
,
0010
1000
0010
0100
0001
1000
0001
0000
0000
0000
1001
0000
0000
0000
1000
0010
,
0100
0001
0100
0010
1000
0001
1000
0000
0000
0000
1010
0000
0000
0000
0100
0000
,
0001
0011
0000
0100
1000
1010
0000
1000
,
0001
0000
0010
0000
0100
0000
0010
0000
0001
0000
0100
0000
0010
0000
1000
0100
,
1000
0100
1000
0100
1000
0100
1000
0000
0000
0000
1001
0000
0000
0000
0001
0100
,
0001
0100
0001
0100
0001
0100
0001
0000
0000
0000
0011
0000
0000
0000
1000
0000
,
0010
0100
0000
0001
0010
0100
0000
1000
,
0001
1000
0100
1000
0001
0100
0010
0100
,
0000
0001
0010
0100
0000
1000
0000
0001
,
0000
0100
0010
1000
0000
0100
0000
0010
,
0000
0001
1000
0010
0000
0100
0000
0001
,
0000
0010
0001
0100
0000
0010
1000
0100
,
0000
0010
0001
1000
0000
0010
0000
0100
,
0000
0001
0010
0001
0000
0100
0000
0010
,
0000
1000
0100
1000
0000
0001
0000
0010
,
0001
0010
0000
0000
1000
0010
0001
0100
0010
0000
1000
0000
0000
0000
0001
0000
,
0000
1000
0010
0100
0000
0001
0000
1000
,
0000
0100
0010
0100
0000
1000
0000
0010
,
0000
0100
0001
0010
0000
0100
0000
1000
;
