#TITLE:너로피어오라;
#SUBTITLE:;
#ARTIST:달의하루;
#TITLETRANSLIT:Flowering;
#SUBTITLETRANSLIT:;
#ARTISTTRANSLIT:Dareharu;
#GENRE:;
#CREDIT:;
#MUSIC:Flowering.ogg;
#BANNER:Flowering.png;
#BACKGROUND:Flowering-bg.png;
#CDTITLE:cdtitle.png;
#SAMPLESTART:57.137;
#SAMPLELENGTH:15.000;
#SELECTABLE:YES;
#OFFSET:0.000;
#BPMS:0.000=148.000;
#STOPS:;
#BGCHANGES:0.000=Flowering.avi=1.000=1=0=0=StretchNoLoop==CrossFade==;
#FGCHANGES:;

//--------------- dance-single - KAYSTAR ----------------
#NOTES:
     dance-single:
     KAYSTAR:
     Beginner:
     2:
     0,0,0,0,0:
0000
0000
0000
0000
,
0000
0000
0000
0000
,
0000
0000
0000
0000
,
0000
0000
0000
0000
,
1000
0000
0100
0000
,
1000
0000
0000
0000
,
0001
0000
0100
0000
,
0001
0000
0000
0000
,
1000
0000
0010
0000
,
1000
0000
0000
0000
,
0001
0000
0010
0000
,
0001
0000
0000
0000
,
2000
0000
0000
0000
,
3000
0000
0000
0000
,
0020
0000
0000
0000
,
0030
0000
0000
0000
,
0200
0000
0000
0000
,
0300
0000
0000
0000
,
0002
0000
0000
0000
,
0003
0000
0000
0000
,
2000
0000
3000
0000
,
0100
0000
0010
0000
,
0002
0000
0003
0000
,
0100
0000
0010
0000
,
2000
0000
3000
0000
,
0100
0000
0010
0000
,
0002
0000
0000
0000
,
0003
0000
0000
0000
,
1000
0000
0000
0000
,
0010
0000
0000
0000
,
0100
0000
0000
0000
,
0001
0000
0000
0000
,
1000
0000
0000
0000
,
0100
0000
0000
0000
,
0010
0000
0000
0000
,
0001
0000
0000
0000
,
1000
0000
0010
0000
,
0100
0000
0100
0000
,
0002
0000
0003
0000
,
2000
0000
3000
0000
,
0001
0000
0010
0000
,
0100
0000
0100
0000
,
2000
0000
3000
0000
,
0002
0000
0003
0000
,
1000
0000
1000
0000
,
0010
0000
0010
0000
,
0100
0000
0100
0000
,
0001
0000
0001
0000
,
2000
0000
3000
0000
,
0200
0000
0300
0000
,
0020
0000
0030
0000
,
0002
0000
0003
0000
,
1000
0000
1000
0000
,
0001
0000
0001
0000
,
0200
0000
0300
0000
,
0020
0000
0000
0000
,
0030
0000
0000
0000
,
1000
0000
0001
0000
,
0010
0000
0000
0000
,
0001
0000
1000
0000
,
0010
0000
0000
0000
,
1000
0000
0100
0000
,
0010
0000
0000
0000
,
0001
0000
0100
0000
,
0010
0000
0000
0000
,
1000
0000
1000
0000
,
0100
0000
0010
0000
,
0001
0000
0001
0000
,
0100
0000
0010
0000
,
1000
0000
1000
0000
,
0001
0000
0001
0000
,
0020
0000
0030
0000
,
0200
0000
0000
0300
;

//--------------- dance-single - KAYSTAR ----------------
#NOTES:
     dance-single:
     KAYSTAR:
     Easy:
     8:
     0,0,0,0,0:
0000
0000
0000
0000
,
0000
0000
0000
0000
,
0000
0000
0000
0000
,
0000
0000
0000
0000
,
0001
0000
0100
0000
0010
0000
1000
0001
,
1000
0100
0020
0032
,
1003
0010
0100
0001
,
2000
3200
0320
0031
,
1000
0000
0010
0000
0100
0000
0001
1000
,
0001
0010
0200
2300
,
3001
0100
0010
1000
,
0002
0000
2000
3003
,
2000
0000
3100
0010
,
0001
0100
0010
1000
,
0002
0000
0013
0100
,
1000
0010
0100
0001
,
2000
0000
3100
0010
,
0001
0001
1000
1000
,
0020
0000
0130
0000
,
0002
0000
0013
0100
,
1000
0001
0100
0001
,
1000
0000
0100
0010
0100
0000
0010
0000
,
0001
1000
0010
1000
,
0001
0000
0010
0100
0010
0000
0100
0000
,
2000
0000
3010
0100
,
0001
0001
1000
1000
,
0200
0000
0310
0000
,
2002
0000
0000
3003
,
0001
0000
0100
0000
0010
1000
0010
0000
,
2000
3200
0320
0032
,
1003
0000
0010
0000
0100
0001
0100
0000
,
0002
0023
0230
2300
,
3002
0000
0000
0000
0103
0010
1000
0000
,
0100
0100
0010
0010
,
0002
0000
0000
0000
1003
0010
0100
0001
,
0000
0000
0000
0000
,
1000
0100
1000
0000
0010
0000
0100
0000
,
0001
0010
0001
0000
0100
0000
0010
0000
,
1000
1000
0001
0001
,
0010
0100
0010
0100
2000
0000
0000
0000
,
3001
0100
0001
0000
0010
0000
0100
0000
,
1000
0010
1000
0000
0100
0000
0010
0000
,
0001
0001
1000
1000
,
0010
0100
0010
0100
0002
0000
0000
0000
,
1003
0100
1000
0000
0100
0010
0100
0000
,
0010
0001
0010
0000
0001
1000
0001
1000
,
0010
0100
0001
0000
0010
0100
1000
0000
,
0001
0100
0010
1000
0001
1000
0100
0010
,
0002
0203
0320
0030
,
2000
3200
0320
0030
,
0002
0000
0203
0000
,
0320
0000
2030
0000
,
3001
0010
0100
0000
1000
0000
0002
0000
,
1003
0010
0100
0000
0001
0000
2000
0000
,
3200
0000
0320
0000
,
0031
1000
2002
0000
,
3003
0000
0000
0002
,
1003
0000
0010
0000
0100
0001
0100
0000
,
0001
0000
0010
0000
0100
1000
0100
0000
,
1000
0000
0010
0000
0100
0001
0100
0000
,
0002
0023
0230
1300
,
0001
0000
0100
0000
0010
1000
0010
0000
,
1000
0000
0100
0000
0010
0001
0010
0000
,
0001
0000
0100
0000
0010
1000
0010
0000
,
2000
0000
0002
3003
,
1000
0100
0010
0000
0100
0010
0001
0000
,
1000
0000
0010
0000
0100
0001
0100
0000
,
0001
0010
0100
0000
0010
0100
1000
0000
,
0001
0000
0100
0000
0010
1000
0010
0000
,
1000
0100
0010
0000
0001
0100
0010
0000
,
1000
0000
0100
0000
0010
0100
0010
0000
,
0002
0203
0320
0030
,
2000
3200
0310
1001
;

//--------------- dance-single - KAYSTAR ----------------
#NOTES:
     dance-single:
     KAYSTAR:
     Medium:
     12:
     0,0,0,0,0:
0000
0000
0000
0000
,
0000
0000
0000
0000
,
0000
0000
0000
0000
,
0000
0000
0000
0000
,
1000
0001
0010
0001
1000
0010
0100
0001
,
1000
0100
0010
0100
2000
0000
0010
0000
,
3001
0010
0100
1000
0001
0100
0010
0000
,
2000
0000
0000
0010
0000
0000
0001
0000
0000
3100
0000
0000
0110
0000
0000
0000
,
0001
1000
0010
1000
0001
0010
0100
1000
,
0001
0100
0010
0100
0002
0000
0010
0000
,
1003
0010
0100
0001
1000
0100
0010
0000
,
0002
0000
0000
0103
0010
1000
0100
0010
,
0002
0000
0103
0010
,
2000
3200
0302
0203
,
2300
0000
3100
0010
,
0002
0203
2300
3200
,
0302
0000
0103
0010
,
1000
1000
0001
0001
,
0020
0000
0130
0000
,
1000
0000
0000
1000
0000
0000
1000
0000
0001
0000
0100
0000
0010
0000
1000
0000
,
0002
0000
0013
0100
1000
0000
0001
0100
,
0020
0001
0100
1000
,
2030
0000
3010
0100
0001
0000
1000
0100
,
0020
1000
0100
0001
,
0032
0000
0013
0100
1000
0000
0010
0100
,
0001
1000
0000
0001
1000
0000
0000
0000
0100
0010
0000
0100
0010
0000
0000
0000
,
0002
0203
0320
1030
,
0001
0000
0000
0001
0000
0000
0001
0000
1000
0000
0100
0000
0010
0000
0001
0000
,
2000
0000
0000
3010
0100
0000
0001
0000
,
1000
0100
0001
0000
0001
0100
1000
0000
,
0002
0000
0000
0013
0100
0000
1000
0000
,
0001
0100
1000
0000
1000
0100
0001
0000
,
2000
0000
0000
3010
0100
0000
0001
0000
,
1000
0100
0010
0100
1000
0010
0100
0001
,
0020
0000
0000
0000
0130
0000
0000
0000
1000
0000
0001
0000
1000
0001
1000
0001
,
0000
0000
0000
0000
,
2000
3020
0032
0023
0000
1030
0100
0010
,
0002
0203
2300
3200
0000
0301
0010
0100
,
1000
0000
0001
0100
0000
0000
0010
0000
1000
0000
0001
0010
0000
0000
0100
0000
,
1000
0000
0001
0100
0000
0000
0010
0000
2000
0000
0000
0000
3001
0000
0000
0000
,
0002
0023
2030
3020
0000
0031
0100
0010
,
2000
3200
0302
0203
0000
1300
0010
0100
,
0001
0000
1000
0100
0000
0000
0010
0000
0001
0000
1000
0010
0000
0000
0100
0000
,
0001
0000
1000
0100
0000
0000
0010
0000
0002
0000
0000
0000
0000
0000
0000
0000
,
1003
1000
0010
0010
0100
0100
0001
0001
,
0010
0010
0100
0100
1000
0010
0100
0001
,
0010
1000
0010
0001
0100
0010
1000
0100
,
0001
0100
1000
0010
0100
0001
0010
0100
,
2000
0000
0000
0000
3001
0000
0000
0000
0201
0000
0000
0310
0000
0000
1000
0000
,
0002
0000
0000
0000
1003
0000
0000
0000
1200
0000
0000
0310
0000
0000
0001
0000
,
2001
0000
3020
0000
,
0230
0000
0302
0000
,
1003
0100
0001
0100
1000
0100
0110
0000
,
0001
0100
1000
0100
0001
0100
0110
0000
,
2000
0000
0000
3020
0000
0000
0130
0000
0002
0000
0000
0023
0000
0000
0130
0000
,
0002
0000
0000
2003
0000
0000
3020
0000
0200
0000
0000
0000
0000
0000
0000
0000
,
0330
0000
0000
0000
0000
0000
2002
3003
,
0001
1000
0010
1000
0001
0010
0100
0000
,
1000
0001
0100
0001
1000
0100
0010
0000
,
0001
0100
1000
0100
0001
1000
0100
0010
,
0002
0000
0000
0010
0000
0000
1000
0000
0000
0103
0000
0000
0110
0000
0000
0000
,
1000
0100
0010
0001
0100
0010
1000
0000
,
0001
0010
0100
1000
0010
0100
0001
0000
,
1000
0100
0001
0100
1000
0001
0100
0010
,
2010
0001
3100
0110
,
0002
0103
2000
3100
0002
0103
0020
2030
,
0000
0000
3001
0000
0010
0000
0100
1000
0000
0001
0100
0000
0010
0000
0000
0000
,
2000
3100
0002
0103
2000
3100
0020
0032
,
0000
0000
1003
0000
0010
0000
0100
0000
0001
1000
0001
1000
0002
0003
0000
0000
,
2000
3100
0002
1003
0020
0031
2000
3020
,
0000
0000
0130
0000
0001
0000
1000
0100
0000
0010
0001
0000
1001
0000
0000
0000
,
0002
0203
0320
0230
2300
0000
3000
0002
,
0000
0023
0230
0320
2030
0000
3001
0000
;

//--------------- dance-single - KAYSTAR ----------------
#NOTES:
     dance-single:
     KAYSTAR:
     Hard:
     15:
     0,0,0,0,0:
0000
0000
0000
0000
,
0000
0000
0000
0000
,
0000
0000
0000
0000
,
0000
0000
0000
0000
,
2000
0000
3001
0000
0010
0000
0100
1000
0000
0100
1000
0000
0001
0000
0100
0010
,
2000
0000
3100
0000
0010
0000
0001
0000
0100
0001
0100
0001
0100
0000
0010
0000
,
2000
0000
3100
0000
0010
0000
0001
1000
0000
0001
1000
0000
0010
0000
0100
0001
,
2000
0000
3100
0010
0000
0100
0001
0000
0100
0010
0100
0000
1000
0000
0001
1000
,
0002
0000
1003
0000
0010
0000
0100
0001
0000
0100
0001
0000
1000
0000
0100
0010
,
0002
0000
0103
0000
0010
0000
1000
0000
0100
1000
0100
1000
0100
0000
0010
0000
,
0002
0000
0103
0000
0010
0000
1000
0001
0000
1000
0001
0000
0010
0000
0100
1000
,
0002
0000
0103
0000
0010
0000
0100
1000
0200
0000
0320
0000
0230
0000
0302
0000
,
2003
0000
0000
0000
0000
0000
3001
0000
0010
0000
0000
0100
0000
0000
1000
0000
,
0002
0000
0000
0103
0000
0000
0010
0000
1000
0000
0000
0000
2200
0000
3300
0000
,
0022
0000
0033
0000
0000
0000
1000
0000
0001
0000
0000
0100
0000
0000
0010
0000
,
2000
0000
0000
3100
0000
0000
0010
0000
0001
0000
0000
0000
0202
0000
0303
0000
,
2020
0000
3030
0000
0000
0000
0000
0000
0001
0000
0000
1000
0000
0000
0100
0000
,
0020
0000
0000
0031
0000
0000
0100
0000
0020
0000
0000
0000
1030
0000
0000
0000
,
2002
0000
0000
0000
0000
0000
3003
0000
0000
0000
0000
0001
0020
0000
0230
0000
,
1300
0000
0000
1001
0000
0000
0001
0000
1000
0001
1000
0001
1000
0001
1000
0000
,
0010
0000
0100
0000
0001
0000
1000
0000
0100
0000
0000
0100
0010
0000
0001
0000
,
0100
0000
0000
0100
0010
0000
1000
0000
0001
0000
0010
0001
0010
0000
0100
0000
,
2200
0000
3300
0000
1000
0000
0001
0000
0100
0000
0000
0100
0010
0000
1000
0000
,
0100
0000
0000
0100
0010
0000
0001
0000
1000
0000
0010
1000
0010
0000
0100
0000
,
0202
0000
0303
0000
0001
0000
1000
0000
0100
0000
0000
0100
0010
0000
0001
0000
,
1000
0010
0000
0100
0010
0000
0100
0000
0001
0010
0000
0100
0010
0000
0100
1000
,
0002
0000
0203
0000
0320
0000
1030
0001
,
0011
0000
0000
0110
0000
0000
1100
0000
1000
0000
0010
0100
0020
0000
0230
0000
,
0302
0000
0000
0000
0013
0000
0100
0000
1000
0000
0001
0100
0000
0010
0100
0000
,
0001
0000
0100
0010
0100
0000
0001
0000
1000
0000
0100
0000
0120
0000
0000
0000
,
0031
0000
0000
0000
1000
0000
0010
0100
0001
0000
1000
0100
0000
0010
0100
0000
,
1000
0000
0100
0010
0100
0000
1000
0000
0001
0000
0100
0010
0000
0100
0010
0000
,
2000
0000
0000
0000
3001
0000
0010
0100
1000
0000
0001
0100
0000
0010
1000
0000
,
0100
0000
0110
0000
0010
0000
0001
0000
1000
0000
0010
0100
0001
0000
1000
0000
,
0200
0000
0320
0000
0031
0000
0100
0000
0010
0000
1000
0001
1000
0001
1000
0001
,
0000
0000
0000
0000
,
1000
0001
0010
0001
1000
0000
0010
1000
0010
0000
0100
0000
0001
0000
1000
0000
,
0001
1000
0010
1000
0001
0000
0010
0001
0010
0000
0100
1000
0001
0000
0001
0000
,
1000
0000
0010
0100
0000
0100
0001
0000
1000
0000
0100
0010
0000
0010
0001
0000
,
1000
0000
0010
0100
0000
0010
0001
0000
0010
0100
0010
0000
2000
0000
0000
0000
,
3001
0010
0100
1000
0001
0000
0100
0001
0100
0000
0010
0000
1000
0000
0001
0000
,
1000
0100
0010
0001
1000
0000
0010
1000
0010
0000
0100
0001
1000
0000
1000
0000
,
0002
0000
0013
0100
0000
0100
0010
0000
2000
0000
3010
0100
0000
0100
0010
0000
,
0002
0000
1003
0010
0000
0100
0001
0000
0020
0000
0000
0000
0130
0000
0000
0000
,
1000
0001
0100
0001
1000
0001
0100
0000
0010
1000
0001
1000
0010
1000
0001
0000
,
1000
0100
0010
0001
1000
0100
0010
0000
0001
1000
0001
1000
0010
0100
0001
0000
,
1000
0100
1000
0100
0010
0100
0010
0100
0001
0100
0001
0100
0010
0100
0010
0100
,
1000
0000
0001
0100
0010
1000
0001
0000
0010
0100
0010
0100
1000
0001
0100
0010
,
1000
0000
0001
0000
1000
0000
0001
0000
0010
0000
0000
0021
0000
0000
0130
1000
,
0001
0000
1000
0000
0001
0000
1000
0000
1020
0000
0000
0230
0000
0000
0301
0000
,
2002
0000
0000
3003
0022
0000
0000
0033
,
2200
0000
0000
3300
2002
0000
0000
3003
,
0001
0100
0010
1000
0001
0000
0001
0100
0010
1000
0001
0010
0100
0000
0000
0000
,
1000
0010
0100
0001
1000
0000
1000
0010
0100
0001
1000
0100
0010
0000
0000
0000
,
0002
0000
0103
0010
0000
0010
0100
0000
2000
0000
3100
0010
0000
0010
0100
0000
,
0002
0000
1003
0100
0000
0010
0100
0000
0002
0000
0000
0000
0000
0000
0000
0000
,
1003
0000
0000
1010
0000
0000
0110
0000
0000
0011
0000
0000
2002
0000
3003
0000
,
1000
0000
0010
0100
0001
0000
1000
0000
0010
0100
0001
0000
0020
0000
0130
0000
,
1000
0000
0010
0100
0001
0000
1000
0000
0010
0100
0001
0000
0020
0000
0130
0000
,
1000
0000
0010
0100
0001
0000
1000
0000
0100
1000
0100
0000
0010
0000
0200
0000
,
0302
0000
0103
0010
0000
0100
1000
0000
0001
0100
0010
0000
2000
0000
0000
0000
,
3001
0000
0010
0100
1000
0000
0001
0000
0010
0100
1000
0000
0020
0000
0130
0000
,
0001
0000
0010
0100
1000
0000
0001
0000
0010
0100
1000
0000
0020
0000
0130
0000
,
0001
0000
0010
0100
1000
0000
0001
0000
0100
0001
0100
0000
0010
0000
0200
0000
,
2300
0000
3001
0010
0000
0010
0100
0000
0001
0000
0000
0000
2002
0000
3003
0000
,
1000
0100
0010
0000
0010
0100
1000
0000
1000
0100
0010
0000
0001
0000
1000
0010
,
1000
0010
0100
0001
1000
0000
0001
0010
0100
0000
0110
0000
1100
0000
0000
0000
,
0001
0100
0010
0000
0010
0100
0001
0000
0001
0100
0010
0000
1000
0000
0001
0010
,
0001
0010
0100
1000
0001
0000
0100
0010
1000
0001
1000
0100
0020
0030
0000
0000
,
0001
0100
0010
0000
0010
1000
0001
0000
0001
0010
0100
0000
1000
0000
0001
0100
,
0010
0100
0010
1000
0001
0000
1000
0100
0010
0000
0110
0000
0011
0000
0000
0000
,
0002
0203
2300
3002
0023
0000
1030
2001
,
0000
3200
0302
2003
3020
0000
0031
0000
;

//--------------- dance-double - KAYSTAR ----------------
#NOTES:
     dance-double:
     KAYSTAR:
     Easy:
     8:
     0,0,0,0,0:
00000000
00000000
00000000
00000000
,
00000000
00000000
00000000
00000000
,
00000000
00000000
00000000
00000000
,
00000000
00000000
00000000
00000000
,
10000000
00000000
00010000
00000000
00100000
00000000
00001000
00010000
,
00001000
01000000
00020000
20030000
,
31000000
00100000
00001000
00010000
,
00000200
00000320
00000230
00000320
,
00000031
00000000
00001000
00000000
00000010
00000000
00010000
00001000
,
00010000
00000100
00002000
00003002
,
00000103
00000010
00010000
00001000
,
02000000
00000000
00200000
03300000
,
20000000
00000000
31000000
00100000
,
00010000
00100000
00001000
00010000
,
00002000
00000000
00013000
00000100
,
00001000
00000100
00000010
00000001
,
00002000
00000000
00003001
00000100
,
00000010
00000010
00010000
00010000
,
00002000
00000000
00013000
00000000
,
00001000
00010000
00100000
00000000
,
10000000
01000000
00100000
00010000
,
00100000
00000000
00001000
00010000
00001000
00000000
00010000
00000000
,
00000200
00000000
00001300
00000010
,
00010000
00000000
00001000
00010000
00001000
00000000
01000000
00000000
,
00020000
00000000
10030000
01000000
,
00100000
00100000
00001000
00001000
,
00020000
00000000
00031000
00000000
,
00010000
00001000
00000010
00000000
,
00000002
00000000
00002003
00000000
,
00003020
00000000
00010030
00001000
,
00020000
00000000
00032000
00000000
,
02003000
00000000
03010000
10000000
,
00020000
00000000
10030000
01000000
,
00100000
00010000
00100000
00001000
,
00020000
00000000
00030100
00001000
,
00000002
00000000
00000003
00000000
,
00000100
00000001
00000100
00000000
00000010
00000000
00001000
00000000
,
00000100
00001000
00000100
00000000
00000010
00000000
00000001
00000000
,
00000100
00000100
00001000
00001000
,
01000000
00010000
20000000
30000000
,
01000000
10000000
01000000
00000000
00100000
00000000
00010000
00000000
,
01000000
00010000
01000000
00000000
00100000
00000000
10000000
00000000
,
01000000
01000000
00010000
00010000
,
00000100
00001000
00000002
00000003
,
00000100
00000001
00000100
00000000
00001000
00000000
00010000
00000000
,
00001000
00010000
00001000
00000000
00010000
00000000
00100000
00000000
,
10000000
00010000
10000000
00010000
00100000
00000000
01000000
00000000
,
10000000
00100000
01000000
00010000
00100000
00000000
00002000
00000000
,
00013000
00000100
00002000
00000000
,
00003001
00000100
00002000
00000000
,
00023000
00000000
00032000
00000000
,
00023000
00000000
00032000
00000000
,
01003000
00010000
01000000
00000000
00001000
00000000
00010000
00000000
,
00000100
00001000
00000100
00000000
00010000
00000000
00001000
00000000
,
00021000
00000000
00032000
00000000
,
01003000
00010000
20020000
00000000
,
30030000
00000000
00000000
20000000
,
30010000
00000000
00100000
00000000
00001000
00010000
00001000
00000000
,
01000000
00000000
00001000
00000000
00010000
00001000
00010000
00000000
,
00001000
00000000
00100000
00000000
00001000
00010000
00000100
00000000
,
00002000
00000000
00003001
00001001
,
00001000
00000000
00000010
00000000
00010000
00001000
00010000
00000000
,
00000100
00000000
00010000
00000000
00001000
00010000
00001000
00000000
,
00010000
00000000
00000010
00000000
00010000
00001000
01000000
00000000
,
00020000
00000000
20000000
30030000
,
10000000
01000000
00100000
00000000
01000000
00100000
00010000
00000000
,
00100000
00001000
00010000
00010000
,
00001000
00010000
00000100
00000000
00001000
00000100
00000010
00000000
,
00000002
00000000
00001003
00001001
,
00000001
00000100
00000010
00000000
00000100
00000010
00001000
00000000
,
00000010
00010000
00001000
00001000
,
00020000
00230000
20300000
30000000
,
00020000
00230000
00301000
00011000
;

//--------------- dance-double - KAYSTAR ----------------
#NOTES:
     dance-double:
     KAYSTAR:
     Medium:
     12:
     0,0,0,0,0:
00000000
00000000
00000000
00000000
,
00000000
00000000
00000000
00000000
,
00000000
00000000
00000000
00000000
,
00000000
00000000
00000000
00000000
,
00001000
00010000
00001000
00010000
00100000
00010000
00100000
10000000
,
00010000
10000000
00010000
00100000
00002000
00000000
00013000
00000000
,
00001000
01000000
00010000
01000000
00001000
00010000
01000000
00100000
,
00002000
00000000
00000000
00010000
00000000
00000000
00010000
00000000
00000000
00013000
00000000
00000000
00011000
00000000
00000000
00000000
,
00010000
00001000
00010000
00001000
00000100
00001000
00000100
00000001
,
00001000
00000001
00001000
00000100
00020000
00000000
00031000
00000000
,
00010000
00000010
00001000
00000010
00010000
00001000
00000010
00000100
,
00002000
00000000
00000000
00003001
00000100
00000010
00000100
00001000
,
00020000
00000000
00031000
01000000
,
00020000
00230000
00302000
00013000
,
00022000
00033000
00010000
00000100
,
00002000
00003020
00020030
00031000
,
00022000
00033000
00001000
01000000
,
00010000
00010000
10000000
10000000
,
02000000
00000000
03200000
00000000
,
00301000
00000000
00000000
00001000
00000000
00000000
00001000
00000000
00010000
00000000
00000100
00000000
00002000
00000000
00000000
00000000
,
00003001
00000000
00001000
00000010
00010000
00000000
00001000
00010000
,
00002000
00023000
00230000
10300000
,
10010000
00000000
00010000
00100000
00001000
00000000
00010000
00001000
,
00020000
00032000
00003020
00000031
,
00001001
00000000
00001000
00000010
00000100
00000000
00000001
00000000
,
00000010
00000100
00000000
00000010
00000100
00000000
00000000
00000000
00001000
00000001
00000000
00001000
00000001
00000000
00000000
00000000
,
00000200
00000000
00000320
00000000
,
00010030
00000000
00000000
00010000
00000000
00000000
00010000
00000000
00001000
00000000
01000000
00000000
00020000
00000000
00000000
00000000
,
10030000
00000000
01000000
00010000
01000000
00000000
00100000
00000000
,
00001000
00010000
00001000
00000000
00010000
00000100
00002000
00000000
,
00003001
00000000
00000100
00001000
00000100
00000000
00000010
00000000
,
00010000
00001000
00010000
00000000
00001000
01000000
00020000
00000000
,
10030000
00000000
01000000
00010000
00001000
00000000
00011000
00000000
,
00010000
00001000
00000100
00000000
00000010
00001000
00000001
00000010
,
00000100
00000000
00000000
00000000
00001000
00000000
00000010
00000000
00010000
00000000
00000000
00000000
00001000
00010000
00001000
00010000
,
00000000
00000000
00000000
00000000
,
00002000
02003000
03020000
00230000
00000000
00301000
00010000
00001000
,
00020000
00030200
00002300
00003020
00000000
00010030
00001000
00010000
,
00001000
00000000
01000000
00010000
00000000
00000000
10000000
00000000
01000000
00000000
00100000
00010000
00000000
00000000
10000000
00000000
,
00100000
00000000
01000000
00010000
00000000
00000000
00100000
00000000
00001000
00000000
00000000
00000000
00011000
00000000
00000000
00000000
,
00020000
00030020
00002030
00003200
00000000
00010300
00001000
00010000
,
00002000
00203000
00320000
02030000
00000000
03001000
00010000
00001000
,
00010000
00000000
00000010
00001000
00000000
00000000
00000001
00000000
00000010
00000000
00000100
00001000
00000000
00000000
00000001
00000000
,
00000100
00000000
00000010
00001000
00000000
00000000
00000100
00000000
00020000
00000000
00000000
00000000
00000000
00000000
00000000
00000000
,
00031000
00001000
01000000
00010000
10000000
10000000
01000000
00100000
,
00001000
00001000
00010000
00000100
00001000
00000001
00001000
00000001
,
00000100
00001000
00010000
00000100
00000010
00000001
00001000
00000010
,
00010000
00001000
01000000
00010000
00100000
00001000
00010000
00100000
,
20000000
00000000
00000000
00000000
30010000
00000000
00100000
00000000
00001000
00000000
00000000
00010000
00000000
00000000
00000100
00000000
,
00001000
00000000
00000000
00000000
00000001
00000000
00000100
00000000
00001000
00000000
00000000
00001000
00000000
00000000
00001000
00000000
,
00021000
00000000
00230000
00000000
,
20300000
00000000
30020000
00000000
,
00130000
00001000
00010000
00001000
00100000
00001000
00011000
00000000
,
00000010
00010000
00001000
00010000
00000010
00010000
00011000
00000000
,
00012000
00000000
00003020
00000000
,
00000032
00000000
00000000
00002003
00000000
00000000
00003020
00000000
00020000
00000000
00000000
00000000
00000000
00000000
00000000
00000000
,
00030030
00000000
00000000
00000000
00000000
00000000
00022000
00033000
,
00001000
01000000
00010000
10000000
01000000
00100000
00002000
00000000
,
00013000
00000100
00001000
00000001
00000100
00000010
00020000
00000000
,
00031000
01000000
00010000
10000000
01000000
00100000
01000000
00020000
,
00001000
00000000
00000000
00001000
00000000
00000000
00001000
00000000
00000000
00031000
00000000
00000000
00011000
00000000
00000000
00000000
,
00010000
00000010
00001000
00000001
00000010
00000100
00020000
00000000
,
00031000
00100000
00010000
10000000
00100000
01000000
00002000
00000000
,
00013000
00000010
00001000
00000001
00000010
00000100
00000010
00002000
,
00010000
00010000
00013000
00011000
,
00002000
00013000
00200000
00310000
00002000
00013000
00200000
02300000
,
00000000
00000000
03010000
00000000
10000000
00000000
01000000
10000000
00000000
01000000
00100000
00000000
00001000
00000000
00000000
00000000
,
00020000
00031000
00000020
00001030
00020000
00031000
00000020
00000230
,
00000000
00000000
00001300
00000000
00000001
00000000
00000100
00000000
00001000
00010000
00001000
00010000
00002000
00003000
00000000
00000000
,
00002000
00013000
02000000
03010000
00002000
00013000
02000000
03200000
,
00000000
00000000
00310000
00000000
10000000
00000000
00100000
10000000
00000000
00100000
01000000
00000000
00001000
00000000
00000000
00000000
,
00020000
00030200
00002300
00003020
00020030
00000000
00030000
00002000
,
00000000
02003000
03020000
00230000
00302000
00000000
00013000
00000000
;

//--------------- dance-double - KAYSTAR ----------------
#NOTES:
     dance-double:
     KAYSTAR:
     Hard:
     15:
     0,0,0,0,0:
00000000
00000000
00000000
00000000
,
00000000
00000000
00000000
00000000
,
00000000
00000000
00000000
00000000
,
00000000
00000000
00000000
00000000
,
20000000
00000000
30010000
00000000
00100000
00000000
00010000
10000000
00000000
00100000
10000000
00000000
01000000
00000000
00100000
00010000
,
00200000
00000000
00301000
00000000
00010000
00000000
00100000
00000000
10000000
00010000
10000000
00010000
10000000
00000000
00010000
00000000
,
20000000
00000000
31000000
00000000
00100000
00000000
00010000
00100000
00000000
00001000
00010000
00000000
00001000
00000000
00010000
00001000
,
00010000
00000000
00000000
00011000
00000000
00000000
00010100
00000000
00000000
00001100
00000000
00000000
00001001
00000000
00000000
00000000
,
00000002
00000000
00001003
00000000
00000010
00000000
00001000
00000001
00000000
00000010
00000001
00000000
00000100
00000000
00000010
00001000
,
00000020
00000000
00010030
00000000
00001000
00000000
00000010
00000000
00000001
00001000
00000001
00001000
00000001
00000000
00001000
00000000
,
00000002
00000000
00000103
00000000
00000010
00000000
00001000
00000010
00000000
00010000
00001000
00000000
00010000
00000000
00001000
00010000
,
00002000
00000000
00000000
00000000
00013000
00000000
00100000
00010000
00200000
00000000
02300000
00000000
03200000
00000000
20300000
00000000
,
30020000
00000000
00000000
00000000
00000000
00000000
00130000
00000000
00001000
00000000
00000000
00010000
00000000
00000000
00100000
00000000
,
20000000
00000000
00000000
31000000
00000000
00000000
00100000
00000000
00001000
00000000
00000000
00000000
00022000
00000000
00033000
00000000
,
00020020
00000000
00030030
00000000
00000000
00000000
00000010
00000000
00010000
00000000
00000000
00001000
00000000
00000000
00000010
00000000
,
00000002
00000000
00000000
00000103
00000000
00000000
00000010
00000000
00010000
00000000
00000000
00000000
00022000
00000000
00033000
00000000
,
00202000
00000000
00303000
00000000
00000000
00000000
00000000
00000000
00100000
00000000
00000000
00001000
00000000
00000000
00010000
00000000
,
00200000
00000000
00000000
10300000
00000000
00000000
01000000
00000000
00200000
00000000
00000000
00000000
00301000
00000000
00000000
00000000
,
00022000
00000000
00000000
00000000
00000000
00000000
00033000
00000000
00000000
00000000
00000000
00010000
00001000
00000000
00001000
00000000
,
00011000
00000000
00000000
01001000
00000000
00000000
01010000
00000000
00010000
10000000
00010000
10000000
00010000
10000000
00010000
00000000
,
20000000
00000000
30010000
00100000
01000000
10000000
00010000
01000000
,
00001000
00000000
00010000
00000000
01000000
00000000
00010000
00000000
00002000
00000000
00003010
00000100
00000010
00000000
00000001
00000000
,
00002002
00003003
00001000
00000010
00000100
00000001
00001000
00000100
,
00010000
00000000
00001000
00000000
00000100
00000000
00001000
00000000
00020000
00000000
00130000
01000000
00100000
00000000
10000000
00000000
,
20020000
00000000
30030000
00000000
00010000
00000000
00100000
00000000
00001000
00000000
00000000
00001000
00010000
00000000
00000100
00000000
,
00001000
00000100
00000000
00000010
00000100
00000000
00000010
00000000
00000001
00000100
00000000
00000010
00000100
00000000
00001000
00000000
,
00021000
00230000
20300000
30010000
,
10010000
00000000
00000000
00101000
00000000
00000000
00011000
00000000
00010000
00000000
00001000
00010000
00002000
00000000
00023000
00000000
,
00030200
00000000
00000000
00000000
00001300
00000000
00000001
00000000
00000100
00000000
00000010
00000100
00000000
00001000
00000100
00000000
,
00001000
00000000
00010000
00001000
00010000
00000000
00001000
00000000
00000010
00000000
00001000
00000000
00012000
00000000
00000000
00000000
,
02003000
00000000
00000000
00000000
03010000
00000000
10000000
00000000
01000000
00000000
00100000
01000000
00000000
00010000
01000000
00000000
,
00010000
00000000
00001000
00010000
00001000
00000000
00010000
00000000
00100000
00000000
00010000
00000000
00021000
00000000
00000000
00000000
,
00030200
00000000
00000000
00000000
00001300
00000000
00000001
00000100
00000010
00000000
00001000
00000010
00000000
00010000
00001000
00000000
,
00010000
00000000
00011000
00000000
00001000
00000000
01000000
00000000
00010000
00000000
10000000
01000000
00100000
00000000
00010000
00000000
,
02000000
00000000
03200000
00000000
10300000
00000000
00010000
00000000
00100000
00000000
00001000
00000000
00010000
00001000
00010000
00001000
,
00000000
00000000
00000000
00000000
,
00010000
00001000
00010000
00000100
00001000
00000000
00000001
00000100
00000010
00000000
00001000
00000000
00000100
00000000
00010000
00000000
,
00001000
00010000
00001000
01000000
00010000
00000000
10000000
01000000
00100000
00000000
00001000
00010000
00001000
00000000
00001000
00000000
,
00010000
00000000
00001000
00000010
00000000
00000010
00000100
00000000
00001000
00000000
00000010
00000100
00000000
00000100
00000001
00000000
,
00001000
00000000
00000100
00000010
00000001
00000000
00001001
00000000
00000000
00010010
00000000
00000000
00022000
00000000
00033000
00000000
,
00001000
00010000
00001000
00100000
00010000
00000000
10000000
00100000
01000000
00000000
00010000
00000000
00100000
00000000
00001000
00000000
,
00010000
00001000
00010000
00000010
00001000
00000000
00000001
00000010
00000100
00000000
00010000
00001000
00010000
00000000
00010000
00000000
,
00002000
00000000
00013000
00100000
00000000
01000000
00100000
00000000
20000000
00000000
31000000
00100000
00000000
01000000
00010000
00000000
,
00001000
00000000
00010000
00001000
00000010
00000000
00000001
00000000
00002000
00000000
00000000
00000000
00000000
00000000
00000000
00000000
,
00003001
00000100
00000010
00000000
00000100
00000010
00001000
00000000
00000010
00001000
00010000
00000000
00001000
00010000
01000000
00000000
,
00010000
01000000
00100000
00000000
01000000
00100000
10000000
00000000
00010000
00100000
01000000
00100000
01000000
10000000
00010000
00000000
,
01000000
00100000
10000000
00010000
00100000
00000000
01000000
00000000
00010000
00001000
00010000
00001000
00000010
00000000
00000001
00000000
,
00000100
00000010
00001000
00000001
00000010
00000000
00000100
00000000
00001000
00000010
00010000
00000000
00001000
00010000
00001000
00010000
,
00001000
00000000
00010000
00000000
00001000
00000000
00010000
00000000
00200000
00000000
00000000
10300000
00000000
00000000
01000000
00000000
,
00010000
00000000
00001000
00000000
00010000
00000000
00001000
00000000
00000020
00000000
00000000
00000032
00000000
00000000
00001003
00000000
,
00002002
00000000
00000000
00003003
00020020
00000000
00000000
00030030
,
02002000
00000000
00000000
03003000
20020000
00000000
00000000
30030000
,
10000000
00010000
10000000
00010000
00100000
00000000
00100000
00001000
00100000
00001000
00010000
00000100
00001000
00000000
00000000
00000000
,
00000001
00001000
00000001
00001000
00000010
00000000
00000010
00010000
00000010
00010000
00001000
01000000
00010000
00000000
00000000
00000000
,
20010000
00000000
00000000
32000000
00000000
00000000
03010000
00000000
00012000
00000000
00000000
00003020
00000000
00000000
00000031
00000000
,
00001002
00000000
00000000
00000203
00000000
00000000
00020300
00000000
00032000
00000000
00000000
00000000
00000000
00000000
00000000
00000000
,
00103000
00000000
00000000
10000000
00000000
00000000
10010000
00000000
00000000
00101000
00000000
00000000
00021000
00000000
00000000
00000000
,
00032000
00000000
00003010
00000100
00000010
00000000
00000002
00000000
00000103
00000010
00000100
00000000
00002000
00000000
00000000
00000000
,
00023000
00000000
00130000
01000000
00100000
00000000
20000000
00000000
31000000
00100000
01000000
00000000
00020000
00000000
00000000
00000000
,
00032000
00000000
00003010
00000100
00000010
00000000
00000002
00000000
00001003
00000010
00010000
00000000
00001000
00000000
00000020
00000000
,
00000032
00000000
00001003
00000010
00000000
00010000
00001000
00000000
00010000
00001000
00010000
00000000
00011000
00000000
00000000
00000000
,
00020000
00000000
01030000
00100000
01000000
00000000
20000000
00000000
30100000
01000000
00100000
00000000
00020000
00000000
00000000
00000000
,
00032000
00000000
00003100
00000010
00000100
00000000
00000002
00000000
00000013
00000100
00000010
00000000
00002000
00000000
00000000
00000000
,
00023000
00000000
01030000
00100000
01000000
00000000
20000000
00000000
30010000
01000000
00001000
00000000
00010000
00000000
02000000
00000000
,
23000000
00000000
30010000
01000000
00000000
01000000
00100000
00000000
10000000
00000000
00000000
00000000
20020000
00000000
30030000
00000000
,
10000000
01000000
00100000
00000000
00100000
00010000
00001000
00000000
00001000
00000100
00000010
00000000
00000001
00000000
00001000
00000010
,
00001000
00000010
00010000
00000000
00001000
00000000
00000010
00000100
00000010
00000000
00000001
00000000
00001001
00000000
00000000
00000000
,
00000001
00000100
00000010
00000000
00000010
00001000
00010000
00000000
00010000
01000000
00100000
00000000
10000000
00000000
00010000
00100000
,
00010000
00100000
00001000
00000000
00010000
00000000
00100000
00000000
10000000
00010000
10000000
00010000
20000000
30000000
00000000
00000000
,
10000000
01000000
00010000
00000000
00010000
00001000
00000010
00000000
00000010
00000001
00001000
00000000
00000001
00000000
00001000
00000010
,
00001000
00000010
00010000
00000000
00001000
00000000
00000010
00000100
00000010
00000000
00000001
00000000
00001001
00000000
00000000
00000000
,
00000002
00000203
00002300
00023000
00230000
00000000
10300000
20010000
,
00000000
32000000
03020000
00032000
00003020
00000000
00000031
00000000
;
