#VERSION:0.83;
#TITLE:First Rendezvous;
#SUBTITLE:;
#ARTIST:t+pazolite;
#TITLETRANSLIT:;
#SUBTITLETRANSLIT:;
#ARTISTTRANSLIT:;
#GENRE:;
#CREDIT:;
#MUSIC:First Rendezvous.ogg;
#BANNER:bn.png;
#BACKGROUND:bg.png;
#JACKET:;
#DISCIMAGE:;
#CDIMAGE:;
#SELECTABLE:YES;
#LYRICSPATH:;
#CDTITLE:;
#SAMPLESTART:96.000;
#SAMPLELENGTH:11.294;
#BPMS:0.000000=170.000000;
#STOPS:;
#WARPS:;
#DELAYS:;
#SPEEDS:;
#SCROLLS:0.000000=0.750000,
40.000000=0.766000,
40.500000=0.781000,
41.000000=0.797000,
41.500000=0.813000,
42.000000=0.828000,
42.500000=0.844000,
43.000000=0.859000,
43.500000=0.875000,
44.000000=0.891000,
44.500000=0.906000,
45.000000=0.922000,
45.500000=0.938000,
46.000000=0.953000,
46.500000=0.969000,
47.000000=0.984000,
47.500000=1.000000,
94.000000=0.750000,
96.000000=1.000000,
108.000000=0.750000,
112.000000=1.000000,
126.000000=0.750000,
128.000000=1.000000,
168.000000=0.984000,
168.500000=0.969000,
169.000000=0.953000,
169.500000=0.938000,
170.000000=0.922000,
170.500000=0.906000,
171.000000=0.891000,
171.500000=0.875000,
172.000000=0.859000,
172.500000=0.844000,
173.000000=0.828000,
173.500000=0.813000,
174.000000=0.797000,
174.500000=0.781000,
175.000000=0.766000,
175.500000=0.750000,
176.000000=0.000000,
176.375000=2.250000,
176.500000=0.000000,
176.875000=2.250000,
177.000000=0.000000,
177.375000=2.250000,
177.500000=0.000000,
177.875000=2.250000,
178.000000=0.000000,
178.375000=2.250000,
178.500000=0.000000,
178.875000=2.250000,
179.000000=0.000000,
179.375000=2.250000,
179.500000=0.000000,
179.875000=2.250000,
180.000000=0.000000,
180.375000=2.250000,
180.500000=0.000000,
180.875000=2.250000,
181.000000=0.000000,
181.375000=2.250000,
181.500000=0.000000,
181.875000=2.250000,
182.000000=0.000000,
182.375000=2.250000,
182.500000=0.000000,
182.875000=2.250000,
183.000000=0.000000,
183.375000=2.250000,
183.500000=0.000000,
183.875000=2.250000,
184.000000=0.000000,
184.375000=2.250000,
184.500000=0.000000,
184.875000=2.250000,
185.000000=0.000000,
185.375000=2.250000,
185.500000=0.000000,
185.875000=2.250000,
186.000000=0.000000,
186.375000=2.250000,
186.500000=0.000000,
186.875000=2.250000,
187.000000=0.000000,
187.375000=2.250000,
187.500000=0.000000,
187.875000=2.250000,
188.000000=0.000000,
188.375000=2.250000,
188.500000=0.000000,
188.875000=2.250000,
189.000000=0.000000,
189.375000=2.250000,
189.500000=0.000000,
189.875000=2.250000,
190.000000=0.000000,
190.375000=2.250000,
190.500000=0.000000,
190.875000=2.250000,
191.000000=0.000000,
191.375000=2.250000,
191.500000=0.000000,
191.875000=2.250000,
192.000000=0.000000,
192.375000=2.250000,
192.500000=0.000000,
192.875000=2.250000,
193.000000=0.000000,
193.375000=2.250000,
193.500000=0.000000,
193.875000=2.250000,
194.000000=0.000000,
194.375000=2.250000,
194.500000=0.000000,
194.875000=2.250000,
195.000000=0.000000,
195.375000=2.250000,
195.500000=0.000000,
195.875000=2.250000,
196.000000=0.000000,
196.375000=2.250000,
196.500000=0.000000,
196.875000=2.250000,
197.000000=0.000000,
197.375000=2.250000,
197.500000=0.000000,
197.875000=2.250000,
198.000000=0.000000,
198.375000=2.250000,
198.500000=0.000000,
198.875000=2.250000,
199.000000=0.000000,
199.375000=2.250000,
199.500000=0.000000,
199.875000=2.250000,
200.000000=0.000000,
200.375000=2.297000,
200.500000=0.000000,
200.875000=2.344000,
201.000000=0.000000,
201.375000=2.391000,
201.500000=0.000000,
201.875000=2.438000,
202.000000=0.000000,
202.375000=2.484000,
202.500000=0.000000,
202.875000=2.531000,
203.000000=0.000000,
203.375000=2.578000,
203.500000=0.000000,
203.875000=2.625000,
204.000000=0.000000,
204.375000=2.672000,
204.500000=0.000000,
204.875000=2.719000,
205.000000=0.000000,
205.375000=2.766000,
205.500000=0.000000,
205.875000=2.813000,
206.000000=0.000000,
206.375000=2.859000,
206.500000=0.000000,
206.875000=2.906000,
207.000000=0.000000,
207.375000=2.953000,
207.500000=0.000000,
207.875000=3.000000,
208.000000=1.000000,
300.000000=0.750000,
303.000000=0.813000,
303.250000=0.875000,
303.500000=0.938000,
303.750000=1.000000,
350.000000=0.750000,
352.000000=1.000000
;
#TICKCOUNTS:;
#TIMESIGNATURES:;
#LABELS:;
#COMBOS:;
#FAKES:;
#BGCHANGES:;
#FGCHANGES:;
#ATTACKS:;

//---------------dance-single - ---------------
#NOTEDATA:;
#CHARTNAME:;
#CHARTSTYLE:;
#CREDIT:Talkion;
#STEPSTYPE:dance-single;
#DESCRIPTION:;
#DIFFICULTY:Beginner;
#METER:4;
#METERF:4;
#RADARVALUES:0,0,0,0,0;
#BPMS:0.000000=170.000000;
#NOTES:
// measure 0
0000
0000
0000
0000
,  // measure 1
0000
0000
0000
0000
,  // measure 2
0000
0000
0000
0000
,  // measure 3
0000
0000
0000
0000
,  // measure 4
1000
0000
0000
1000
,  // measure 5
0000
0000
0000
0000
,  // measure 6
0001
0000
0000
0010
,  // measure 7
0000
0000
0000
0000
,  // measure 8
0001
0000
0000
0001
,  // measure 9
0000
0000
0000
0000
,  // measure 10
1000
0000
0000
0010
,  // measure 11
0000
0000
0000
0000
,  // measure 12
1000
0000
1000
0000
,  // measure 13
1000
0000
0010
0000
,  // measure 14
0001
0000
0001
0000
,  // measure 15
0001
0000
0010
0000
,  // measure 16
2000
0000
0000
0000
,  // measure 17
0000
0000
0000
0000
,  // measure 18
0000
0000
0000
0000
,  // measure 19
3000
0000
0000
0000
,  // measure 20
0001
0000
0010
0000
,  // measure 21
0001
0000
0010
0000
,  // measure 22
0001
0000
0010
0000
,  // measure 23
0001
0000
0000
0000
,  // measure 24
1000
0000
0010
0000
,  // measure 25
1000
0000
0010
0000
,  // measure 26
1000
0000
0010
0000
,  // measure 27
0000
0000
0000
0000
,  // measure 28
1000
0000
0100
0000
,  // measure 29
1000
0000
0100
0000
,  // measure 30
1000
0000
0100
0000
,  // measure 31
1000
0000
0000
0000
,  // measure 32
0001
0000
0100
0000
,  // measure 33
0001
0000
0100
0000
,  // measure 34
0001
0000
0001
0000
,  // measure 35
1000
0000
0000
0000
,  // measure 36
0001
0000
0001
0000
,  // measure 37
1000
0000
0100
0000
,  // measure 38
1000
0000
0100
0000
,  // measure 39
1000
0000
0100
0000
,  // measure 40
1000
0000
1000
0000
,  // measure 41
0001
0000
0100
0000
,  // measure 42
0001
0000
0001
0000
,  // measure 43
0001
0000
0001
0000
,  // measure 44
1000
0000
0000
1000
,  // measure 45
0000
0000
0000
0000
,  // measure 46
0001
0000
0000
0100
,  // measure 47
0000
0000
0000
0000
,  // measure 48
0001
0000
0000
0001
,  // measure 49
0000
0000
0000
0000
,  // measure 50
1000
0000
0000
0100
,  // measure 51
0000
0000
0000
0000
,  // measure 52
1000
0000
0000
1000
,  // measure 53
0000
0000
0000
0000
,  // measure 54
0001
0000
0000
0010
,  // measure 55
0000
0000
0000
0000
,  // measure 56
0001
0000
0000
0000
,  // measure 57
1000
0000
0001
0000
,  // measure 58
1000
0000
0000
0000
,  // measure 59
0000
0000
0000
0000
,  // measure 60
0001
0000
0001
0000
,  // measure 61
1000
0000
1000
0000
,  // measure 62
0001
0000
0000
0000
,  // measure 63
0100
0000
0010
0000
,  // measure 64
1000
0000
1000
0000
,  // measure 65
0001
0000
0001
0000
,  // measure 66
1000
2000
0000
0000
,  // measure 67
3000
0000
0000
0000
,  // measure 68
0001
0000
1000
0000
,  // measure 69
0100
0000
1000
0000
,  // measure 70
0001
0000
1000
0000
,  // measure 71
0100
0000
0010
0000
,  // measure 72
0001
0000
1000
0000
,  // measure 73
0010
0000
1000
0000
,  // measure 74
0001
0000
1000
0000
,  // measure 75
0010
0000
0000
0000
,  // measure 76
1000
0000
0001
0000
,  // measure 77
0010
0000
0001
0000
,  // measure 78
1000
0000
0001
0000
,  // measure 79
0010
0000
0100
0000
,  // measure 80
1000
0000
0001
0000
,  // measure 81
0100
0000
0001
0000
,  // measure 82
1000
0000
0001
0000
,  // measure 83
0100
0000
0000
0000
,  // measure 84
0001
0000
0100
0000
,  // measure 85
0001
0000
0100
0000
,  // measure 86
0001
0000
0100
0000
,  // measure 87
0001
0000
0000
0000
,  // measure 88
1000
0000
0100
0000
,  // measure 89
1000
0000
0100
0000
,  // measure 90
1000
0000
1000
0000
,  // measure 91
0001
0000
0000
0000
;

//---------------dance-single - ---------------
#NOTEDATA:;
#CHARTNAME:;
#CHARTSTYLE:;
#CREDIT:Talkion;
#STEPSTYPE:dance-single;
#DESCRIPTION:;
#DIFFICULTY:Easy;
#METER:6;
#METERF:6;
#RADARVALUES:0,0,0,0,0;
#BPMS:0.000000=170.000000;
#NOTES:
// measure 0
0000
0000
0000
0000
,  // measure 1
0000
0000
0000
0000
,  // measure 2
0000
0000
0000
0000
,  // measure 3
0000
0000
0000
0000
,  // measure 4
1000
0000
0000
0001
0000
0000
0001
0000
,  // measure 5
0000
0000
0000
0000
,  // measure 6
1000
0000
0000
0001
0000
0000
0010
0000
,  // measure 7
0000
0000
0000
0000
,  // measure 8
0001
0000
0000
1000
0000
0000
1000
0000
,  // measure 9
0000
0000
0000
0000
,  // measure 10
0001
0000
0000
1000
0000
0000
0020
0000
,  // measure 11
0000
0000
0030
0000
,  // measure 12
1000
0000
0001
0000
,  // measure 13
1000
0000
0001
0010
,  // measure 14
0001
0000
1000
0000
,  // measure 15
0001
0010
0001
0000
,  // measure 16
1000
0000
0010
0000
,  // measure 17
0100
0000
0001
0000
,  // measure 18
2000
0000
0000
0000
,  // measure 19
3000
0000
0000
0000
,  // measure 20
0001
0001
0010
0000
,  // measure 21
0001
0001
0010
0000
,  // measure 22
0001
0001
0010
0000
,  // measure 23
0001
0001
0000
0000
,  // measure 24
1000
1000
0010
0000
,  // measure 25
1000
1000
0010
0000
,  // measure 26
1000
1000
0010
0000
,  // measure 27
1000
0000
0000
0000
,  // measure 28
1001
0001
0010
0000
,  // measure 29
0001
0001
0010
0000
,  // measure 30
1001
1000
0010
0000
,  // measure 31
1000
1000
0000
0000
,  // measure 32
1001
0001
0010
0000
,  // measure 33
1001
0001
0010
0000
,  // measure 34
0001
0001
0001
0001
,  // measure 35
1000
0000
0000
0000
,  // measure 36
0001
0000
0001
0000
,  // measure 37
0100
0000
0010
0000
,  // measure 38
1000
0000
0010
0000
,  // measure 39
0100
0000
0010
0000
,  // measure 40
1000
0000
1000
0000
,  // measure 41
0100
0000
0010
0000
,  // measure 42
0001
0000
0010
0000
,  // measure 43
0010
0000
0010
0000
,  // measure 44
0001
0000
0000
1000
0000
0000
2000
0000
,  // measure 45
0000
0000
3000
0000
,  // measure 46
0001
0000
0000
1000
0000
0000
0020
0000
,  // measure 47
0000
0000
0030
0000
,  // measure 48
1000
0000
0000
0001
0000
0000
0002
0000
,  // measure 49
0000
0000
0003
0000
,  // measure 50
1000
0000
0000
0001
0000
0000
0020
0000
,  // measure 51
0000
0000
0030
0000
,  // measure 52
0001
0000
0000
1000
0000
0000
2000
0000
,  // measure 53
0000
0000
3000
0000
,  // measure 54
0001
0000
0000
1000
0000
0000
0020
0000
,  // measure 55
0000
0000
0030
1000
,  // measure 56
0001
1000
0000
0100
,  // measure 57
0100
0000
0010
0000
,  // measure 58
0200
0000
0000
0000
,  // measure 59
0300
0000
0000
0000
,  // measure 60
1000
0000
0001
0100
,  // measure 61
0001
0000
1000
0100
,  // measure 62
1000
1000
0000
0010
,  // measure 63
0100
0000
0010
0000
,  // measure 64
1000
0000
0001
0010
,  // measure 65
0001
0000
1000
0010
,  // measure 66
1000
1000
1000
1000
,  // measure 67
0000
0000
0000
0000
,  // measure 68
0001
0010
0001
0000
,  // measure 69
0100
0010
1000
0000
,  // measure 70
0001
0010
0001
0000
,  // measure 71
0100
0010
0010
0000
,  // measure 72
1000
0010
1000
0000
,  // measure 73
0100
0010
0001
0000
,  // measure 74
1000
0010
1000
0000
,  // measure 75
0002
0000
0000
0003
,  // measure 76
1000
0100
1000
0000
,  // measure 77
0010
0100
0001
0000
,  // measure 78
1000
0100
1000
0000
,  // measure 79
0010
0100
0100
0000
,  // measure 80
0001
0100
0001
0000
,  // measure 81
0010
0100
1000
0000
,  // measure 82
0001
0100
0001
0000
,  // measure 83
0010
0100
1000
0000
,  // measure 84
1001
0001
0100
0000
,  // measure 85
0001
0001
0100
0000
,  // measure 86
1001
1000
0100
0000
,  // measure 87
1000
1000
0000
0000
,  // measure 88
1001
0001
0100
0000
,  // measure 89
1001
0001
0100
0000
,  // measure 90
0001
0001
0001
0001
,  // measure 91
1000
0000
0000
0000
;

//---------------dance-single - XMOD---------------
#NOTEDATA:;
#CHARTNAME:;
#CHARTSTYLE:;
#CREDIT:Talkion;
#STEPSTYPE:dance-single;
#DESCRIPTION:XMOD;
#DIFFICULTY:Medium;
#METER:8;
#METERF:8;
#RADARVALUES:0,0,0,0,0;
#NOTES:
// measure 0
0000
0000
0000
0000
,  // measure 1
0000
0000
0000
0000
,  // measure 2
0000
0000
0000
0000
,  // measure 3
0000
0000
0000
0000
,  // measure 4
1000
0000
0000
0001
0000
0000
0001
0000
,  // measure 5
0000
0000
0000
0000
,  // measure 6
1000
0000
0000
0010
0000
0000
0100
0000
,  // measure 7
0000
0000
0000
0000
,  // measure 8
0001
0000
0000
1000
0000
0000
1000
0000
,  // measure 9
0000
0000
0000
0000
,  // measure 10
0001
0000
0000
0010
0000
0000
0200
0000
,  // measure 11
0000
0000
2300
0000
,  // measure 12
3001
1000
0010
1000
,  // measure 13
0001
1000
0010
0010
,  // measure 14
1000
0001
0010
0001
,  // measure 15
1000
0010
1000
0001
,  // measure 16
0010
0100
0010
0001
,  // measure 17
1000
0010
0100
0010
,  // measure 18
2000
0000
0000
0000
,  // measure 19
3000
0000
0000
0000
,  // measure 20
0001
0001
0010
0001
,  // measure 21
1000
1000
0010
1000
,  // measure 22
0001
0001
0010
0001
,  // measure 23
1000
1000
0000
0000
,  // measure 24
0001
0001
0100
0001
,  // measure 25
1000
1000
0100
1000
,  // measure 26
0001
0001
0100
0010
,  // measure 27
1000
0000
0000
0000
,  // measure 28
1001
0001
0010
0001
,  // measure 29
1000
1000
0010
1000
,  // measure 30
1001
0001
0010
0001
,  // measure 31
0100
0010
0000
0000
,  // measure 32
1001
0001
0100
0001
,  // measure 33
1001
1000
0100
1000
,  // measure 34
2001
0010
0010
3010
,  // measure 35
1010
0000
0000
0000
,  // measure 36
1000
0001
0010
0000
,  // measure 37
0100
0010
0001
0000
,  // measure 38
0100
0010
1000
0000
,  // measure 39
0100
0010
0001
0000
,  // measure 40
1000
0001
0100
0000
,  // measure 41
0010
0100
0001
0000
,  // measure 42
0010
0100
1000
1000
,  // measure 43
0001
0001
0200
0000
,  // measure 44
0301
0000
0000
1000
0000
0000
2000
0000
,  // measure 45
0000
0000
3000
0000
,  // measure 46
0001
0000
0000
0010
0000
0000
0200
0000
,  // measure 47
0000
0000
0300
0000
,  // measure 48
1000
0000
0000
0001
0000
0000
0002
0000
,  // measure 49
0000
0000
0003
0000
,  // measure 50
1000
0000
0000
0010
0000
0000
0200
0000
,  // measure 51
0000
0000
0302
0000
,  // measure 52
1003
0000
0000
0100
0000
0000
0200
0000
,  // measure 53
0000
0000
0300
0000
,  // measure 54
1000
0000
0000
0001
0000
0000
0200
0000
,  // measure 55
0000
0000
0300
0001
,  // measure 56
1000
0001
0000
0010
,  // measure 57
0010
0000
0100
0000
,  // measure 58
0020
0000
0000
0000
,  // measure 59
0030
0000
0000
0000
,  // measure 60
0011
0000
0001
1000
,  // measure 61
0011
0000
0001
1000
,  // measure 62
0001
0011
0000
0010
,  // measure 63
0100
1000
0000
0001
,  // measure 64
1010
0000
1000
0001
,  // measure 65
1010
0000
1000
0001
,  // measure 66
1000
1000
1000
1000
,  // measure 67
0100
0000
0000
1000
,  // measure 68
0001
0100
0001
0100
,  // measure 69
0010
1000
0100
1000
,  // measure 70
0001
0010
0001
0010
,  // measure 71
0100
1000
0020
0030
,  // measure 72
1000
0010
1000
0010
,  // measure 73
0100
0001
0010
0001
,  // measure 74
1000
0100
1000
0100
,  // measure 75
0020
0000
0000
0030
,  // measure 76
0100
1000
0100
1000
,  // measure 77
0010
0100
0001
0100
,  // measure 78
0010
1000
0010
1000
,  // measure 79
0100
0010
0002
0003
,  // measure 80
0010
0001
0010
0001
,  // measure 81
0100
0010
1000
0010
,  // measure 82
0100
0001
0100
0001
,  // measure 83
0010
0100
0100
0100
,  // measure 84
1100
1000
0010
0100
,  // measure 85
0001
0001
0010
0100
,  // measure 86
1100
1000
0010
0100
,  // measure 87
0010
1000
0000
0000
,  // measure 88
0011
0001
0100
0010
,  // measure 89
1010
1000
0100
0010
,  // measure 90
0021
0100
0100
0130
,  // measure 91
1000
0000
0000
0000
;

//---------------dance-single - XMOD DS----------------
#NOTEDATA:;
#CHARTNAME:;
#CHARTSTYLE:;
#CREDIT:Talkion;
#STEPSTYPE:dance-single;
#DESCRIPTION:XMOD DS-;
#DIFFICULTY:Hard;
#METER:12;
#METERF:12;
#RADARVALUES:0,0,0,0,0;
#NOTES:
// measure 0
0000
0000
0000
0000
,  // measure 1
0000
0000
0000
0000
,  // measure 2
0000
0000
0000
0000
,  // measure 3
0000
0000
0000
0000
,  // measure 4
1000
0000
0000
0001
0000
0000
0001
0000
,  // measure 5
0000
0000
0000
0000
,  // measure 6
0100
0000
0000
0010
0000
0000
1000
0000
,  // measure 7
0000
0000
0000
0000
,  // measure 8
0001
0000
0000
1000
0000
0000
1000
0000
,  // measure 9
0000
0000
0000
0000
,  // measure 10
0100
0000
0000
0010
0000
0000
0002
0000
,  // measure 11
0000
0000
0000
0000
0013
0100
0000
0100
,  // measure 12
2000
0000
3001
0100
0010
0000
0010
0000
,  // measure 13
1000
0000
0001
0000
1000
0000
0010
0100
,  // measure 14
0001
0000
1000
0200
0010
0000
1300
0000
,  // measure 15
0001
0000
1000
0000
0010
0000
0100
0010
,  // measure 16
0100
0001
1000
0000
0100
0000
0010
0000
,  // measure 17
0001
0010
0001
0000
1000
0010
1000
0000
,  // measure 18
0001
0010
0001
0010
0100
1000
0100
1000
,  // measure 19
0000
0000
0000
0000
,  // measure 20
0002
0000
0000
0100
0000
0000
0103
0000
0001
0000
1000
0000
0100
0000
1000
0000
,  // measure 21
0002
0000
0000
0100
0000
0000
0103
0000
0001
0000
1000
0000
0100
0000
0000
0000
,  // measure 22
2000
0000
0000
0100
0000
0000
3100
0000
1000
0000
0001
0000
0100
0000
0001
0000
,  // measure 23
2000
0000
0000
0100
0000
0000
3100
0000
001M
0000
0000
0000
0000
0000
0000
0000
,  // measure 24
M002
0000
0000
0010
0000
0000
0013
0000
0001
0000
1000
0000
0010
0000
1000
0000
,  // measure 25
0002
0000
0000
0010
0000
0000
0013
0000
0001
0000
1000
0000
0010
0000
0000
0000
,  // measure 26
2000
0000
0000
0010
0000
0000
3010
0000
1000
0000
0001
0000
0010
0000
0100
0000
,  // measure 27
100M
0000
0010
0100
0002
0000
1003
0000
,  // measure 28
21M0
0000
0000
0100
0000
0000
3100
0000
1000
0000
0001
0000
0100
0000
0001
0000
,  // measure 29
2000
0000
0000
0100
0000
0000
3100
0000
1000
0000
0001
0000
0100
0000
0000
0000
,  // measure 30
0102
0000
0000
0100
0000
0000
0103
0000
0001
0000
1000
0000
0100
0000
0010
0000
,  // measure 31
0002
0000
0000
1000
0000
0000
1003
0000
0M10
0000
0000
0000
0000
0000
0000
0000
,  // measure 32
201M
0000
0000
0010
0000
0000
3010
0000
1000
0000
0001
0000
0010
0000
0000
0000
,  // measure 33
0012
0000
0000
0010
0000
0000
0013
0000
0001
0000
1000
0000
0010
0000
0000
0000
,  // measure 34
1010
0011
1010
0011
,  // measure 35
1002
0000
0000
0003
,  // measure 36
1000
0010
0100
0010
1000
0001
0000
1000
,  // measure 37
0001
0010
0100
1000
0100
0010
0000
0100
,  // measure 38
0010
0001
1000
0001
0100
0010
0000
0100
,  // measure 39
0010
1000
0001
1000
0100
0010
0000
0000
,  // measure 40
0001
0010
0100
0010
0001
1000
0000
0001
,  // measure 41
1000
0010
0100
0001
0100
0010
0000
0100
,  // measure 42
0010
1000
0001
1000
0100
0010
0100
0010
,  // measure 43
0002
2003
3020
0230
,  // measure 44
0301
0000
0100
0010
0000
0010
2000
0000
,  // measure 45
0000
3001
0010
0001
,  // measure 46
1000
0000
0010
0100
0000
0100
0002
0000
,  // measure 47
0000
0103
0010
0010
,  // measure 48
1000
0000
0100
0010
0000
0010
0002
0000
,  // measure 49
0000
1003
0010
1000
,  // measure 50
0001
0000
0010
0100
0000
0100
2000
0000
,  // measure 51
0000
0000
3010
0000
0100
0010
1000
0000
,  // measure 52
0002
0000
1003
0100
0010
0000
0010
0000
,  // measure 53
0001
1000
0100
1000
,  // measure 54
0001
0000
1000
0020
0100
0000
1030
0000
,  // measure 55
0001
0000
1000
0000
0010
0000
0100
0010
,  // measure 56
0100
0001
1000
0000
0100
0000
0010
0000
,  // measure 57
0010
0001
1000
0001
,  // measure 58
0100
0010
0100
0010
,  // measure 59
1000
0001
1000
0001
,  // measure 60
0010
0100
0000
1000
0010
1000
0001
0000
,  // measure 61
0010
0100
0000
1000
0010
1000
0001
0000
,  // measure 62
0100
0010
0100
0010
0000
1000
0100
1000
,  // measure 63
0001
0000
0001
0000
0010
0001
1000
0000
,  // measure 64
0010
0100
0000
0001
0010
0001
1000
0000
,  // measure 65
0010
0100
0000
0001
0010
0001
1000
0000
,  // measure 66
0100
0010
0100
1000
0100
0010
0100
1000
,  // measure 67
0020
0000
0000
0000
0000
0030
0110
0000
,  // measure 68
1000
0000
0010
0000
1000
0000
0000
1000
0000
0000
0001
0000
0010
0000
0100
0000
,  // measure 69
0010
0000
0002
0000
0100
0000
0000
2003
0000
0000
3100
0000
1000
0000
0000
0000
,  // measure 70
0001
0000
0010
0000
0001
0000
0000
0001
0000
0000
1000
0000
0010
0000
0100
0000
,  // measure 71
0010
0000
2000
0000
0100
0000
0000
3002
0000
0000
1003
0000
0100
0000
1000
0000
,  // measure 72
0001
0000
0100
0000
0001
0000
0000
0001
0000
0000
1000
0000
0100
0000
0010
0000
,  // measure 73
0100
0000
2000
0000
0010
0000
0000
3002
0000
0000
0013
0000
0001
0000
0000
0000
,  // measure 74
1000
0000
0100
0000
1000
0000
0000
1000
0000
0000
0001
0000
0100
0000
0010
0000
,  // measure 75
2000
0000
0000
3001
,  // measure 76
1000
0000
0100
0000
1000
0000
0000
1000
0000
0000
0010
0000
0100
0000
0010
0000
,  // measure 77
1000
0000
0200
0000
0010
0000
0000
2300
0000
0000
3100
0000
1000
0000
0000
0000
,  // measure 78
0001
0000
0100
0000
0001
0000
0000
0001
0000
0000
0010
0000
0100
0000
0010
0000
,  // measure 79
0001
0000
0200
0000
0010
0000
0000
0302
0000
0000
1003
0000
0010
0000
1000
0000
,  // measure 80
0001
0000
0010
0000
0001
0000
0000
0001
0000
0000
0100
0000
0010
0000
0100
0000
,  // measure 81
0001
0000
0020
0000
0100
0000
0000
0032
0000
0000
0013
0000
0001
0000
0000
0000
,  // measure 82
1000
0000
0010
0000
1000
0000
0000
1000
0000
0000
0100
0000
0010
0000
0001
0000
,  // measure 83
0100
0010
1000
0000
1000
0000
1001
0000
,  // measure 84
2100
0000
0000
0100
0000
0000
3100
0000
1000
0000
0010
0000
0100
0000
0010
0000
,  // measure 85
2000
0000
0000
0100
0000
0000
3100
0000
1000
0000
0010
0000
0100
0000
0000
0000
,  // measure 86
0102
0000
0000
0100
0000
0000
0103
0000
0001
0000
0010
0000
0100
0000
1000
0000
,  // measure 87
0002
0000
0000
0100
0000
0000
0103
0000
0010
0000
0000
0000
0000
0000
0000
0000
,  // measure 88
2010
0000
0000
0010
0000
0000
3010
0000
1000
0000
0100
0000
0010
0000
0000
0000
,  // measure 89
0012
0000
0000
0010
0000
0000
0013
0000
0001
0000
0100
0000
0010
0000
0000
0000
,  // measure 90
1010
0011
1010
0011
,  // measure 91
1002
0000
0000
0000
,  // measure 92
0003
0000
0000
0000
;

//---------------dance-single - XMOD DS----------------
#NOTEDATA:;
#CHARTNAME:;
#CHARTSTYLE:;
#CREDIT:Talkion;
#STEPSTYPE:dance-single;
#DESCRIPTION:XMOD DS-;
#DIFFICULTY:Challenge;
#METER:16;
#METERF:16;
#RADARVALUES:0,0,0,0,0;
#NOTES:
// measure 0
0000
0000
0000
0000
,  // measure 1
0000
0000
0000
0000
,  // measure 2
0000
0000
0000
0000
,  // measure 3
0000
0000
0000
0000
,  // measure 4
1100
0000
0000
0001
0000
0000
0001
0000
,  // measure 5
0000
0000
0000
0000
,  // measure 6
0100
0000
0000
0010
0000
0000
1000
0000
,  // measure 7
0000
0000
0000
0000
,  // measure 8
0100
0000
0000
1000
0000
0000
1000
0000
,  // measure 9
0000
0000
0000
0000
,  // measure 10
0100
0000
0000
0010
0000
0000
0002
0000
,  // measure 11
0000
0000
0000
0000
1003
0010
0100
0010
,  // measure 12
2000
0000
3100
0010
0002
0000
0013
0001
,  // measure 13
0200
0000
0310
1000
0100
0010
0100
1000
,  // measure 14
0002
0000
0103
0010
2000
0000
3001
0010
,  // measure 15
0002
0000
1003
0010
0100
0001
0010
0100
,  // measure 16
0010
0001
0100
0010
1000
0001
0010
0100
,  // measure 17
1000
0001
0100
0010
1000
0001
0010
0001
,  // measure 18
2000
0000
0010
0000
3002
0000
0010
0000
1003
0001
1000
0010
0100
0001
0100
0010
,  // measure 19
1000
0000
0000
0000
0001
0000
0000
0000
0010
0001
0010
0001
2000
3000
0000
0000
,  // measure 20
0002
0000
0000
1003
0010
1000
0002
0000
0010
0000
1003
0000
0001
0000
0010
0000
,  // measure 21
0002
0000
0000
1003
0010
1000
0002
0000
0010
0000
1003
0000
1001
0000
0000
0000
,  // measure 22
2000
0000
0000
3001
0010
0001
2000
0000
0010
0000
3001
0000
1000
0000
0010
0000
,  // measure 23
2000
0000
0000
3001
0010
0001
1000
0000
0M10
0000
0010
0000
0100
0000
0100
0000
,  // measure 24
M002
0000
0000
1003
0100
1000
0002
0000
0100
0000
1003
0000
0001
0000
0100
0000
,  // measure 25
0002
0000
0000
1003
0100
1000
0002
0000
0100
0000
1003
0000
1001
0000
0000
0000
,  // measure 26
2000
0000
0000
3001
0100
0001
2000
0000
0100
0000
3001
0000
0010
0100
0010
0001
,  // measure 27
M100
0000
0001
0000
1000
0000
0010
0100
0001
0100
0010
0000
1000
0000
1000
0000
,  // measure 28
01M2
0000
0000
1003
0100
0010
0002
0000
0100
0000
1003
0000
0001
0000
0100
0000
,  // measure 29
0002
0000
0000
1003
0100
0010
0002
0000
0100
0000
1003
0000
1001
0000
0000
0000
,  // measure 30
2100
0000
0000
3001
0100
0010
2000
0000
0100
0000
3001
0000
1000
0000
0100
0000
,  // measure 31
2000
0000
0000
3001
0100
0010
1000
0000
010M
0000
0100
0000
1000
0000
1000
0000
,  // measure 32
0M12
0000
0000
1003
0010
0100
0002
0000
0010
0000
1003
0000
0001
0000
0010
0000
,  // measure 33
0012
0000
0000
1003
0010
0100
0002
0000
0010
0000
1003
0000
1001
0000
0000
0000
,  // measure 34
2010
0000
0000
3001
0010
0100
1000
0000
0010
0100
0001
0000
0010
0100
1000
0000
,  // measure 35
2001
0000
0000
0000
3010
0000
0100
0010
1000
0010
0100
0000
0001
0000
0001
0000
,  // measure 36
1000
0000
0100
0010
0100
0000
1000
0000
0100
0010
0001
0000
1000
0000
0001
0000
,  // measure 37
0001
0000
0100
0010
0100
0000
0001
0000
0100
0010
1000
0000
0002
0000
0010
0000
,  // measure 38
1003
0000
0001
0010
0001
0000
1000
0000
0001
0010
0100
0000
2000
0000
0010
0000
,  // measure 39
3001
0000
1000
0010
1000
0000
0001
0000
1000
0010
0100
0000
0001
0000
0000
0000
,  // measure 40
1000
0000
0100
0010
0100
0000
1000
0000
0100
0010
0001
0000
1000
0000
0001
0000
,  // measure 41
0001
0000
0100
0010
0100
0000
0001
0000
0100
0010
1000
0000
0002
0000
0010
0000
,  // measure 42
1003
0100
0010
0100
1000
0010
1000
0010
,  // measure 43
0100
0001
0100
0001
0010
0100
0010
0001
,  // measure 44
1000
0010
1000
0001
0010
0001
0100
0010
,  // measure 45
1000
0010
0100
0001
1000
0001
0010
0100
,  // measure 46
1000
0001
0010
0001
1000
0010
1000
0100
,  // measure 47
0010
0001
1000
0001
0100
0010
0100
0001
,  // measure 48
1000
0100
1000
0001
0100
0001
0010
0100
,  // measure 49
1000
0100
0010
0001
1000
0001
0100
0010
,  // measure 50
1000
0001
0100
0001
1000
0100
1000
0010
,  // measure 51
0100
0001
1000
0001
0010
0100
0010
0001
,  // measure 52
2000
0000
3010
0200
0001
0000
0302
0000
,  // measure 53
0100
1000
0100
1003
,  // measure 54
0002
0000
0013
0200
1000
0000
0320
0000
,  // measure 55
0100
0000
0001
0000
0100
0000
0031
1000
,  // measure 56
0010
0100
0020
0000
0100
0000
1030
0000
,  // measure 57
2000
0010
3002
0010
,  // measure 58
2003
0001
0100
0001
,  // measure 59
0100
0001
0100
3001
,  // measure 60
1000
0000
1000
0000
0010
0000
0100
0000
0001
1000
0001
0000
0010
0000
0001
0000
,  // measure 61
1000
0000
1000
0000
0010
0100
0010
0000
1000
0000
0001
0000
0010
0000
0001
0000
,  // measure 62
1000
1000
0010
0010
0100
0001
0010
0001
,  // measure 63
1000
0000
0100
0010
0100
0000
1000
0000
0010
0100
0010
0000
1000
0000
0000
0000
,  // measure 64
0001
0000
0001
0000
0010
0000
0100
0000
1000
0001
1000
0000
0010
0000
1000
0000
,  // measure 65
0001
0000
0001
0000
0010
0100
0010
0000
0001
0000
1000
0000
0010
0000
1000
0000
,  // measure 66
0001
0010
0100
0010
0002
0000
0100
0000
2003
0000
0100
0000
3001
0010
0100
0010
,  // measure 67
0001
0001
1000
2000
0000
3010
0110
0000
,  // measure 68
1000
0100
0010
0000
0001
1000
0000
1000
0000
0010
0100
0000
0002
0000
0100
0000
,  // measure 69
1003
0100
0010
0000
0001
1000
0000
0010
0200
0000
0000
0000
0301
1000
0100
1000
,  // measure 70
0001
0100
0010
0000
1000
0001
0000
0001
0000
0010
0100
0000
2000
0000
0100
0000
,  // measure 71
3001
0100
0010
0000
1000
0001
0000
0010
0100
0000
0100
0000
0010
0000
0010
0000
,  // measure 72
0001
0010
0100
0000
1000
0001
0000
0001
0000
0100
0010
0000
2000
0000
0010
0000
,  // measure 73
3001
0010
0100
0000
1000
0001
0000
0100
0020
0000
0000
0000
1030
0001
0010
0001
,  // measure 74
1000
0010
0100
0000
0001
1000
0000
1000
0000
0100
0010
0000
0002
0000
0010
0000
,  // measure 75
1M03
0000
0001
0000
0100
0010
0000
2000
0000
0000
0000
0000
3002
0000
0010
0000
,  // measure 76
1003
0010
0100
0000
0001
1000
0001
1000
0000
0100
0010
0000
0002
0000
0010
0000
,  // measure 77
1003
0010
0100
0000
0001
1000
0100
0010
0100
0000
1000
0000
0001
1000
0010
1000
,  // measure 78
0001
0010
0100
0000
1000
0001
1000
0001
0000
0100
0010
0000
2000
0000
0010
0000
,  // measure 79
3001
0010
0100
0000
1000
0001
0100
0010
0100
0000
0001
0000
0010
0000
0010
0000
,  // measure 80
0001
0100
0010
0000
1000
0001
1000
0001
0000
0010
0100
0000
2000
0000
0100
0000
,  // measure 81
3001
0100
0010
0000
1000
0001
0010
0100
0010
0000
0001
0000
1000
0001
0100
0001
,  // measure 82
1000
0100
0010
0000
0001
1000
0001
1000
0000
0010
0100
0000
0002
0000
0100
0000
,  // measure 83
0013
0000
0200
0000
0310
0100
1000
0100
0010
0000
0000
0000
0010
0000
0000
0000
,  // measure 84
0012
0000
0000
0103
0010
0100
0002
0000
0010
0000
1003
0000
0001
0000
0010
0000
,  // measure 85
0002
0000
0000
0103
0010
0100
0002
0000
0010
0000
1003
0000
1001
0000
0000
0000
,  // measure 86
2010
0000
0000
3100
0010
0100
2000
0000
0010
0000
3001
0000
1000
0000
0010
0000
,  // measure 87
2000
0000
0000
3100
0010
0100
1000
0000
001M
0000
0010
0000
1000
0000
1000
0000
,  // measure 88
01M2
0000
0000
0013
0100
0010
0002
0000
0100
0000
1003
0000
0001
0000
0100
0000
,  // measure 89
0102
0000
0000
0013
0100
0010
0002
0000
0100
0000
1003
0000
1001
0000
0000
0000
,  // measure 90
2100
0000
0000
3010
0100
0010
1000
0000
0100
0010
0001
0000
0100
0010
1000
0000
,  // measure 91
2001
0000
0000
0000
;

//---------------dance-single - XMOD FS DS----------------
#NOTEDATA:;
#CHARTNAME:;
#CHARTSTYLE:;
#CREDIT:Talkion;
#STEPSTYPE:dance-single;
#DESCRIPTION:XMOD FS DS-;
#DIFFICULTY:Edit;
#METER:17;
#METERF:17;
#RADARVALUES:0,0,0,0,0;
#NOTES:
// measure 0
0000
0000
0000
0000
,  // measure 1
0000
0000
0000
0000
,  // measure 2
0000
0000
0000
0000
,  // measure 3
0000
0000
0000
0000
,  // measure 4
1100
0000
0000
0001
0000
0000
0001
0000
,  // measure 5
0000
0000
0000
0000
,  // measure 6
0100
0000
0000
0010
0000
0000
1000
0000
,  // measure 7
0000
0000
0000
0000
,  // measure 8
0100
0000
0000
1000
0000
0000
1000
0000
,  // measure 9
0000
0000
0000
0000
,  // measure 10
0100
0000
0000
0010
0000
0000
0002
0000
,  // measure 11
0000
0000
0000
0000
1003
0010
0100
0010
,  // measure 12
2000
0000
3100
0010
0002
0000
0013
0001
,  // measure 13
0200
0000
0310
1000
0100
0010
0100
1000
,  // measure 14
0002
0000
0103
0010
2000
0000
3001
0010
,  // measure 15
0002
0000
1003
0010
0100
0001
0010
0100
,  // measure 16
0010
0001
0100
0010
1000
0001
0010
0100
,  // measure 17
1000
0001
0100
0010
1000
0001
0010
0001
,  // measure 18
1000
0010
0100
0010
1000
0001
1000
0100
0010
0001
1000
0010
0100
0010
1000
0001
,  // measure 19
1000
0000
0100
0000
1000
0000
0000
0000
0001
0100
0001
0100
0010
0000
0100
0000
,  // measure 20
0002
0000
0000
1003
0100
0100
0002
0000
0010
0000
1003
0000
0001
0000
0010
0000
,  // measure 21
0002
0000
0000
1003
0100
0100
0002
0000
0010
0000
1003
0000
1001
0000
0000
0000
,  // measure 22
2000
0000
0000
3001
0100
0100
2000
0000
0010
0000
3001
0000
1000
0000
0010
0000
,  // measure 23
2000
0000
0000
3001
0100
0100
1000
0000
001M
0000
0010
0000
0100
0000
0100
0000
,  // measure 24
M002
0000
0000
1003
0010
0010
0002
0000
0100
0000
1003
0000
0001
0000
0100
0000
,  // measure 25
0002
0000
0000
1003
0010
0010
0002
0000
0100
0000
1003
0000
1001
0000
0000
0000
,  // measure 26
2000
0000
0000
3001
0010
0010
2000
0000
0100
0000
3001
0000
0010
0100
0010
0001
,  // measure 27
M100
0000
0001
0000
1000
0000
0010
0100
0001
0100
0010
0000
1000
0000
1000
0000
,  // measure 28
01M2
0000
0000
1003
0010
0010
0002
0000
0100
0000
1003
0000
0001
0000
0100
0000
,  // measure 29
0002
0000
0000
1003
0010
0010
0002
0000
0100
0000
1003
0000
1001
0000
0000
0000
,  // measure 30
2100
0000
0000
3001
0010
0010
2000
0000
0100
0000
3001
0000
1000
0000
0100
0000
,  // measure 31
2000
0000
0000
3001
0010
0010
1000
0000
010M
0000
0100
0000
1000
0000
1000
0000
,  // measure 32
0M12
0000
0000
1003
0100
0100
0002
0000
0010
0000
1003
0000
0001
0000
0010
0000
,  // measure 33
0012
0000
0000
1003
0100
0100
0002
0000
0010
0000
1003
0000
1001
0000
0000
0000
,  // measure 34
2010
0000
0000
3001
0100
0100
1000
0000
0010
0100
0001
0000
0010
0100
1000
0000
,  // measure 35
2001
0000
0000
0000
3010
0000
0100
0010
1000
0010
0100
0000
0001
0000
0001
0000
,  // measure 36
1000
0000
0100
0010
0100
0000
1000
0000
0100
0010
0001
0000
1000
0000
0001
0000
,  // measure 37
0001
0000
0100
0010
0100
0000
0001
0000
0100
0010
1000
0000
0002
0000
0010
0000
,  // measure 38
1003
0000
0001
0010
0001
0000
1000
0000
0001
0010
0100
0000
2000
0000
0010
0000
,  // measure 39
3001
0000
1000
0010
1000
0000
0001
0000
1000
0010
0100
0000
0001
0000
0000
0000
,  // measure 40
1000
0000
0100
0010
0100
0000
1000
0000
0100
0010
0001
0000
1000
0000
0001
0000
,  // measure 41
0001
0000
0100
0010
0100
0000
0001
0000
0100
0010
1000
0000
0002
0000
0010
0000
,  // measure 42
1003
0100
0010
0100
1000
0010
1000
0010
,  // measure 43
0100
0001
0100
0001
0010
0100
0010
0001
,  // measure 44
1000
0010
1000
0001
0010
0001
0100
0010
,  // measure 45
1000
0010
0100
0001
1000
0001
0010
0100
,  // measure 46
1000
0001
0010
0001
1000
0010
1000
0100
,  // measure 47
0010
0001
1000
0001
0100
0010
0100
0001
,  // measure 48
1000
0100
1000
0001
0100
0001
0010
0100
,  // measure 49
1000
0100
0010
0001
1000
0001
0100
0010
,  // measure 50
1000
0001
0100
0001
1000
0100
1000
0010
,  // measure 51
0100
0001
1000
0001
0010
0100
0010
0001
,  // measure 52
2000
0000
3010
0200
0001
0000
0302
0000
,  // measure 53
0100
1000
0100
1003
,  // measure 54
0002
0000
0013
0200
1000
0000
0320
0000
,  // measure 55
0100
0000
0001
0000
0100
0000
0031
1000
,  // measure 56
0010
0100
0020
0000
0100
0000
1030
0000
,  // measure 57
2000
0010
3002
0010
,  // measure 58
2003
0001
0100
0001
,  // measure 59
0100
0001
0100
3001
,  // measure 60
1000
0000
1000
0000
0010
0000
0100
0010
1000
0010
0100
0000
0001
0000
1000
0000
,  // measure 61
0001
0000
0001
0000
0010
0100
0010
0000
0001
0000
1000
0000
0010
0000
1000
0000
,  // measure 62
0001
0001
0010
0010
0100
1000
0010
1000
,  // measure 63
0001
0000
0010
0100
0010
0000
0001
0000
0100
0010
0100
0000
0001
0000
0000
0000
,  // measure 64
1001
0000
0001
0000
0010
0000
0100
0010
0001
0010
0100
0000
1000
0000
0001
0000
,  // measure 65
1000
0000
1000
0000
0010
0100
0010
0000
1000
0000
0001
0000
0010
0000
0001
0000
,  // measure 66
1000
0010
0100
0010
1000
0001
0010
0100
1000
0001
0100
0010
1000
0001
0010
0100
,  // measure 67
1000
1000
0001
0002
0000
0103
0110
0000
,  // measure 68
1000
0100
0010
0000
0001
0010
0M00
0010
0000
1000
0100
0000
2000
0000
0010
0000
,  // measure 69
3001
0100
0010
0000
1000
0001
0000
0010
0200
0000
0000
0000
1300
0001
0010
0001
,  // measure 70
1000
0010
0100
0000
0001
0100
00M0
0100
0000
1000
0010
0000
2000
0000
0100
0000
,  // measure 71
3001
0010
0100
0000
1000
0001
0000
0100
0010
0000
0010
0000
0100
0000
0100
0000
,  // measure 72
0001
0100
0010
0000
1000
0010
0M00
0010
0000
0001
0100
0000
0002
0000
0010
0000
,  // measure 73
1003
0100
0010
0000
0001
1000
0000
0010
0200
0000
0000
0000
0301
1000
0010
1000
,  // measure 74
0001
0010
0100
0000
1000
0100
00M0
0100
0000
0001
0010
0000
0002
0000
0100
0000
,  // measure 75
10M3
0000
0001
0000
0010
0100
0000
2000
0000
0000
0000
0000
3002
0000
0100
0000
,  // measure 76
1003
0100
0010
0000
0001
0100
0100
1000
0000
0100
0010
0000
0002
0000
0010
0000
,  // measure 77
1003
0010
0100
0000
0001
1000
0001
0010
0200
0000
0000
0000
1300
0001
0010
0001
,  // measure 78
1000
0010
0100
0000
0001
0010
0010
1000
0000
0010
0100
0000
0002
0000
0100
0000
,  // measure 79
1003
0100
0010
0000
0001
1000
0001
0100
0010
0000
0010
0000
1000
0000
1000
0000
,  // measure 80
0001
0100
0010
0000
1000
0100
0100
0001
0000
0100
0010
0000
2000
0000
0010
0000
,  // measure 81
3001
0010
0100
0000
1000
0001
1000
0010
0200
0000
0000
0000
0301
1000
0010
1000
,  // measure 82
0001
0010
0100
0000
1000
0010
0010
0001
0000
0010
0100
0000
2000
0000
0100
0000
,  // measure 83
3020
0000
0130
0000
0010
0100
0010
1000
0001
0000
0000
0000
0001
0000
0000
0000
,  // measure 84
0102
0000
0000
0013
0100
0100
0002
0000
0010
0000
1003
0000
0001
0000
0100
0000
,  // measure 85
0002
0000
0000
0013
0100
0100
0002
0000
0010
0000
1003
0000
1001
0000
0000
0000
,  // measure 86
2100
0000
0000
3010
0100
0100
2000
0000
0010
0000
3001
0000
1000
0000
0100
0000
,  // measure 87
2000
0000
0000
3010
0100
0100
1000
0000
001M
0000
0010
0000
1000
0000
1000
0000
,  // measure 88
0M12
0000
0000
0103
0010
0010
0002
0000
0100
0000
1003
0000
0001
0000
0010
0000
,  // measure 89
0012
0000
0000
0103
0010
0010
0002
0000
0100
0000
1003
0000
1001
0000
0000
0000
,  // measure 90
2010
0000
0000
3100
0010
0010
1000
0000
0100
0010
0001
0000
0100
0010
1000
0000
,  // measure 91
2001
0000
0000
0000
;
