#TITLE:Final Battle;
#SUBTITLE:;
#ARTIST:Waterflame;
#TITLETRANSLIT:;
#SUBTITLETRANSLIT:;
#ARTISTTRANSLIT:;
#GENRE:;
#CREDIT:;
#MUSIC:Final Battle.ogg;
#BANNER:FInal Battle.png;
#BACKGROUND:Final Battle-bg.png;
#CDTITLE:;
#SAMPLESTART:72.828;
#SAMPLELENGTH:15.000;
#SELECTABLE:YES;
#OFFSET:0.000;
#BPMS:0.000=145.000;
#STOPS:;
#BGCHANGES:15.900=Final Battle.avi=1.000=0=0=1===CrossFade_Fastest==,
276.000=Final Battle-bg.png=1.000=0=0=1,
99999.000=-nosongbg-=1.000=0=0=0=StretchNoLoop====
;
#FGCHANGES:;

//--------------- dance-single - KAYSTAR ----------------
#NOTES:
     dance-single:
     KAYSTAR:
     Beginner:
     3:
     0,0,0,0,0:
0000
0000
0000
0000
,
0000
0000
0000
0000
,
0000
0000
0000
0000
,
0000
0000
0000
0000
,
2000
0000
3000
0000
,
0002
0000
0003
0000
,
2000
0000
3000
0000
,
0002
0000
0003
0000
,
1000
0000
0100
0000
,
0010
0000
0010
0000
,
0001
0000
1000
0000
,
0010
0000
0010
0000
,
0100
0000
0001
0000
,
1000
0000
1000
0000
,
0100
0000
0010
0000
,
0001
0000
0001
0000
,
2000
0000
3000
0000
,
0010
0000
0100
0000
,
0002
0000
0003
0000
,
0010
0000
0100
0000
,
2000
0000
3000
0000
,
0001
0000
0100
0000
,
0010
0000
1000
0000
,
0100
0000
0010
0000
,
0002
0000
0000
0000
,
0003
0000
0000
0000
,
0000
0000
0000
0000
,
0000
0000
0000
0000
,
2000
0000
3000
0000
,
0002
0000
0003
0000
,
2000
0000
3000
0000
,
0002
0000
0003
0000
,
1000
0000
1000
0000
,
0010
0000
0010
0000
,
0100
0000
0100
0000
,
0001
0000
0001
0000
,
1000
0000
0100
0000
,
0010
0000
0001
0000
,
0100
0000
0010
0000
,
1000
0000
0001
0000
,
2002
0000
0000
0000
,
0000
0000
3003
0000
,
1000
0000
0100
0000
,
0010
0000
0001
0000
,
1000
0000
0010
0000
,
0100
0000
0100
0000
,
0001
0000
1000
0000
,
0100
0000
0100
0000
,
0010
0000
0001
0000
,
1000
0000
1000
0000
,
0010
0000
0100
0000
,
0002
0000
0003
0000
,
1000
0000
0100
0000
,
0001
0000
0100
0000
,
1000
0000
0100
0000
,
0010
0000
0001
0000
,
0100
0000
1000
0000
,
0100
0000
0001
0000
,
0100
0000
0010
0000
,
2000
0000
3000
0000
,
0001
0000
0001
0000
,
0010
0000
0010
0000
,
0100
0000
0100
0000
,
1000
0000
1000
0000
,
0001
0000
0100
0000
,
0010
0000
1000
0000
,
0100
0000
0010
0000
,
0001
0000
0100
0000
,
0010
0010
0010
0000
,
2002
0000
0000
0000
,
3003
0000
0000
0000
;

//--------------- dance-single - KAYSTAR ----------------
#NOTES:
     dance-single:
     KAYSTAR:
     Easy:
     6:
     0,0,0,0,0:
0000
0000
0000
0000
,
0000
0000
0000
0000
,
0000
0000
0000
0000
,
0000
0000
0000
0000
,
2000
0000
3001
0000
,
2000
0000
3001
0000
,
2000
0000
3001
0000
,
1000
0100
0010
0001
,
2000
0000
3010
0000
,
1000
0010
0100
0000
,
0002
0000
0013
0000
,
0001
0010
0100
0000
,
2000
0000
3010
0000
,
0100
0001
1000
0000
,
0002
0000
0013
0000
,
0100
1000
0001
0000
,
1000
1000
0010
0100
,
0001
0001
0010
0100
,
2000
0000
0000
0000
,
3010
0000
0100
0000
,
0001
0001
0010
0100
,
1000
1000
0010
0100
,
0002
0000
0000
0000
,
0013
0010
0100
0100
,
2000
0000
0000
0000
,
3000
0000
0000
0000
,
0000
0000
0000
0000
,
0000
0000
0000
0001
,
0100
0001
0100
0000
,
0010
1000
0010
1000
,
0002
0000
0023
0000
,
0230
0000
2300
0000
,
3001
0100
0001
0100
,
0010
1000
0010
1000
,
0001
0010
0001
0010
,
0100
1000
0100
1000
,
0001
0100
0010
1000
,
0100
0010
0001
1000
,
0010
0010
0100
0100
,
0001
0010
0100
1000
,
0002
0000
0000
0000
,
0000
0000
0003
0000
,
1000
1000
0010
0010
,
0100
0100
0001
0001
,
2000
0000
3100
0000
,
1000
0100
0010
0000
,
0002
0000
0103
0000
,
0001
0100
0010
0000
,
2000
0000
3100
0000
,
0010
0001
1000
0000
,
0002
0000
0103
0000
,
0010
1000
0001
0000
,
1000
1000
0100
0100
,
0010
0001
1000
0010
,
0100
0100
0001
0001
,
1000
0100
0010
0000
,
0001
0001
0100
0100
,
0010
1000
0001
0010
,
0100
0100
1000
1000
,
0001
0100
0010
0000
,
1000
1001
0001
0000
,
0010
0100
1000
0000
,
0010
0100
0001
0000
,
0010
0100
1000
0000
,
0001
0001
0100
0100
,
0010
0010
1000
1000
,
0001
0010
0100
1000
,
0001
0100
0010
1000
,
0100
0010
0001
1000
,
2002
0000
0000
0000
,
3003
0000
0000
0000
;

//--------------- dance-single - KAYSTAR ----------------
#NOTES:
     dance-single:
     KAYSTAR:
     Medium:
     12:
     0,0,0,0,0:
0000
0000
0000
0000
,
0000
0000
0000
0000
,
0000
0000
0000
0000
,
0000
0000
0000
0000
,
0002
0000
0103
0000
,
0020
0000
1030
0000
,
0200
0000
0310
0000
,
0001
0100
0001
0100
0010
0100
0010
1000
0010
1000
0000
0000
,
1001
0000
0000
0000
0001
0010
0100
0000
0000
0000
0010
0100
,
1000
0000
0001
0000
0100
0000
1000
0000
0100
0000
0001
0000
,
1001
0000
0000
0000
1000
0100
0010
0000
0000
0000
0100
0010
,
0001
0000
1000
0000
0010
0000
0100
0000
0000
0001
0000
0000
,
1001
0000
0000
0000
1000
0010
0100
0000
0000
0000
0010
0100
,
0001
0000
1000
0000
0100
0000
0001
0000
0100
0000
1000
0000
,
0001
0000
0100
0000
0010
0100
0010
0000
1000
0000
0100
0010
,
0100
0000
0010
0000
0001
0000
1000
0000
0000
1001
0000
0000
,
0001
0000
1000
0010
0000
0000
0100
0000
0001
1000
0000
0000
,
0100
0000
0010
0001
0000
0000
1000
0000
0010
0100
0000
0000
,
0002
0100
1000
0013
,
0001
0000
0010
0100
0000
0100
1000
0000
0010
0100
0000
0100
,
0001
0000
1000
0100
0000
0000
0010
0000
0001
1000
0000
0000
,
0010
0000
0100
0001
0000
0000
1000
0000
0100
0010
0000
0000
,
0001
0000
0100
0000
0010
0000
1000
0000
0100
0000
0010
0000
,
0002
0000
0000
1003
0000
0000
0001
0100
0010
0100
0010
1000
,
0002
0000
0000
0000
,
0003
0000
0000
0000
,
0000
0000
0000
0000
,
0000
0000
0000
0000
0000
0000
0000
0000
0000
1000
0000
1000
,
0100
0000
0100
0010
0000
0010
0001
0000
0000
1000
0000
0010
,
0100
0000
0000
0001
0000
0000
1001
0000
0000
1000
0000
0100
,
0010
0001
1001
1000
,
0010
0100
0001
1001
,
1000
0000
0001
0010
0000
0100
0010
0000
0100
1000
0000
0000
,
0001
0000
1000
0010
0000
0100
0010
0000
0100
0001
0000
0000
,
1000
0000
0001
0010
0000
0010
0100
0000
0100
1000
0000
0000
,
0001
0000
1000
0010
0000
0010
0100
0000
0100
0001
0000
0000
,
1000
0000
1000
0100
0000
0100
0010
0000
0010
0001
0000
0001
,
0100
0000
0100
0010
0000
0010
1000
0000
1000
0100
0000
0100
,
0010
0000
0010
0001
0000
0001
0100
0000
0100
0010
0000
0010
,
2000
0000
0000
3001
0010
0001
0010
0100
0010
0100
1000
0100
,
2000
0000
0000
0000
,
0000
0000
3000
0000
,
0001
0000
1000
0010
0000
0100
0010
0000
0100
0001
0000
1000
,
0100
1000
0100
0010
0100
0010
0001
0010
0001
1000
0000
0000
,
1001
0000
0000
0000
0001
0100
0010
0000
0000
0000
0100
0010
,
1000
0000
0001
0000
0010
0000
1000
0000
0010
0000
0001
0000
,
1001
0000
0000
0000
1000
0010
0100
0000
0000
0000
0010
0100
,
0001
0000
1000
0000
0100
0000
0010
0000
0000
0001
0000
0000
,
1001
0000
0000
0000
1000
0100
0010
0000
0000
0000
0100
0010
,
0001
0000
1000
0000
0010
0000
0001
0000
0010
0000
1000
0000
,
0001
0000
0010
0000
0100
0010
0100
0000
1000
0000
0010
0100
,
0010
0000
0100
0000
0001
0000
2000
0000
0000
0000
0000
0000
,
3001
0000
0010
0000
0100
1000
0100
0000
1000
0000
0001
0100
,
0010
0000
1000
0000
0100
0000
0001
0000
0100
0000
1000
0001
,
1000
0000
0001
0000
0100
0001
0100
0000
0010
0000
1000
0100
,
0010
0000
0001
0000
0100
0000
1000
0000
0100
0000
0001
1000
,
0001
0000
0010
0100
1000
0000
1002
0000
0000
0100
0000
0000
,
1003
0000
0100
0010
0001
0000
2001
0000
0000
0010
0000
0000
,
3001
0000
1001
0000
,
1000
0000
0100
0000
0010
0000
0001
0100
0001
0100
0010
0100
,
0010
1000
0010
2000
0000
0000
3001
0000
0001
0010
0000
0000
,
0100
0000
0100
1000
0000
0000
0001
0000
0000
1001
0000
0000
,
1000
0000
1000
0010
0000
0000
0100
0000
0100
0001
0000
0000
,
0010
0000
0010
0100
0000
0000
1000
0000
0000
1001
0000
0000
,
0001
0000
1000
0010
0000
0100
0001
0000
1000
0100
0000
0010
,
0001
0000
1000
0010
0000
0100
0001
0000
0000
1001
0000
0000
,
1000
0100
0010
0001
0000
0100
0001
0100
0010
1000
0000
0100
,
1000
0100
0010
0001
1000
0010
0100
0001
1000
0100
0010
0001
,
0200
0000
0010
0000
0310
0000
1100
0000
0110
0000
0011
0000
,
2002
0000
0000
0000
,
3003
0000
0000
0000
;

//--------------- dance-single - KAYSTAR ----------------
#NOTES:
     dance-single:
     KAYSTAR:
     Hard:
     15:
     0,0,0,0,0:
0000
0000
0000
0000
,
0000
0000
0000
0000
,
0000
0000
0000
0000
,
0000
0000
0000
0000
,
2000
0000
0000
0000
0000
0000
3000
0000
0000
0000
0000
0000
2200
3300
0000
0000
0000
0000
0000
0000
0000
0000
0000
0000
,
0002
0000
0000
0000
0000
0000
0003
0000
0000
0000
0000
0000
0202
0303
0000
0000
0000
0000
0000
0000
0000
0000
0000
0000
,
2000
0000
0000
0000
0000
0000
3000
0000
0000
0000
0000
0000
2002
3003
0000
0000
0000
0000
0000
0000
0000
0000
0000
0000
,
0001
0010
0001
0010
0100
0010
0100
1000
0100
1000
0001
0100
,
0010
0000
1000
0000
0100
0010
0200
0000
0301
0000
0100
0010
,
0100
0000
1100
0000
1000
0000
0001
0000
0101
0000
0100
0010
,
1000
0000
0001
0000
0010
0100
2000
0000
3010
0000
0100
0001
,
1000
0000
1100
0000
0110
0000
0011
0000
0001
0000
1000
0000
,
1001
0000
0001
0000
0100
0010
0200
0000
1300
0000
0100
0010
,
0100
0000
0101
0000
0001
0000
1000
0000
1100
0000
0100
0010
,
0001
0000
1001
0000
1000
0010
0100
0000
0110
0000
0010
0100
,
0001
0000
0011
0000
1100
0000
1001
0000
0000
1000
0010
0100
,
0001
0000
0001
0010
0000
0010
0100
0000
0100
1000
0000
1000
,
0001
0100
0010
1000
0000
0100
1000
0100
0010
0002
0000
0000
,
1003
0000
1000
0010
0000
0010
0100
0000
0100
0001
0000
0001
,
1000
0000
0001
0010
0100
1000
0001
0000
0100
0001
0100
0010
,
1000
0000
0001
0010
0001
0010
0001
0000
1000
0010
1000
0010
,
1000
0001
0010
0100
0010
0001
2000
0000
0000
3010
0100
0001
,
1000
0000
1100
0000
0100
0010
0001
0000
0101
0000
0100
0010
,
1000
0001
1000
0001
0010
0100
1000
0010
0100
0001
0010
0100
,
2000
0000
0000
0000
,
3000
0000
0000
0000
,
0000
0000
0000
0000
,
0000
0000
0000
0000
0000
0000
0000
0000
0000
0001
0100
0001
,
0100
0010
0100
0010
1000
0010
1000
0000
0000
0100
0010
0100
,
0010
0000
0000
0000
0000
0000
0001
0000
0000
0000
0000
0000
2002
3003
0000
0000
0000
0000
1000
0000
0010
0000
0100
0000
,
0002
0000
0000
0000
0000
0000
0103
0000
0000
0000
0000
0000
0202
0303
0000
0000
0000
0000
0001
0000
0000
0000
0000
0000
,
2000
0000
0000
0000
0000
0000
3100
0000
0000
0000
0000
0000
2200
3300
0000
0000
0000
0000
1001
0000
0000
0000
0000
0000
,
0001
0100
0001
1000
0100
1000
0001
0100
0010
1000
0100
0010
,
0001
1000
0010
0100
0010
1000
0001
0010
0100
1000
0010
0100
,
0001
1000
0100
1000
0010
0100
0010
1000
0001
0010
0100
1000
,
0001
0100
0001
0010
0100
0010
0001
1000
0010
0100
0001
1000
,
0100
0010
1000
0010
0100
1000
0010
0100
1000
0100
0010
1000
,
0001
0010
0100
1000
0100
0010
0001
0010
0100
1000
0001
0100
,
0010
0001
0010
0100
0001
0010
0100
0001
0100
0010
0001
1000
,
0010
0100
1000
0001
0010
1000
0001
0010
1000
0001
0100
0010
,
0002
0000
0000
0000
,
0000
0000
0003
0000
,
1000
0010
1000
0010
0100
0010
0100
0001
0100
0001
1000
0001
,
1000
0100
0010
0100
1000
0001
0100
0010
1000
0100
0010
0001
,
1001
0000
1000
0000
0010
0100
0020
0000
0031
0000
1000
0100
,
0010
0000
1010
0000
1000
0000
0001
0000
0011
0000
0010
0100
,
1000
0000
0001
0000
0100
0010
2000
0000
3100
0000
0010
0001
,
1000
0000
1010
0000
0110
0000
0101
0000
0001
0000
1000
0000
,
1001
0000
0001
0000
0010
0100
0020
0000
1030
0000
0001
0100
,
0010
0000
0011
0000
0001
0000
1000
0000
1010
0000
0010
0100
,
0002
0000
1003
0100
0010
0100
2000
0000
3001
0100
0010
0100
,
0001
0000
0011
0000
1100
0000
2002
0000
0000
3003
0000
0000
,
1001
0000
0001
0100
1000
0100
0002
0000
1003
0100
0010
0001
,
2000
3010
0200
0310
0002
0013
0200
0310
2000
0000
3010
0100
,
0002
0000
1003
0100
0001
0100
2000
0000
3001
0100
0010
1000
,
0002
0013
0200
0310
2000
3010
0200
0310
0002
0000
1003
0000
,
1001
0000
0001
0100
0010
0100
2000
0000
3001
0010
0100
0010
,
1000
0000
0000
0000
1100
0000
0000
0000
0011
0000
0000
0000
2002
3003
0000
0000
0101
0000
0000
0000
1010
0000
0000
0000
,
1002
0000
0000
0000
0013
0100
2000
0000
0000
0000
3010
0100
,
0001
1000
0100
1000
0010
0100
0001
0010
0001
1000
0010
0100
,
0001
0010
0100
2000
0000
0000
3001
0000
0100
0001
0100
0010
,
1000
0000
0100
1000
0100
0010
0001
0000
0100
0001
0100
0010
,
1000
0000
0001
0010
0100
1000
0010
0000
1000
0010
0100
0001
,
0010
0000
0001
0010
0100
1000
0010
0000
1000
0010
0100
0001
,
1000
0100
1000
0010
0100
0010
1000
0100
0010
0100
1000
0001
,
0100
0001
0010
0100
0010
0001
0100
0010
0100
0001
1000
0100
,
0001
0100
1000
0100
0010
0001
0100
1000
0100
0001
0100
0010
,
1000
0100
0010
1000
0001
0100
0010
0001
1000
0010
0100
0001
,
0011
0000
0110
0000
1100
0000
1010
0010
0110
0100
0101
0000
,
2002
0000
0000
0000
,
3003
0000
0000
0000
;

//--------------- dance-double - KAYSTAR ----------------
#NOTES:
     dance-double:
     KAYSTAR:
     Easy:
     6:
     0,0,0,0,0:
00000000
00000000
00000000
00000000
,
00000000
00000000
00000000
00000000
,
00000000
00000000
00000000
00000000
,
00000000
00000000
00000000
00000000
,
00020000
00000000
00031000
00000000
,
00020000
00000000
00031000
00000000
,
00020000
00000000
00031000
00000000
,
00010000
00001000
01000000
00010000
,
20000000
00000000
31000000
00000000
,
10000000
01000000
00100000
00000000
,
00002000
00000000
00013000
00000000
,
00001000
00010000
00001000
00000000
,
00020000
00000000
00031000
00000000
,
00010000
00000100
00001000
00000000
,
00000002
00000000
00000103
00000000
,
00000001
00000100
00000010
00000000
,
00001000
00001000
00000100
00000010
,
00000001
00000001
00001000
00000010
,
00020000
00000000
00000000
00000000
,
00031000
00000000
01000000
00000000
,
00010000
00010000
00100000
01000000
,
10000000
10000000
00100000
01000000
,
00002000
00000000
00000000
00000000
,
00013000
00000100
00001000
00000000
,
00000002
00000000
00000000
00000000
,
00000003
00000000
00000000
00000000
,
00000000
00000000
00000000
00000000
,
00000000
00000000
00000000
00001000
,
00000010
00010000
00001000
00000000
,
00010000
00001000
00010000
00000000
,
00002000
00000000
02003000
00000000
,
03020000
00000000
20030000
00000000
,
30010000
00010000
00100000
00100000
,
00001000
00001000
00010000
00010000
,
00000010
00000010
00001000
00001000
,
00000100
00000010
00000002
00000000
,
00001003
00001000
00000010
00000010
,
00010000
00010000
00001000
00001000
,
01000000
01000000
00010000
00010000
,
10000000
01000000
00100000
00001000
,
00022000
00000000
00000000
00000000
,
00000000
00000000
00033000
00000000
,
00020000
00000000
00000000
00000000
,
00030200
00000000
00002300
00000000
,
00003002
00000000
00000103
00000000
,
00000001
00000100
00000010
00000000
,
00020000
00000000
00031000
00000000
,
00010000
00001000
00010000
00000000
,
00002000
00000000
00013000
00000000
,
00001000
01000000
00010000
00000000
,
20000000
00000000
31000000
00000000
,
10000000
01000000
00100000
00000000
,
00001000
00001000
00010000
00010000
,
00000100
00001000
00000100
00000010
,
00000001
00000001
00001000
00001000
,
00000010
00010000
00001000
00000000
,
00010000
00010000
00001000
00001000
,
01000000
00010000
01000000
00100000
,
20000000
00000000
30020000
00000000
,
10030000
01000000
00100000
00001000
,
00010000
00011000
00001000
00000000
,
00010000
00001000
00010000
00000000
,
00001000
00010000
00000100
00000000
,
00001000
00000100
00000010
00000000
,
00000001
00000001
00001000
00001000
,
00000010
00010000
00001000
01000000
,
00010000
00010000
10000000
10000000
,
01000000
00100000
00001000
00010000
,
00000100
00000010
00000001
00001000
,
00002002
00000000
00000000
00000000
,
00003003
00000000
00000000
00000000
;

//--------------- dance-double - KAYSTAR ----------------
#NOTES:
     dance-double:
     KAYSTAR:
     Medium:
     12:
     0,0,0,0,0:
00000000
00000000
00000000
00000000
,
00000000
00000000
00000000
00000000
,
00000000
00000000
00000000
00000000
,
00000000
00000000
00000000
00000000
,
00020000
00000000
00031000
00000000
,
00020000
00000000
00031000
00000000
,
00020000
00000000
00031000
00000000
,
00010000
00001000
00010000
00001000
01000000
00001000
02000000
00000000
00000000
03100000
00000000
00000000
,
10010000
00000000
00000000
00000000
10000000
01000000
00100000
00000000
00000000
00000000
01000000
00100000
,
00010000
00000000
01000000
00000000
00001000
00000000
00010000
00000000
01000000
00000000
00010000
00000000
,
00001000
00000000
00000000
00000000
00010000
00001000
00010000
00000000
00000000
00000000
00001000
00010000
,
00000100
00000000
00000010
00000000
00000001
00000000
00002000
00000000
00000000
00003001
00000000
00000000
,
00001001
00000000
00000000
00000000
00000001
00000100
00000010
00000000
00000000
00000000
00000100
00000010
,
00001000
00000000
00000100
00000000
00010000
00000000
00001000
00000000
00000100
00000000
00001000
00000000
,
00010000
00000000
00001000
00000000
00010000
00001000
00010000
00000000
00001000
00000000
00010000
00001000
,
01000000
00000000
00100000
00000000
10000000
00000000
00020000
00000000
00000000
10030000
00000000
00000000
,
01000000
00000000
10000000
01000000
00000000
00000000
00010000
00000000
01000000
00010000
00000000
00000000
,
00001000
00000000
00010000
00001000
00000000
00000000
00000010
00000000
00001000
00000010
00000000
00000000
,
00000002
00002003
00003020
00020030
,
00031000
00000000
00010000
00000100
00000000
00000100
00001000
00000000
00001000
00000001
00000000
00000000
,
00000100
00000000
00000001
00000100
00000000
00000000
00001000
00000000
00000100
00001000
00000000
00000000
,
00010000
00000000
00001000
00010000
00000000
00000000
00100000
00000000
00010000
00100000
00000000
00000000
,
10000000
00000000
01000000
00000000
00100000
00000000
00001000
00000000
00010000
00000000
00100000
00000000
,
20000000
00000000
00000000
30010000
00000000
00000000
00100000
00001000
00100000
00001000
00010000
00001000
,
00020000
00000000
00000000
00000000
,
00030000
00000000
00000000
00000000
,
00000000
00000000
00000000
00000000
,
00000000
00000000
00000000
00000000
00000000
00000000
00000000
00000000
00000000
00001000
00000000
00001000
,
01000000
00000000
01000000
00010000
00000000
00010000
10000000
00000000
00000000
01000000
00000000
00100000
,
00010000
00000000
00000000
00100000
00000000
00000000
00002000
00000000
00000000
00013000
00000000
00000100
,
00001000
00000001
00000100
00001000
,
00020000
00001000
00031000
00011000
,
00010000
00000000
00001000
00010000
00000000
00001000
01000000
00000000
00010000
01000000
00000000
00000000
,
00010000
00000000
00010000
10000000
00000000
10000000
01000000
00000000
01000000
00010000
00000000
00000000
,
00001000
00000000
00010000
00001000
00000000
00010000
00000100
00000000
00001000
00000100
00000000
00000000
,
00001000
00000000
00001000
00000001
00000000
00000001
00000100
00000000
00000100
00001000
00000000
00000000
,
00010000
00000000
00010000
00001000
00000000
00001000
01000000
00000000
01000000
00100000
00000000
00100000
,
10000000
00000000
10000000
00010000
00000000
00010000
00100000
00000000
00100000
00001000
00000000
00001000
,
00010000
00000000
00010000
00000100
00000000
00000100
00000010
00000000
00000010
00000001
00000000
00000001
,
00001000
00000000
00001000
00000010
00000000
00000010
00010000
00001000
00010000
00001000
00010000
00001000
,
00020000
00000000
00000000
00000000
,
00000000
00000000
00030000
00000000
,
00001000
00000000
00010000
00001000
00000000
00010000
00000100
00000000
00001000
00000100
00000000
00000010
,
00000002
00000000
00000000
00001003
00000000
00000000
00000001
00000100
00000010
00000100
00000010
00001000
,
00000001
00000000
00000000
00000000
00000001
00000010
00000100
00000000
00000000
00000000
00000010
00000100
,
00001000
00000000
00000010
00000000
00010000
00000000
00001000
00000000
00000010
00000000
00001000
00000000
,
00010000
00000000
00000000
00000000
00001000
00010000
00001000
00000000
00000000
00000000
00010000
00001000
,
00100000
00000000
01000000
00000000
10000000
00000000
00020000
00000000
00000000
10030000
00000000
00000000
,
10010000
00000000
00000000
00000000
10000000
00100000
01000000
00000000
00000000
00000000
00100000
01000000
,
00010000
00000000
00100000
00000000
00001000
00000000
00010000
00000000
00100000
00000000
00010000
00000000
,
00001000
00000000
00010000
00000000
00001000
00010000
00001000
00000000
00010000
00000000
00001000
00010000
,
00000010
00000000
00000100
00000000
00000001
00000000
00002000
00000000
00000000
00003001
00000000
00000000
,
00001000
00000000
00000100
00000000
00000010
00000001
00000010
00000000
00000001
00000000
00001000
00000010
,
00000200
00000000
00000301
00000000
00000010
00000000
00000200
00000000
00001300
00000000
00000001
00000100
,
00000001
00000000
00000100
00000000
00001000
00010000
00001000
00000000
00010000
00000000
00100000
10000000
,
00100000
00000000
10000000
00000000
00010000
00000000
00100000
00000000
01000000
00000000
10000000
00000000
,
00010000
00000000
01000000
00000000
00100000
10000000
00100000
00000000
10000000
00000000
00010000
00100000
,
02000000
00000000
13000000
00000000
00100000
00000000
02000000
00000000
03010000
00000000
10000000
00000000
,
10010000
00000000
01100000
00000000
,
10010000
00000000
00110000
00000000
00101000
00000000
00011000
00000000
00000000
00001000
00010000
00001000
,
00010000
00000100
00010000
00000200
00000000
00000000
00001300
00000000
00001000
00000001
00000000
00000000
,
00000100
00000000
00000100
00001000
00000000
00000000
00010000
00000000
00001000
00010000
00000000
00000000
,
00001000
00000000
00001000
01000000
00000000
00000000
00010000
00000000
00010000
10000000
00000000
00000000
,
01000000
00000000
01000000
00010000
00000000
00000000
00001000
00000000
00010000
00001000
00000000
00000000
,
00010000
00000000
00001000
00010000
00000000
00000100
00010000
00000000
00000100
00001000
00000000
00000100
,
00000010
00000000
00000001
00001000
00000000
00000010
00001000
00000000
00000010
00010000
00000000
00000000
,
00001000
00010000
00001000
00010000
00000000
00001000
01000000
00001000
01000000
00010000
00000000
10000000
,
00010000
10000000
00010000
00100000
01000000
10000000
00010000
01000000
00100000
10000000
01000000
00100000
,
00002000
00000000
00010000
00000000
00013000
00000000
00011000
00000000
00010100
00000000
00001100
00000000
,
00002002
00000000
00000000
00000000
,
00003003
00000000
00000000
00000000
;

//--------------- dance-double - KAYSTAR ----------------
#NOTES:
     dance-double:
     KAYSTAR:
     Hard:
     15:
     0,0,0,0,0:
00000000
00000000
00000000
00000000
,
00000000
00000000
00000000
00000000
,
00000000
00000000
00000000
00000000
,
00000000
00000000
00000000
00000000
,
20000000
00000000
00000000
00000000
00000000
00000000
30000000
00000000
00000000
00000000
00000000
00000000
20020000
30030000
00000000
00000000
00000000
00000000
00000000
00000000
00000000
00000000
00000000
00000000
,
00020000
00000000
00000000
00000000
00000000
00000000
00030000
00000000
00000000
00000000
00000000
00000000
00022000
00033000
00000000
00000000
00000000
00000000
00000000
00000000
00000000
00000000
00000000
00000000
,
00002000
00000000
00000000
00000000
00000000
00000000
00003000
00000000
00000000
00000000
00000000
00000000
00002002
00003003
00000000
00000000
00000000
00000000
00000000
00000000
00000000
00000000
00000000
00000000
,
00001000
00000010
00000100
00000001
00000010
00000100
00001000
00000001
00000100
00000010
00010000
00001000
,
00011000
00000000
00010000
00000000
00001000
00010000
00200000
00000000
01300000
00000000
00010000
10000000
,
02000000
00000000
03020000
00000000
00032000
00000000
00023000
00000000
00230000
00000000
00310000
00001000
,
00010000
00000000
00001000
00000000
00010000
00001000
00000020
00000000
00000130
00000000
00001000
00000001
,
00000100
00000000
00000110
00000000
00001010
00000000
00011000
00000000
00001000
00000000
00010000
00000000
,
00011000
00000000
00001000
00000000
00010000
00001000
00000020
00000000
00000130
00000000
00001000
00000001
,
00000200
00000000
00002300
00000000
00023000
00000000
00032000
00000000
00003020
00000000
00001030
00010000
,
00001000
00000000
00010000
00000000
00001000
00010000
00200000
00000000
01300000
00000000
00010000
10000000
,
01000000
00000000
01100000
00000000
00110000
00000000
00011000
00000000
00000000
00001000
00010000
00001000
,
00010000
00000000
00010000
00000100
00000000
00000100
00000001
00000000
00000001
00000100
00000000
00000100
,
00001000
00000001
00000100
00000010
00000000
00010000
00001000
00000010
00001000
00020000
00000000
00000000
,
00031000
00000000
00001000
00010000
00000000
00010000
00100000
00000000
00100000
10000000
00000000
10000000
,
00010000
00000000
00100000
01000000
10000000
00010000
01000000
00000000
01000000
00100000
10000000
00010000
,
00100000
00000000
00001000
00010000
00100000
00010000
00001000
00000000
00010000
00001000
00000100
00001000
,
00010000
00000000
00001000
00000010
00000100
00001000
00000002
00000000
00000000
00000103
00000010
00001000
,
00000001
00000000
00000011
00000000
00000010
00000100
00001000
00000000
00001010
00000000
00000010
00000100
,
00000001
00001000
00000100
00000010
00000001
00001000
00000010
00010000
00001000
00010000
00100000
20000000
,
00020000
00000000
00000000
00000000
,
00000000
00000000
00000000
00000000
,
30030000
00000000
00000000
00000000
,
00000000
00000000
00000000
00000000
00000000
00000000
00000000
00000000
00000000
10000000
01000000
10000000
,
01000000
00100000
01000000
00100000
00010000
00100000
00001000
00000000
00000000
00010000
00001000
00010000
,
00001000
00000000
00000000
00000000
00000000
00000000
00010000
00000000
00000000
00000000
00000000
00000000
00022000
00033000
00000000
00000000
00000000
00000000
00001000
00000000
00010000
00000000
00000100
00000000
,
00002000
00000000
00000000
00000000
00000000
00000000
00003001
00000000
00000000
00000000
00000000
00000000
00002002
00003003
00000000
00000000
00000000
00000000
00000001
00000000
00000000
00000000
00000100
00000000
,
00002000
00000000
00000000
00000000
00000000
00000000
00013000
00000000
00000000
00000000
00000000
00000000
00022000
00033000
00000000
00000000
00000000
00000000
00011000
00000000
00000000
00000000
00000000
00000000
,
00001000
00010000
00001000
01000000
00010000
01000000
00001000
00010000
00001000
00100000
00010000
00100000
,
00001000
00010000
00100000
00010000
00001000
00010000
00100000
01000000
00100000
10000000
00010000
00100000
,
00001000
00010000
00000100
00001000
00000100
00010000
00001000
00010000
00000010
00001000
00000010
00010000
,
00001000
00000010
00001000
00010000
00001000
00000010
00000100
00000010
00000001
00001000
00000010
00010000
,
00001000
00100000
00010000
00001000
00010000
00100000
00001000
00010000
00100000
00010000
00001000
00100000
,
00010000
00100000
01000000
10000000
00100000
01000000
10000000
01000000
00100000
10000000
01000000
00100000
,
01000000
10000000
00010000
01000000
00001000
00010000
00001000
00000100
00000001
00001000
00000100
00000010
,
00001000
00000001
00000100
00000010
00000001
00001000
00000010
00001000
00010000
01000000
00100000
20000000
,
00020000
00000000
00000000
00000000
,
00000000
00000000
30030000
00000000
,
10000000
01000000
00100000
00010000
01000000
00100000
00010000
00001000
00000100
00000010
00001000
00000100
,
00000010
00000001
00001000
00000010
00000100
00000001
00000010
00000100
00001000
00000010
00010000
00001000
,
00011000
00000000
00010000
00000000
00000010
00010000
00200000
00000000
01300000
00000000
00010000
10000000
,
02000000
00000000
03020000
00000000
00032000
00000000
00023000
00000000
00230000
00000000
00310000
00001000
,
00010000
00000000
00001000
00000000
00100000
00001000
00000020
00000000
00000130
00000000
00001000
00000001
,
00000100
00000000
00000110
00000000
00001010
00000000
00011000
00000000
00001000
00000000
00010000
00000000
,
00011000
00000000
00001000
00000000
01000000
00001000
00000200
00000000
00000310
00000000
00001000
00000001
,
00000020
00000000
00002030
00000000
00023000
00000000
00032000
00000000
00003200
00000000
00001300
00010000
,
00001000
00000000
00010000
00000000
00000100
00010000
02000000
00000000
03100000
00000000
00010000
10000000
,
00100000
00000000
01100000
00000000
01010000
00000000
00022000
00000000
00000000
00033000
00000000
00000000
,
00011000
00000000
00010000
00000100
00000010
00000100
00020000
00000000
00031000
00000100
00000010
00001000
,
00000002
00000013
00000200
00000310
00002000
00003010
00000200
00000310
00000002
00000000
00001003
00000010
,
00020000
00000000
00031000
01000000
00100000
01000000
00002000
00000000
00013000
01000000
00100000
00010000
,
20000000
30100000
02000000
03100000
00020000
00130000
02000000
03100000
20000000
00000000
30010000
00100000
,
00002000
00000000
00013000
00000100
00000010
00000100
00020000
00000000
00031000
00000100
00000010
00001000
,
00000001
00000000
00000000
00000000
00000011
00000000
00000000
00000000
00001100
00000000
00000000
00000000
00002002
00003003
00000000
00000000
00000101
00000000
00000000
00000000
00001010
00000000
00000000
00000000
,
00001002
00000000
00000000
00000000
00000013
00000100
00002000
00000000
00000000
00000000
00003010
00010000
,
00001000
00010000
00100000
10000000
00010000
00100000
01000000
10000000
00100000
01000000
00010000
10000000
,
01000000
00100000
00001000
00011000
00000000
00010000
00001000
00000000
00010000
00000100
00001000
00000100
,
00010000
00000000
00001000
01000000
00010000
01000000
00001000
00000000
00010000
00000100
00001000
00000100
,
00010000
00000000
00001000
00100000
00010000
00100000
00001000
00000000
00010000
00000010
00001000
00000010
,
00010000
00000000
00001000
00100000
00010000
00100000
00001000
00000000
00010000
00000010
00001000
00000010
,
00000100
00000001
00001000
00000100
00000010
00000001
00000100
00000010
00001000
00000100
00010000
00001000
,
00100000
00010000
00100000
01000000
10000000
00010000
01000000
00100000
10000000
01000000
00100000
00010000
,
01000000
00001000
00010000
01000000
00010000
00001000
01000000
00010000
00001000
00000010
00010000
00001000
,
00000010
00001000
00010000
00000010
00001000
00000100
00000010
00001000
00000001
00000100
00000010
00000001
,
00001001
00000000
00001010
00000000
00010010
00000000
00011000
00001000
01001000
01000000
01010000
00000000
,
20020000
00000000
00000000
00000000
,
30030000
00000000
00000000
00000000
;
