#VERSION:0.83;
#TITLE:F;
#SUBTITLE:;
#ARTIST:D.J.Amuro;
#TITLETRANSLIT:;
#SUBTITLETRANSLIT:;
#ARTISTTRANSLIT:;
#GENRE:;
#CREDIT:;
#MUSIC:F.ogg;
#BANNER:F.png;
#BACKGROUND:F-bg.png;
#CDTITLE:;
#SAMPLESTART:34.286;
#SAMPLELENGTH:12.175;
#SELECTABLE:YES;
#OFFSET:-0.060;
#BPMS:0.000=154.000;
#STOPS:;
#BGCHANGES:-0.304=F.avi=1.000=0=0=0=StretchNoLoop====;
#FGCHANGES:;

//--------------- dance-single - Flicks ----------------
#NOTEDATA:;
#STEPSTYPE:dance-single;
#DESCRIPTION:Flicks;
#DIFFICULTY:Beginner;
#METER:3;
#RADARVALUES:0,0,0,0,0;
#NOTES:
0000
0000
0000
0000
,
0000
0000
0000
0000
,
0000
0000
0000
0000
,
0000
0000
0000
0000
,
1000
0000
0000
0000
,
0001
0000
0000
0000
,
1000
0000
0000
0000
,
0001
0000
0000
0000
,
1000
0000
0000
0000
,
0100
0000
0000
0000
,
0010
0000
0000
0000
,
0001
0000
0000
0000
,
1000
0000
0000
0000
,
0001
0000
0000
0000
,
0100
0000
0000
0000
,
0010
0000
0000
0000
,
1000
0000
0000
0000
,
0001
0000
0000
0000
,
0010
0000
0000
0000
,
0100
0000
0000
0000
,
1000
0000
0000
0000
,
0001
0000
0000
0000
,
1000
0000
0000
0000
,
0001
0000
0000
0000
,
1000
0000
0000
0000
,
0001
0000
0000
0000
,
0100
0000
0000
0000
,
0010
0000
0000
0000
,
1000
0000
0000
0000
,
0001
0000
0000
0000
,
1000
0000
0000
0000
,
0001
0000
0000
0000
,
0001
0000
0000
0000
,
1000
0000
0000
0000
,
1000
0000
0000
0000
,
0100
0000
0000
0000
,
0010
0000
0000
0000
,
0001
0000
0000
0000
,
0010
0000
0000
0000
,
0100
0000
0000
0000
,
1000
0000
0000
0000
,
0001
0000
0000
0000
,
0100
0000
0000
0000
,
0010
0000
0000
0000
,
1000
0000
0000
0000
,
1001
0000
0000
0000
,
0000
0000
0000
0000
,
0000
0000
0000
0000
,
0000
0000
0000
0000
,
1000
0000
0000
0000
,
0001
0000
0000
0000
,
1000
0000
0000
0000
,
0001
0000
0000
0000
,
1000
0000
0000
0000
,
0100
0000
0000
0000
,
0010
0000
0000
0000
,
0100
0000
0000
0000
,
1000
0000
0000
0000
,
0001
0000
0000
0000
,
0010
0000
0000
0000
,
0100
0000
0000
0000
,
0010
0000
0000
0000
,
0001
0000
0000
0000
,
1000
0000
0000
0000
,
0010
0000
0000
0000
,
0100
0000
0000
0000
,
0010
0000
0000
0000
,
1000
0000
0000
0000
,
1001
0000
0000
0000
,
0001
0000
0000
0000
,
1001
0000
0000
0000
,
2000
0000
0000
0000
,
0000
0000
0000
3000
;

//--------------- dance-single - Flicks ----------------
#NOTEDATA:;
#STEPSTYPE:dance-single;
#DESCRIPTION:Flicks;
#DIFFICULTY:Easy;
#METER:9;
#RADARVALUES:0,0,0,0,0;
#NOTES:
0000
0000
0000
0000
,
0000
0000
0000
0000
,
0000
0000
0000
0000
,
0000
0000
0000
0000
,
1001
1000
0100
0010
,
0001
0010
0001
1000
,
0001
0100
0010
1000
,
0001
0010
0100
1000
,
1100
0000
1000
0001
,
0101
0000
1000
0001
,
0011
1000
1020
0130
,
0001
0100
1000
0100
,
0002
0000
0000
0000
0000
0000
0000
0003
,
1000
0100
0010
0100
,
1000
0001
0100
0010
,
0100
0001
1000
0001
,
1000
0000
0001
1000
,
0001
0010
0001
1000
,
0010
1000
0001
1000
,
0100
1000
0001
0100
,
0001
0100
0010
1000
,
2001
0000
0000
3001
,
1000
0100
1000
0000
0100
0000
0010
0000
,
0001
1000
0010
0100
,
0001
0000
1000
0001
,
1000
0100
0001
0100
,
1000
0001
1000
0000
0001
0000
1000
0000
,
0001
0100
0001
0000
0100
0000
0001
0000
,
1000
0000
0100
0000
1000
0100
1000
0100
,
1000
0000
0001
0000
0000
0100
0001
0000
,
0010
0000
0001
0000
0000
1000
0001
0000
,
0100
1000
0100
0001
,
0100
1000
0100
0001
,
1000
0000
0001
0000
0000
0010
0001
0000
,
0100
0000
0001
0000
0000
1000
0001
0000
,
1000
0100
0001
0100
,
1000
0100
1000
0100
0001
0000
0100
0000
,
1000
0001
1000
0000
0001
0000
0000
0000
,
1000
0010
1000
0001
,
1000
0001
0100
1000
,
0100
0001
0100
0010
,
1010
0000
0000
0000
1000
0001
1000
0000
,
1100
0000
0000
0000
0001
1000
0001
0000
,
0100
0001
0100
0001
0100
0001
0100
0000
,
0001
0000
1000
0000
0001
0010
0100
0000
,
1000
0000
0000
0000
,
0000
0000
0000
0000
,
1000
0000
0000
0000
,
0001
0000
0000
0000
,
1000
0010
0100
0001
,
0100
0010
1000
0001
,
1000
0000
0100
0000
0010
0000
0001
1000
,
0001
0000
1000
0000
0001
1000
0001
0000
,
1000
0001
0100
0010
,
1000
0010
1000
0001
,
0010
0001
0010
0100
,
1000
0100
0000
0010
0001
0000
1000
0000
,
0001
0100
0001
1000
,
0010
1000
0001
1000
,
0100
1000
0001
0000
0100
0001
1000
0000
,
0100
0010
0001
0100
,
0001
0000
1000
0001
,
1000
0100
0001
0100
,
1000
0001
0100
1000
,
0100
0000
0001
0100
0000
0010
1000
0000
,
1001
1000
0100
0001
,
0100
1000
0100
0001
,
1000
0010
0001
1000
,
0001
0100
1000
0100
,
0001
0100
1000
0001
,
0010
1000
0001
1000
,
2002
0000
0000
0000
,
0000
0000
0000
0000
,
3003
0000
0000
0000
;

//--------------- dance-single - Flicks ----------------
#NOTEDATA:;
#STEPSTYPE:dance-single;
#DESCRIPTION:Flicks;
#DIFFICULTY:Medium;
#METER:12;
#RADARVALUES:0,0,0,0,0;
#NOTES:
0000
0000
0000
0000
,
0000
0000
0000
0000
,
0000
0000
0000
0000
,
0000
0000
0000
0000
,
1001
0000
1000
0100
0010
0000
0001
0000
,
0100
0010
1000
0000
0001
0000
1000
0000
,
0001
0010
0100
0000
0010
0001
1000
0000
,
0001
1000
0010
0100
0010
1000
0001
0000
,
1001
0000
1000
0100
0010
0001
0010
0000
,
0011
0000
0001
1000
0010
0100
0001
0000
,
0101
0100
1002
0013
,
0011
1001
0101
1001
,
0001
0010
0100
0001
0100
1000
0001
0000
,
1001
0000
0000
0001
1000
0000
0010
0000
0100
0000
0001
0000
1000
0000
0000
0000
,
0001
0000
0000
1000
0001
0000
1000
0000
0100
0010
0000
0000
0100
0010
0000
0000
,
0001
1000
0010
0100
0001
0010
0000
0001
,
0100
0001
1000
0100
0010
0001
1000
0000
,
0001
0000
0000
1000
0001
0000
0100
0000
0001
0000
1000
0000
0001
0000
0000
0000
,
1000
0000
0000
0001
1000
0000
0100
0000
1000
0000
0001
0000
1000
0000
0010
0000
,
1000
0001
1000
0001
0010
0001
1000
0001
,
0100
0001
0010
0001
1000
0010
1000
0001
,
2000
0001
0100
3001
,
1000
0010
0100
0001
0010
0100
1000
0002
,
0100
0000
1003
0001
0010
0100
1000
0000
,
1100
1000
1001
0001
,
0101
1000
1100
0100
,
1000
0100
0001
0100
1000
0001
0100
1000
,
0200
0000
0000
0302
0000
0000
1003
0001
,
1000
0100
1000
0001
0100
0001
1000
0000
,
0001
0010
0001
1000
0100
1000
0001
1000
,
0001
0100
0001
1000
0100
1000
0001
1000
,
0001
0100
0010
0100
0001
1000
0100
0010
,
0100
1000
0100
0010
0001
0100
0001
0000
,
1000
0100
1000
0001
0010
0001
1000
0001
,
1000
0010
1000
0001
0100
0001
1000
0001
,
1000
0100
0010
0001
0100
0010
1000
0001
,
1000
0100
0001
0100
1000
0100
1000
0000
,
0001
1000
0010
0100
0001
1000
0001
0010
,
0001
0100
0001
0100
1000
0100
0001
0000
,
1000
0001
0010
0000
0100
1000
0001
0000
,
1000
0010
0001
0010
1000
0001
1000
0000
,
0001
0000
0000
1000
0001
0000
0010
0000
0001
0000
0100
0000
0010
0000
0000
0000
,
1000
0000
0000
0001
1000
0000
0100
0000
1000
0000
0010
0000
0100
0000
0000
0000
,
0001
0100
1000
0100
0001
1000
0100
0001
,
0100
0010
0001
0010
0100
1000
0001
0000
,
1001
0000
0001
0000
,
1000
0000
0001
0000
,
1000
0000
0001
0000
,
1000
0000
0010
1010
,
1010
1000
0001
1000
,
0100
0010
0001
0100
,
0010
0100
0010
0100
0001
0000
1000
0000
,
0100
0010
0100
0010
0001
1000
0001
0000
,
1000
0010
0100
0001
0010
0100
1000
0100
,
0010
0000
0001
0000
0100
0000
0010
0000
1000
0010
0000
0000
1000
0001
0000
0000
,
1000
0100
0010
0100
1000
0001
0100
0010
,
0100
0000
0001
0100
0000
0000
0001
0000
1000
0000
0100
1000
0000
0000
0100
0000
,
1000
0001
0100
0001
0010
0100
1000
0010
,
1000
0100
0010
0001
1000
0010
0100
0001
,
0010
0001
0100
0010
1000
0100
0010
0001
,
1000
0001
1000
0000
0001
1000
0001
0000
,
1000
0100
0010
0001
,
1000
0001
0100
0010
1000
0010
0001
0010
,
1000
0100
0010
0001
0010
1000
0010
0001
,
1000
0000
0010
0100
0000
0000
0001
0000
1000
0000
0100
0010
0000
0000
0001
0000
,
0010
0110
1100
0110
,
0001
1000
0001
0100
1000
0100
0010
1000
,
0001
0000
0000
0011
0000
0000
1001
0000
,
1010
0000
0000
0110
0000
0000
0101
0000
,
1000
0100
0010
0001
0100
0010
1000
0001
,
1000
0100
0001
0100
0010
0001
0010
0100
,
2000
0000
0000
0000
,
0000
0000
0000
0000
,
3000
0000
0000
0000
;

//--------------- dance-single - Flicks ----------------
#NOTEDATA:;
#STEPSTYPE:dance-single;
#DESCRIPTION:Flicks;
#DIFFICULTY:Hard;
#METER:16;
#RADARVALUES:0,0,0,0,0;
#NOTES:
0000
0000
0000
0000
,
0000
0000
0000
0000
,
0000
0000
0000
0000
,
0000
0000
0000
0000
,
1001
0000
0000
0000
1000
0000
0100
0010
0100
0000
0000
0000
1000
0000
0100
0000
,
0010
0000
0001
0000
1000
0000
0001
0000
0100
0000
0000
0010
0000
1000
0010
0000
,
1000
0000
0010
0100
0010
0000
1000
0001
1000
0000
0001
0000
1000
0000
0100
0000
,
0010
0001
0010
0001
0010
0000
0001
0000
1000
0000
0010
1000
0010
1000
0010
0000
,
1010
0000
1000
0000
0001
0000
1000
0000
0100
0000
0010
0001
0010
0100
0010
0000
,
0110
0000
0100
0000
1000
0000
0001
0000
0100
0000
0010
1000
0010
0100
0010
0000
,
0110
0000
0100
0000
0001
0100
0001
0000
1001
0000
1000
0000
0100
1000
0100
0000
,
1100
0011
1001
1001
,
0001
0100
0010
1000
0001
0000
1000
0000
0100
1000
0100
0010
0001
0000
0000
0000
,
1001
0000
0000
0001
0100
0000
0010
1000
0010
0000
1000
0000
0100
0000
0010
0000
,
0001
0000
0000
1000
0010
0000
0100
0000
0001
0100
0000
0000
0010
1000
0000
0001
,
1000
0100
0010
0001
1000
0000
0001
0000
1000
0010
0100
0000
0001
0000
1000
0000
,
0001
0000
0010
0100
0010
0000
0001
1000
0001
0000
1000
0010
0100
0000
0010
0000
,
1000
0010
1000
0010
0000
0100
0010
0100
0000
0001
0100
0001
0100
0000
0000
0000
,
0001
1000
0001
1000
0000
0100
0010
0100
0000
1000
0100
1000
0100
0000
1000
0001
,
1000
0000
0001
0000
0100
0010
0000
0000
0100
0001
0100
0001
0000
0100
0010
0100
,
0000
0010
1000
0010
0000
1000
0001
1000
0100
0010
0001
1000
0001
0100
0010
1000
,
0001
0000
0000
1000
0100
0000
1000
0000
0001
0000
0100
0000
0001
0000
0000
0000
,
1000
0100
0001
0100
1000
0100
0010
0001
,
0010
0000
0000
0100
1000
0000
0001
0000
0100
0000
1000
0000
0200
0000
0000
0000
,
0301
0000
0000
1000
0100
0000
0010
0100
1000
0000
0001
1000
0001
0000
0100
0000
,
0010
1010
1100
0011
,
0001
0100
1000
0001
0010
1000
0001
1000
,
0100
0010
0100
0010
0100
0000
1000
0000
0010
0100
0010
0100
0010
0000
1000
0001
,
0000
0010
0100
0010
0000
0100
1000
0100
0000
1000
0001
1000
0000
0001
1000
0001
,
1000
0000
0001
0100
0001
0000
1000
0000
0001
0010
0001
0000
1000
0010
0100
0000
,
0001
0000
1000
0100
1000
0000
0001
0000
1000
0010
1000
0000
0001
0010
0100
0010
,
0001
0010
0100
0000
1000
0001
1000
0000
0001
0100
0010
0000
0100
0010
1000
0000
,
0001
0010
0001
1000
0001
0000
0100
0000
0010
0000
1000
0000
0010
0100
0001
0000
,
1000
0000
0001
0010
0001
0000
1000
0000
0001
0100
0001
0000
1000
0100
0010
0000
,
0001
0000
1000
0010
1000
0000
0001
0000
1000
0100
1000
0000
0001
0100
0010
0100
,
0001
0100
0010
0000
1000
0001
1000
0000
0001
0010
0100
0000
0010
0100
1000
0000
,
0001
0100
0001
1000
0001
0010
0001
1000
0010
1000
0001
1000
0100
0010
0001
1000
,
0001
0000
1000
0000
0001
0100
0001
0100
0010
0000
1000
0000
0001
0010
0001
0010
,
0100
1000
0001
0100
0001
0100
0010
1000
0001
0000
1000
0100
1000
0000
0010
1000
,
0010
0000
1000
0001
1000
0000
0001
0010
0001
0000
1000
0001
1000
0001
1000
0010
,
0100
0010
1000
0001
0100
0010
0100
0001
0010
0100
0010
0000
0001
1000
0001
0000
,
1001
0000
0000
1000
0001
0000
0100
0000
0001
0100
0010
1000
0001
0000
0010
0000
,
0001
0000
0010
0100
1000
0000
0100
0010
0001
1000
0010
0100
0001
0000
0000
0000
,
1000
0100
0010
0001
1000
0100
0010
0001
1000
0001
0100
0010
1000
0001
0100
0010
,
1000
0100
1000
0100
1000
0001
0100
0001
0100
0001
0100
0010
1000
0000
0000
0000
,
1001
0000
1000
0000
,
0001
0000
0000
0000
0000
0000
0000
0000
1000
0000
0000
0100
0000
0010
0001
0000
,
0011
0000
0001
0000
,
1000
0000
0000
0000
0000
0000
0000
0000
0010
0000
0000
0100
0001
0100
0000
0000
,
0101
0000
0001
0000
0100
0000
0000
0000
0001
0000
0010
0000
0100
0000
0000
1000
,
0001
0000
1000
0000
0001
0000
0100
0000
0010
0000
0000
1000
0000
0001
1000
0000
,
0001
0010
0100
1000
0001
0100
0010
1000
,
0001
0010
0001
0010
0100
0000
1000
0000
0001
0000
1000
0010
1000
0010
0100
0000
,
0001
0100
0010
1000
0100
0000
1000
0010
0100
0000
0001
0100
0010
0100
0001
1000
,
0001
0000
1000
0000
0100
0000
1000
0000
0001
0100
0001
0000
1000
0010
1000
0000
,
0001
0000
1000
0100
1000
0000
0001
0010
0001
0000
0100
0010
1000
0000
0001
0010
,
0100
0000
0010
0100
0000
1000
0010
0000
0100
0000
0010
0100
0000
0001
1000
0000
,
0001
0000
1000
0100
1000
0000
0001
0010
0001
0000
1000
0010
0100
0010
1000
0010
,
0100
0000
0001
0100
0001
0000
1000
0010
1000
0000
0001
0010
0100
0010
0001
1000
,
0001
0100
0010
0100
0001
0000
1000
0100
1000
0000
0100
0010
0100
0010
0001
0000
,
1000
0000
0010
0000
1000
0000
0001
0000
1000
0100
0010
0001
0010
0000
0001
0000
,
1001
0000
0000
1000
0001
0000
0100
0000
0001
0000
0100
0000
0110
0000
0000
0000
,
1000
0010
0001
0010
1000
0001
0010
1000
,
0010
0000
0000
0100
1000
0000
0100
0000
0001
0000
0100
0010
0100
0000
0000
0000
,
0010
0000
0100
0010
0000
0001
0100
0000
0010
0000
0100
0010
0000
1000
0001
0000
,
1000
0000
0000
0001
1000
0000
0000
0000
1100
0000
0000
0000
1010
0000
0000
0000
,
0011
0001
0010
1000
0001
0100
1000
0001
,
1000
0010
0100
0010
1000
0000
0010
0000
0001
0000
0010
0000
1000
0000
0000
0000
,
0001
0010
0100
0010
0001
0000
0010
0000
1000
0000
0010
0000
0001
0000
1000
0000
,
0001
0100
0001
0000
0100
0010
0100
0000
1000
0010
1000
0000
0001
1000
0001
0000
,
1000
0100
0010
0100
1000
0001
0100
0010
0100
0001
0100
0010
1000
0100
0010
0001
,
0200
0000
0000
0000
,
0000
0000
0000
0000
,
0300
0000
0000
0000
;

//--------------- dance-single - Flicks ----------------
#NOTEDATA:;
#STEPSTYPE:dance-single;
#DESCRIPTION:Flicks;
#DIFFICULTY:Challenge;
#METER:17;
#RADARVALUES:0,0,0,0,0;
#NOTES:
0000
0000
0000
0000
,
0000
0000
0000
0000
,
0000
0000
0000
0000
,
0000
0000
0000
0000
,
1001
0000
0000
0000
0001
0100
0010
1000
0001
0000
0000
0000
1000
0100
0010
0100
,
0010
0001
1000
0010
0100
0010
0100
0001
1000
0000
0000
0001
0000
1000
0100
0000
,
1000
0000
0001
0100
0001
1000
0001
0010
0100
0000
1000
0100
1000
0001
1000
0010
,
0100
0000
0001
0010
0100
0000
1000
0100
0010
0000
0001
1000
0001
1000
0001
0000
,
1001
0000
1000
0010
1000
0010
0100
0001
1000
0001
0010
0100
1000
0001
0100
0000
,
1001
0000
0001
0010
0001
0010
0100
1000
0001
1000
0010
0100
0001
1000
0100
0000
,
1001
0000
0001
0100
0010
0100
0001
0000
1001
0000
1000
0100
0010
0100
1000
0000
,
0001
0010
0100
0000
0001
0100
1000
0000
0001
0100
1000
0000
0100
0010
1000
0000
,
0001
0010
0100
1000
0100
0010
0001
0100
0010
1000
0010
0100
0001
0000
0000
0000
,
1001
0000
0000
1000
0100
0000
0010
0001
0010
0000
0001
0100
0001
1000
0100
0010
,
0001
0000
0000
1000
0010
0000
0100
0000
0001
1000
0100
0000
1000
0010
0000
1000
,
0001
0010
0100
1000
0001
0000
1000
0000
0001
0100
0010
0000
1000
0000
0001
0000
,
1000
0100
0010
0100
1000
0001
0010
0100
0010
0001
0000
1000
0010
0100
0010
1000
,
0001
0100
0010
0100
0000
0001
0010
0100
0000
1000
0010
1000
0010
0100
0010
1000
,
0001
0010
0100
0010
0000
0001
0100
0010
0000
1000
0100
0010
0100
1000
0100
0010
,
0001
1000
0010
0100
0001
0100
0000
0001
1000
0001
0010
0100
0000
1000
0001
1000
,
0001
0100
0001
1000
0001
0010
0001
1000
0010
1000
0001
1000
0100
1000
0001
1000
,
0001
0000
0000
1000
0010
0000
1000
0100
1000
0000
0100
0000
0010
0000
0001
0010
,
0001
0010
1000
0001
0100
1000
0001
0100
,
0010
0000
1000
0001
1000
0000
0001
0000
1000
0000
0100
0000
0001
0000
1000
0000
,
0010
0000
0001
0010
0001
0000
0010
0100
0010
0000
0100
1000
0100
0010
0001
1000
,
0001
0000
0000
1000
0010
0000
0000
0000
0110
0000
0100
0000
0101
0000
0000
0000
,
0001
0000
0100
0000
0010
0000
1000
0001
1000
0000
0100
0000
0001
0000
0100
0000
,
1000
0100
1000
0100
0010
0001
0010
0001
1000
0010
1000
0010
0100
0010
0100
0001
,
0100
0001
0100
0010
0000
0100
0010
0100
0000
0001
1000
0001
0000
0010
0100
0010
,
0001
0010
0001
1000
0001
0000
1000
0010
1000
0001
1000
0000
0001
0010
0001
1000
,
0100
1000
0001
0010
0001
0000
1000
0010
0100
0001
1000
0000
0001
0010
0100
0010
,
0001
0010
0100
0010
0100
1000
0010
0100
0010
0100
0001
1000
0100
0010
0001
0100
,
0010
1000
0001
1000
0001
0000
0010
0100
1000
0010
0100
0000
0001
0100
1000
0100
,
0001
0100
0001
1000
0001
0000
1000
0100
1000
0001
1000
0000
0001
0100
0001
1000
,
0010
1000
0001
0100
0001
0000
1000
0100
0010
0001
1000
0000
0001
0100
0010
0100
,
0001
0100
0010
0100
0010
1000
0100
0010
0100
0010
0001
1000
0010
0100
0001
0010
,
0100
1000
0100
0010
0001
0100
0010
1000
0100
0010
0001
1000
0001
0100
0010
0001
,
0010
0000
1000
0000
0001
0010
0100
1000
0001
0000
1000
0000
0001
0100
0010
1000
,
0001
1000
0100
0010
0001
0100
0001
0010
0100
0000
1000
0010
1000
0000
0100
0010
,
0100
1000
0001
1000
0010
0100
0001
0010
0001
0100
0010
1000
0010
0100
0001
1000
,
0001
0010
1000
0010
0001
1000
0001
0100
0010
0001
0010
1000
0010
0100
0001
0000
,
1001
0000
0000
1000
0001
0000
0010
0000
0001
0010
0100
1000
0010
0000
0100
0000
,
0001
0100
0010
1000
0001
1000
0100
0010
0001
0100
0010
1000
0010
0000
0000
0000
,
1000
0100
0001
0100
1000
0001
0100
1000
0100
0001
1000
0010
0100
0001
0100
0010
,
1000
0010
1000
0010
1000
0001
0010
0001
0010
0100
0001
0100
1000
0000
0000
0000
,
1001
0000
0001
0000
,
1000
0000
0000
0000
0000
0000
0000
0000
0001
0000
0000
0100
0000
0010
1000
0000
,
1010
0000
1000
0000
,
0001
0000
0000
0000
0000
0000
0000
0000
0010
0000
0000
0100
1000
0100
0000
0000
,
1100
0000
1000
0000
0100
0000
0000
0000
1000
0000
0010
0000
0100
0000
0000
0001
,
1000
0000
0001
0000
1000
0000
0100
0000
0010
0000
0000
0001
0000
1000
0001
0000
,
1000
0010
0100
0001
1000
0100
0010
0001
,
1000
0010
1000
0010
0100
0001
0100
0001
1000
0000
0001
0000
1000
0100
1000
0001
,
1000
0010
0100
0001
0010
0001
0100
0010
1000
0001
0010
0100
1000
0010
1000
0100
,
0010
0001
0100
0010
1000
0000
0100
0000
0010
0001
0010
0001
1000
0010
1000
0010
,
1000
0100
0010
0001
0010
1000
0010
0001
1000
0010
0100
0001
1000
0100
0001
0100
,
1000
0000
0100
0010
0000
0001
0100
0001
0100
0000
0010
1000
0000
0100
1000
0100
,
1000
0100
0010
0001
0010
0001
0010
0100
0010
0001
1000
0010
0100
0001
1000
0001
,
1000
0100
0010
1000
0010
0001
0010
0100
1000
0001
0100
0010
0001
0010
1000
0001
,
1000
0100
1000
0001
0010
0001
1000
0100
0010
0001
0100
0001
1000
0010
1000
0001
,
1000
0100
0010
0100
1000
0001
0010
0100
1000
0001
0100
0010
0100
0001
1000
0010
,
0100
0000
0000
0001
1000
0000
0100
0010
0001
0100
0010
0100
0001
1000
0100
0010
,
0100
0000
0001
0000
0100
0000
1000
0000
0001
0100
0010
0100
1000
0100
0001
0100
,
0010
1000
0100
1000
0001
0100
0001
1000
0001
0000
0010
1000
0010
0000
0001
1000
,
0001
0000
1000
0010
0000
1000
0100
1000
0010
0000
0100
0001
0000
0010
0001
0100
,
0001
0000
0000
1000
0001
0000
0000
0000
1100
0000
1000
0100
0010
0001
0100
0001
,
1000
0100
0001
1000
0010
0001
1000
0010
,
0001
0010
0100
0001
1000
0000
0001
0010
0100
1000
0100
0001
0100
1000
0001
0000
,
1000
0010
0100
0001
0010
0100
1000
0010
0100
0001
0100
1000
0100
0001
1000
0000
,
0001
0010
0001
0010
0100
0010
0100
1000
0100
1000
0001
0100
0001
0100
0010
0100
,
0010
1000
0100
1000
0010
1000
0001
0010
0001
0100
0001
1000
0001
0010
1000
0010
,
0002
0000
0000
0000
,
0000
0000
0000
0000
,
0003
0000
0000
0000
;
