#TITLE:Element of SPADA;
#SUBTITLE:;
#ARTIST:猫叉Master feat.霜月はるか;
#TITLETRANSLIT:;
#SUBTITLETRANSLIT:;
#ARTISTTRANSLIT:;
#GENRE:;
#CREDIT:;
#MUSIC:Element of SPADA.ogg;
#BANNER:Element of SPADA.png;
#BACKGROUND:Element of SPADA-bg.png;
#CDTITLE:;
#SAMPLESTART:80.831;
#SAMPLELENGTH:15.000;
#SELECTABLE:YES;
#OFFSET:0.345;
#BPMS:0.000=170.000;
#STOPS:;
#BGCHANGES:0.000=Element of SPADA.mp4=1.000=0=0=0=StretchNoLoop====,
99999.000=-nosongbg-=1.000=0=0=0=StretchNoLoop====
;
#FGCHANGES:;

//--------------- dance-single - Princess Pamela ----------------
#NOTES:
     dance-single:
     Princess Pamela:
     Easy:
     7:
     0,0,0,0,0:
0000
0000
0000
0000
,
0000
0000
0000
0000
,
0000
0000
0000
0000
,
0000
0000
0000
0000
,
2000
0000
0000
3000
,
0000
0000
0002
0000
,
0000
0003
0000
0000
,
0200
0000
0000
0300
0000
0000
0020
0000
,
0000
0030
0000
0000
2000
0000
0000
3000
,
0000
0000
0002
0000
0000
0003
0000
0000
,
1001
0000
1000
0000
,
0100
0000
1000
0000
,
0010
0000
0100
0000
,
0002
0000
0003
0020
,
0000
0030
0200
0000
,
0300
2000
0000
3000
,
1001
0000
0001
0000
,
0100
0000
0001
0000
,
1000
0000
0100
0000
,
0020
0000
0030
0002
,
0000
0003
0200
0000
,
0300
1001
0000
0000
,
2000
0000
0000
3010
,
0000
0000
0020
0000
,
0000
0130
0000
0000
,
0002
0000
0000
0103
,
0000
0000
1001
0000
,
0000
0110
0000
0000
,
0002
0000
0000
0013
,
0000
0000
0002
0000
,
0000
0103
0000
0000
,
2000
0000
0000
3010
,
0000
0000
0110
0000
,
0000
1001
0000
0000
,
1000
0000
1000
0000
,
0001
0000
0100
0000
,
0100
0000
0001
0000
,
0010
0000
0100
0000
,
1000
0000
0100
0000
,
0010
0000
0001
0000
,
0100
0000
0100
0000
,
0001
0000
0100
0000
,
0100
0000
0010
0000
,
2002
0000
3003
0010
,
0000
0000
0000
0000
0220
0000
0000
0330
,
0000
0000
2002
0000
0000
3003
0000
0000
,
2000
0000
0010
0000
,
0001
0000
3010
0000
,
1000
0000
0100
0000
,
0020
0000
0001
0000
,
0100
0000
0031
0000
,
0010
0000
0100
0000
,
2000
0000
0100
0000
,
3001
0000
1000
0000
,
0010
0000
0100
0000
,
0220
0000
0000
0000
,
0000
0000
0000
0000
,
0000
0330
0000
0000
,
0001
0001
0001
0100
,
0100
0100
0010
0010
,
0010
1000
1000
1000
,
0002
0000
0000
0003
,
0000
0000
2000
0000
,
0000
3000
0000
0000
,
2002
3003
0000
0001
,
0000
0000
0010
0000
,
0100
0000
1000
0000
,
0020
0000
0100
0000
,
0100
0000
0130
0000
,
0000
2002
0000
3003
,
1000
1000
1000
0001
,
0001
0001
0010
0010
,
0010
0100
0100
0100
,
2000
0000
0000
3000
,
0000
0000
0002
0000
,
0000
0003
0000
0000
,
2002
3003
0000
1000
,
0000
0000
0010
0000
,
0100
0000
0001
0000
,
0020
0000
0100
0000
,
0130
0000
0001
0000
,
1000
0000
0010
0000
,
2002
0000
0000
3003
,
0000
0000
0001
0000
,
0000
0010
0000
0000
,
0200
0000
0000
0300
,
0000
0000
1000
0000
,
0000
0000
0001
0000
,
0000
0000
0000
0000
0000
0000
0000
0000
0000
0000
0000
0000
0000
0000
0000
0000
0000
0000
0000
0000
0000
0000
0000
0000
0000
0000
0000
0000
0000
0000
0000
0000
0000
0000
0000
0000
0000
0000
0000
2002
0000
0000
0000
0000
0000
0000
0000
0000
0000
0000
0000
0000
0000
0000
0000
0000
0000
0000
0000
0000
0000
0000
0000
0000
,
0000
0000
3003
0000
;

//--------------- dance-single - Princess Pamela ----------------
#NOTES:
     dance-single:
     Princess Pamela:
     Medium:
     12:
     0,0,0,0,0:
0000
0000
0000
0000
,
0000
0000
0000
0000
,
0000
0000
0000
0000
,
0000
0000
0000
0000
,
0002
0000
0003
2000
,
0000
3000
0020
0000
,
0030
0100
0001
0100
,
0020
0000
0000
0000
0030
0000
2000
3000
,
0002
0003
0020
0030
0200
0000
0000
0000
,
0300
2000
0000
3000
,
1001
0001
0100
0001
,
1000
0100
1000
0001
,
0010
0000
2000
0000
0000
3000
0010
0000
,
0001
0100
0010
0001
,
0010
0000
0100
0000
2000
0000
0000
3000
,
0100
0000
0002
0000
0000
0003
1000
0000
,
1001
0001
0010
0001
,
1000
0010
1000
0001
,
0010
1000
0010
0001
,
0200
0000
0000
0300
0010
0000
0001
0000
,
0000
0010
0000
0000
2000
0000
0000
0000
,
3001
2002
0000
3003
,
0001
0100
0100
0001
,
0000
0010
0100
1000
,
0010
1000
0000
0001
,
0010
0100
1000
0100
,
0000
0010
0001
1000
,
0001
0100
0010
1000
,
1001
0000
0001
0010
,
0100
1000
0100
0000
,
1000
0010
0100
0001
,
0100
0000
0010
1000
,
0000
0100
0110
0000
,
0010
0002
1000
1003
,
1001
0001
0100
0001
,
0100
0010
0001
0010
,
1000
0010
0100
0001
,
0010
0100
0010
0100
,
1000
0100
0001
0100
,
1000
0002
1000
1003
,
1001
1000
0010
1000
,
0010
0100
1000
0100
,
0010
1000
0001
0010
,
0110
0100
1000
0002
,
0000
0003
0100
0000
0020
0000
1000
0000
,
1030
0000
2002
0000
0000
3003
0000
0000
,
0002
0010
0010
2003
,
0010
0010
3001
0010
,
1000
0010
0001
1000
,
0002
0100
0100
2003
,
0100
0100
3001
0100
,
1000
0100
0001
1000
,
1002
0010
0013
0001
,
1000
0100
2001
0010
,
3010
1000
0001
0100
,
0220
0330
1000
0001
,
0010
0100
2000
0000
,
3001
2002
0000
3003
,
2000
3020
0032
2003
,
3002
0023
2030
3002
,
0023
2030
3002
2003
,
3010
0001
0020
0000
0000
0000
0030
0000
,
0001
0000
0100
0000
0010
1000
0020
0000
,
0000
0030
0100
0001
,
1002
0000
0013
0200
,
0000
0000
1300
0001
1000
0000
0010
0000
,
0100
1000
0100
0001
,
0200
0010
0310
0100
,
0001
1000
2002
3003
,
0001
0010
0200
2300
,
3002
0023
2030
3002
,
2003
3020
0032
2003
,
3020
0032
2003
3002
,
0013
1000
0020
0000
0000
0000
0030
0000
,
0100
0000
0001
0000
0010
0001
0020
0000
,
0000
0030
0100
1000
,
2001
0000
3010
0200
,
0000
0000
0301
1000
0001
0000
0010
0000
,
0100
0001
0100
1000
,
0010
1000
0020
0000
0000
0000
0130
0000
,
0001
0000
0010
0000
0100
0000
1000
0001
,
1000
0010
0100
0001
,
0202
0000
0000
0303
0000
0000
2020
0000
,
0000
3030
0000
0000
0001
0000
0010
0000
,
0100
1000
0001
1000
,
0020
0200
0000
0000
,
0000
0000
0000
0000
0000
0000
0000
0000
0000
0000
0000
0000
0000
0000
0000
0000
0000
0000
0000
0000
0000
0000
0000
0000
0000
0000
0000
0000
0000
0000
0000
0000
0000
0000
0000
0000
0000
0000
0000
0000
0000
0000
0000
0000
0000
0000
0000
0000
0000
0000
0000
0330
0000
0000
0000
0000
0000
0000
0000
0000
0000
0000
0000
0000
,
0000
0000
0000
0000
0000
0000
0000
0000
0000
0000
0000
0000
0000
0000
0000
0000
0010
0000
0000
0000
0000
0000
0000
0000
0000
0000
0000
0000
0000
0000
0000
0100
,
0000
0000
0000
0000
0000
0000
0000
0000
0000
0000
0000
0000
0000
0000
0000
0000
0000
0000
0000
0000
0000
0000
0000
0000
0000
0000
0000
0000
0000
0000
0000
0000
0000
0000
0000
0000
0000
0000
0000
2002
0000
0000
0000
0000
0000
0000
0000
0000
0000
0000
0000
0000
0000
0000
0000
0000
0000
0000
0000
0000
0000
0000
0000
0000
,
0000
0000
3003
0000
;

//--------------- dance-single - Princess Pamela ----------------
#NOTES:
     dance-single:
     Princess Pamela:
     Hard:
     15:
     0,0,0,0,0:
0000
0000
0000
0000
,
0000
0000
0000
0000
,
0000
0000
0000
0000
,
0000
0000
0000
0000
,
2000
0000
0100
3200
,
0000
0010
0320
0000
,
0031
0000
0001
0010
0100
1000
0001
1000
,
0002
0000
0000
0000
0100
0000
2003
3000
,
0020
0030
0200
0300
0002
0000
0003
0010
,
0100
1000
0200
0300
0020
0000
0030
0000
,
1002
0000
1003
0010
0100
0010
0002
0000
,
0013
0100
0010
1000
0002
0000
0023
0000
,
0230
2300
3002
1003
,
1100
0110
0011
1001
,
1010
0000
0110
0000
0102
0000
0103
0001
,
0100
0000
0010
0000
2000
0000
0000
0000
3001
0000
0010
0000
0100
1000
0100
1000
,
0002
0000
0013
0100
0001
0100
2000
0000
,
3010
0100
1000
0100
0002
0000
0023
0000
,
0230
0302
0203
1300
,
2001
0000
3100
0010
1000
0010
0200
0000
,
0301
0100
1000
0100
0010
0000
0011
0000
,
1100
2002
0000
3003
,
2000
0000
0010
3002
,
0000
0000
0103
0000
0100
0000
0001
0100
,
0001
0100
0020
0000
1000
0000
0130
0000
,
0110
0000
0002
0023
,
0130
1000
0100
0000
1100
0000
0002
0000
,
0103
0000
0110
0000
0010
1000
0001
0100
,
0210
0001
0301
0101
,
1000
0100
0010
0000
0120
0000
0001
0000
,
0130
2100
0001
3010
,
0110
0000
0100
0001
0100
0010
2000
0000
,
3200
0000
0302
0000
0203
0000
1300
0010
,
0100
0101
1010
1001
,
0001
0010
0100
0010
0001
0100
0010
0001
,
0010
0100
0001
0010
0100
1000
0010
0100
,
1000
0100
0010
1000
0100
0010
1000
0010
,
0100
0000
1000
0000
0001
0000
0100
0001
0100
0000
0010
1000
0010
0000
0100
0000
,
0001
0000
1000
0001
1000
0000
0100
1000
0100
0000
0010
0000
0001
0000
0100
0010
,
1000
0001
0022
0033
0220
0330
2200
3300
,
1000
0001
0100
1000
0100
0001
1000
0001
,
0010
1000
0001
1000
0010
0001
1000
0001
,
0100
0010
2020
3030
0202
0303
2002
3003
,
0001
0010
0100
0000
1000
0000
0001
0000
0100
0000
0010
0000
1000
0001
0010
0000
,
0100
0000
1000
0000
0010
0000
0100
0000
0001
1000
0001
1000
0001
0000
1000
0000
,
0100
0000
0220
0000
0000
0330
0000
0000
,
1000
0000
0001
0010
0200
0000
0010
0000
1300
0000
0100
0010
0001
0000
0100
0000
,
0020
0000
1030
0000
0002
0000
0013
0000
0001
0000
1000
0010
0200
0000
0010
0000
,
0301
0000
1000
0100
1000
0000
0001
0100
0001
0000
1000
0000
0100
0000
0001
0000
,
0100
0000
1000
0100
0020
0000
0001
0000
0130
0000
0010
0001
1000
0000
0010
0000
,
0200
0000
0301
0000
2000
0000
3100
0000
1000
0000
0001
0100
0020
0000
0100
0000
,
1030
0000
0010
0100
0002
0000
0000
0003
1000
0001
0010
0100
1000
0000
0001
0000
,
1001
0000
1000
0000
0020
0000
0000
0000
0031
0000
0010
0000
1000
0000
0010
0100
,
0001
0010
0100
1000
1100
0000
0110
0000
,
0011
1001
0101
1010
,
0001
1000
0100
0010
0001
0100
2000
0000
,
3200
0000
0000
0000
0302
0000
0000
0000
0013
0000
0001
0010
0200
0000
0010
0000
,
1300
0100
1001
0000
0002
0000
2003
0000
,
3010
0000
1000
0100
0010
0000
0001
0100
0010
0000
1000
0001
0010
0000
0100
1000
,
0001
0000
0100
0000
0001
0000
0010
0000
0100
0000
1000
0010
0100
0000
0001
0010
,
0100
0000
1000
0001
0100
0000
0001
1000
0010
0000
0100
0000
0001
0000
1000
0000
,
0001
0010
2000
0000
3010
0001
0011
0000
,
0001
1000
0001
0000
0010
0000
0100
0000
1000
0000
0010
0000
0002
0000
0000
0000
,
0013
0000
1000
0000
1010
0000
0000
0000
0010
1000
0010
0100
0001
0000
1000
0000
,
2001
0000
0000
0000
3001
0000
0010
0000
0100
0000
1000
0001
0200
0000
0000
0000
,
0310
0000
1000
0000
0001
0000
0010
0100
1000
0000
0001
0100
0001
0000
1000
0100
,
1000
0000
0001
0010
0100
0000
1000
0001
1000
0000
0010
0000
0100
0000
0001
0000
,
2001
0000
3010
0100
0001
0010
2000
0000
,
3020
0000
0000
0000
0032
0000
0000
0000
0103
0000
0001
0100
0001
0100
0010
1000
,
0001
0000
0010
0100
1000
0000
0010
0100
0002
0000
0000
0000
2003
0000
0000
0000
,
3100
0000
0001
0100
0001
0000
0100
1000
0100
0000
1000
0010
1000
0000
0010
0100
,
0001
0000
0010
0000
0100
0000
1000
0000
0010
0000
0001
0010
0001
0000
0010
1000
,
0010
0000
1000
0100
1000
0000
0100
0010
0001
0000
1000
0000
0010
0000
1000
0000
,
0100
0001
0200
0000
1300
0100
1001
0000
,
0001
0010
0100
0000
1000
0000
0001
0000
0100
0000
1000
0000
0200
0000
0000
0000
,
0301
0000
0100
0000
1001
0000
0000
0000
0100
0001
0100
0001
1000
0010
0100
0001
,
2000
0000
0000
0000
3001
0000
0010
0000
0100
0000
0010
0001
2000
0000
0000
0000
,
3010
0000
0100
0000
0010
0000
1000
0001
1000
0000
0100
0010
0001
0000
0100
0010
,
1000
0000
0001
0010
0100
0000
1000
0100
1000
0000
0001
0000
0100
0000
0010
0000
,
0001
0000
0010
0000
2000
0000
0000
0000
3100
0000
0010
0000
0001
0000
0100
0010
,
1000
0000
0001
0000
0010
0000
0100
1000
0100
0000
1000
0001
0100
0000
0010
0000
,
1000
0000
0001
0100
0001
0000
1000
0100
0010
0000
0001
0000
1000
0010
0100
0001
,
0200
0300
0010
2020
,
0030
0000
3001
0010
0200
0300
2000
3000
,
0002
0003
0200
0300
0020
0030
1000
0001
,
0010
0100
2000
0000
0001
0000
0100
3000
,
0001
0000
0000
0000
0000
0000
0000
0000
1000
0000
0000
0000
0000
0000
0000
0000
0001
0000
0000
0000
0000
0000
0000
0000
0000
0000
0000
0000
0000
0000
0000
0000
1001
0000
0000
0000
0000
0000
0000
0000
0000
0000
0000
0000
0000
0000
0000
0000
0000
0000
0000
1000
0000
0000
0000
0000
0000
0000
0000
0000
0000
0000
0000
0000
,
0000
0000
0000
0000
0000
0000
0000
0000
0000
0000
0010
0000
0000
0000
0000
0000
0000
0000
0000
0000
0000
0000
0000
0000
0000
0000
0000
0000
0000
0000
0000
0000
0000
0000
0000
0000
0000
0000
0000
0000
0000
0000
0000
0000
0000
0000
0000
0000
0100
0000
0000
0000
0000
0000
0000
0000
0000
0000
0000
0000
0000
0000
0000
0000
0000
0000
0000
0000
0000
0000
0000
0000
0000
0000
0000
0000
0000
0000
0000
0000
0000
0000
0000
0000
0000
0000
0000
0000
0000
0000
0000
0000
0000
0001
0000
0000
,
0000
0000
0000
0000
0000
0000
0000
0000
0000
0000
0000
0000
0000
0000
0000
0000
0000
0000
0000
0000
0000
0000
0000
0000
0000
0000
0000
0000
0000
0000
0000
0000
0000
0000
0000
0000
0000
0000
0000
2002
0000
0000
0000
0000
0000
0000
0000
0000
0000
0000
0000
0000
0000
0000
0000
0000
0000
0000
0000
0000
0000
0000
0000
0000
,
0000
0000
3003
0000
;

//--------------- dance-double - Princess Pamela ----------------
#NOTES:
     dance-double:
     Princess Pamela:
     Hard:
     15:
     0,0,0,0,0:
00000000
00000000
00000000
00000000
,
00000000
00000000
00000000
00000000
,
00000000
00000000
00000000
00000000
,
00000000
00000000
00000000
00000000
,
00002000
00000000
00003000
00020000
,
00000000
00030000
02000000
00000000
,
03000000
00000000
10000000
00000000
01000000
00100000
01000000
10000000
,
00020000
00000000
00000000
00000000
00030000
00000000
02000000
03000000
,
00200000
00300000
00020000
00030000
00002000
00000000
00003000
00000000
,
00000010
00000000
00000002
00000003
00002000
00000000
00003000
00000000
,
00000001
00000100
00000001
00000100
00000010
00001000
00000100
00000010
,
00000100
00010000
00001000
00100000
00010000
00100000
01000000
10000000
,
00010000
01000000
00100000
10000000
00100000
01000000
10000000
01000000
,
00100000
00010000
00001000
00010000
01000000
00010000
00001000
00000100
,
00001000
00010000
00001000
00000010
00000002
00000000
00000013
00000100
,
00000001
00000000
00000100
00000000
00000020
00000000
00000000
00000000
00000130
00000000
00010000
00000000
00001000
00010000
00001000
00010000
,
00001000
00010000
00000010
00001000
00000010
00000100
00001000
00000100
,
00000001
00000010
00000100
00001000
00000100
00000001
00000100
00000010
,
00001000
00010000
00001000
00000100
00001000
00010000
01000000
00010000
,
00002000
00000000
00013000
00100000
10000000
00100000
02000000
00000000
,
03010000
00100000
01000000
00100000
00002000
00000000
00013000
00000100
,
00001000
00000001
00002002
00000000
00000000
00000000
00003003
00000000
,
00000001
00000100
00000001
00000100
00000010
00000000
00000002
00000000
,
00000013
00000000
00001000
00000000
00010000
01000000
00010000
01000000
,
20000000
32000000
03200000
00310000
,
00011000
00000000
00001000
00010000
00002000
00000000
00003020
00000000
,
00000031
00001000
00000001
00000000
00000101
00000000
00002000
00000000
,
00003010
00000000
00010000
00001000
00010000
01000000
10000000
00000000
,
11000000
00000000
01000000
00100000
01000000
00100000
10000000
00000000
,
00100000
00010000
00100000
00000000
00011000
00000000
00000010
00001000
,
00000010
00001000
00000100
00000000
00000001
00000100
00001000
00000000
,
00001010
00000000
00010000
00000010
00001000
00000010
00000002
00000000
,
00000023
00000000
00002030
00000000
00023000
00000000
01030000
00100000
,
01000000
10010000
00011000
00001001
,
00000001
00000010
00000100
00000001
00000100
00000010
00001000
00010000
,
01000000
00010000
00001000
00000010
00001000
00010000
00100000
00010000
,
00001000
00010000
01000000
10000000
01000000
00010000
00001000
00000000
,
00010000
00100000
10000000
00100000
00010000
00001000
01000000
00001000
,
00010000
00100000
00010000
00001000
00000100
00000010
00000100
00000001
,
00000010
00001001
00011000
10010000
,
10000000
00100000
01000000
10000000
01000000
00100000
00010000
00001000
,
00000100
00001000
00010000
00100000
00010000
00001000
00000010
00001000
,
00010000
00001000
00000100
00000001
00000100
00001000
00010000
00000000
,
00012000
00000000
00000010
00000000
00013000
00000000
00000010
00000100
,
00001000
00010000
00100000
00000000
01100000
00010000
01000000
00100000
,
10000000
00000000
20020000
00000000
00000000
30030000
00000000
00000000
,
00110000
00100000
00001000
00011000
00010000
00000010
00001010
00001000
,
00000001
00000000
00000101
00000000
00000100
00000000
00000010
00000000
00001000
00000000
00000100
00001000
00000100
00000000
00000010
00000000
,
00000001
00000010
00000001
00000000
00000100
00000000
00001000
00000000
00010000
00000000
01000000
00000000
10000000
00000000
00000000
00000000
,
10100000
00100000
01000000
01010000
00010000
00100000
00101000
00001000
,
00010000
00000000
00010010
00000000
00000010
00000000
00001000
00000000
00000100
00000000
00000010
00000001
00000010
00000000
00000100
00000000
,
00001000
00000010
00001000
00000000
00000001
00000000
00000010
00000000
00001000
00000000
00010000
00000000
00001000
00000000
00000000
00000000
,
00011000
00000010
00001000
00001010
00000010
00010000
00011000
00100000
,
00010000
00110000
00001000
00010000
00011000
00000100
00001000
00001010
,
00000100
00000001
00000011
00001000
00000100
00001100
00010000
00001000
,
00201000
02300000
23000000
30200000
,
00320000
00000000
00000000
00000000
00032000
00000000
00000000
00000000
00003020
00000000
00000000
00000000
00000031
00000000
00000010
00000100
,
00001000
00000000
00000010
00001000
00000010
00010000
00001000
00010000
00002000
00000000
00000000
00000000
00023000
00000000
00000000
00000000
,
00031000
00000000
00000010
00000001
00000010
00000000
00000001
00000100
00000001
00000000
00000100
00000010
00001000
00000000
00000010
00010000
,
00001000
00000000
00010000
00000000
00011000
00000000
00001000
00000000
00010000
00000000
00100000
10000000
00100000
00000000
10000000
01000000
,
10000000
00000000
01000000
00100000
00010000
00000000
00100000
00001000
00010000
00000000
00001000
00000000
00011000
00000000
00010000
00000000
,
00010010
00000010
00002010
00000000
00010000
00000000
00003010
00000000
,
00001000
00000100
00010000
00001000
00101000
00100000
00120000
00000000
,
00001000
00000000
00000000
00000000
00130000
00000000
01000000
00000000
10000000
01000000
00100000
00010000
00100000
00010000
10000000
00100000
,
02000000
00000000
03100000
10000000
01000000
00100000
00102000
00000000
,
00013000
00000000
00000100
00000000
00001000
00000000
00000010
00000100
00000001
00000000
00000010
00000000
00000011
00000000
00000001
00000000
,
00000101
00000100
00000110
00000010
00001010
00001000
00001100
00000100
,
00010000
00000000
00001000
00010000
00001000
00000000
00100000
00010000
00100000
00000000
01000000
10000000
00010000
00000000
01000000
00000000
,
00100000
00000000
00010000
00000000
00001000
00000000
00000010
00000000
00001000
00000000
00010000
00000100
00010000
00001000
00010000
00000100
,
00001000
00000000
00000010
00000000
00010000
00000000
00000000
00000000
00012000
00000000
00000000
00003000
00010000
00001000
00010000
00001000
,
00010000
00000000
00001000
00000010
00000001
00000000
00000001
00000100
00001000
00000000
00010000
00100000
10000000
00000000
10000000
01000000
,
00010000
00000000
00001000
00000000
00011000
00000000
00010000
00000000
00001000
00000000
00010000
00100000
10000000
00000000
10000000
01000000
,
00010000
00000000
00001000
00000010
00000001
00000000
00000001
00000100
00001000
00000000
00010000
00000000
00011000
00000000
00001000
00000000
,
01010000
01000000
01200000
00000000
00001000
00000000
10300000
01000000
,
00010000
00001000
00011000
00010000
00001100
00000100
00000120
00000000
,
00010000
00000000
00000000
00000000
00000031
00000000
00000100
00000000
00000010
00001000
00000010
00001000
00000001
00000010
00000100
00001000
,
00000200
00000000
00000301
00000100
00010000
00001000
00021000
00000000
,
00130000
00000000
10000000
00000000
00010000
00000000
00100000
01000000
10000000
00000000
01000000
00000000
01100000
00000000
00100000
00000000
,
00101000
00001000
00011000
00010000
00010010
00000010
00001010
00001000
,
00000001
00000000
00000010
00000100
00001000
00000000
00000010
00010000
00001000
00000000
00010000
00000100
00001000
00000000
00000010
00000000
,
00000100
00000000
00001000
00000000
00010000
00000000
01000000
00000000
00010000
00000000
00001000
00100000
00001000
00000000
00010000
00001000
,
01000000
00000000
00010000
00000000
00100000
00000000
01000000
10000000
01000000
00000000
00010000
00000000
00001000
00010000
00001000
00010000
,
00000020
00000030
00000000
00020200
,
00030000
00000000
00001300
00000100
00000002
00000003
00000200
00000300
,
00000020
00000030
00002000
00003000
00020000
00030000
00100000
10000000
,
00100000
01000000
20000000
00000000
32000000
00000000
03020000
00000000
,
00001000
00000000
00000000
00000000
00000000
00000000
00000000
00000000
00000000
00000000
00000000
00000000
00000000
00000000
00000000
00000000
01030000
00000000
00000000
00000000
00000000
00000000
00000000
00000000
00000000
00000000
00000000
00000000
00000000
00000000
00000000
00000000
01100000
00000000
00000000
00000000
00000000
00000000
00000000
00000000
00000000
00000000
00000000
00000000
00000000
00000000
00000000
00000000
00000000
00000000
00000000
00100000
00000000
00000000
00000000
00000000
00000000
00000000
00000000
00000000
00000000
00000000
00000000
00000000
,
00000000
00000000
00000000
00000000
00000000
00000000
00000000
00000000
00000000
00000000
00010000
00000000
00000000
00000000
00000000
00000000
00000000
00000000
00000000
00000000
00000000
00000000
00000000
00000000
00000000
00000000
00000000
00000000
00000000
00000000
00000000
00000000
00000000
00000000
00000000
00000000
00000000
00000000
00000000
00000000
00000000
00000000
00000000
00000000
00000000
00000000
00000000
00000000
00001000
00000000
00000000
00000000
00000000
00000000
00000000
00000000
00000000
00000000
00000000
00000000
00000000
00000000
00000000
00000000
00000000
00000000
00000000
00000000
00000000
00000000
00000000
00000000
00000000
00000000
00000000
00000000
00000000
00000000
00000000
00000000
00000000
00000000
00000000
00000000
00000000
00000000
00000000
00000000
00000000
00000000
00000000
00000000
00000000
00000010
00000000
00000000
,
00000000
00000000
00000000
00000000
00000000
00000000
00000000
00000000
00000000
00000000
00000000
00000000
00000000
00000000
00000000
00000000
00000000
00000000
00000000
00000000
00000000
00000000
00000000
00000000
00000000
00000000
00000000
00000000
00000000
00000000
00000000
00000000
00000000
00000000
00000000
00000000
00000000
00000000
00000000
00002002
00000000
00000000
00000000
00000000
00000000
00000000
00000000
00000000
00000000
00000000
00000000
00000000
00000000
00000000
00000000
00000000
00000000
00000000
00000000
00000000
00000000
00000000
00000000
00000000
,
00000000
00000000
00003003
00000000
;

//--------------- dance-double - Princess Pamela ----------------
#NOTES:
     dance-double:
     Princess Pamela:
     Challenge:
     12:
     0,0,0,0,0:
00000000
00000000
00000000
00000000
,
00000000
00000000
00000000
00000000
,
00000000
00000000
00000000
00000000
,
00000000
00000000
00000000
00000000
,
00001000
00000000
00000000
00010000
,
00000000
00000000
01000000
00000000
,
00000000
10000000
01000000
00100000
,
00010000
00000000
00000000
01000000
,
00100000
00010000
00001000
00000000
,
00000010
00000200
00000000
00000300
,
00001001
00000001
00000100
00001000
,
00000100
00000001
00000010
00001000
,
00010000
00100000
10000000
01000000
,
00020000
02030000
03020000
00032000
,
00003200
00002300
00023000
00000000
,
00032000
00003020
00000000
00000031
,
00001001
00000001
00000010
00001000
,
00010000
00001000
00000100
00001000
,
00010000
00100000
10000000
01000000
,
00020000
00000000
00032000
00003200
,
00000301
00000100
00000001
00000000
00000010
00000000
00001000
00000000
,
00010000
00022000
00033000
MMMMMMMM
,
00000000
00000000
00100000
00100000
00100000
00000000
00100000
00000000
,
00000000
00010000
01000000
00000000
,
00100000
10000000
00000000
00100000
,
00010000
00000000
00001000
00001000
00001000
00000000
00010000
00000000
,
00000000
00001000
00000100
00000000
,
00000001
00000010
00000000
00000000
,
00001001
00000000
00000001
00000001
00000001
00000000
00000001
00000000
,
00000000
00000100
00001000
00000000
,
00010000
00011000
00000000
00001000
,
00010000
00000000
00100000
00100000
00100000
00000000
10000000
00000000
,
00100000
00000000
00010000
00000000
00011000
00000000
00000000
00010000
,
00000100
00000000
00002000
00003000
00002000
00003000
00000020
00000030
,
00000002
00000023
00000230
00002300
,
00023000
00230000
02300000
03200000
,
00320000
00032000
00003200
00000320
,
00000230
00002300
00023000
00230000
,
00320000
00032000
00003200
00002300
,
00023000
00000000
00130000
00000000
10000000
00000000
00010000
00100000
,
20000000
30200000
02300000
03020000
,
00032000
00003020
00000230
00000320
,
00002030
00023000
02030000
03200000
,
02300000
03020000
00030200
00000320
,
00000032
00000000
00000023
00000000
00001030
00000000
00000000
00010000
,
00000000
00022000
00033000
MMMMMMMM
,
00010000
01000000
20000000
30000000
10000000
00100000
00010000
00000000
,
00001000
00000100
00000002
00000003
00000001
00000010
00001000
00000000
,
00010100
00011000
01001000
00011000
,
00001000
00000100
00000002
00000003
00000001
00000010
00001000
00000000
,
00010000
01000000
20000000
30000000
10000000
00100000
00010000
00000000
,
01001000
00011000
00010100
00011000
,
00001000
00000010
00000002
00000013
00000001
00000000
00000100
00000000
,
00001000
00000000
00011000
00000000
00010000
00100000
20000000
30100000
,
10000000
01000000
00010000
00011000
,
00002000
00003020
00002030
00023000
,
00230000
00320000
00031000
00000000
,
00010000
00000000
00022000
00000000
00000000
00000000
00033000
MMMMMMMM
,
00010000
MMMMMMMM
01000000
MMMMMMMM
10000000
MMMMMMMM
00100000
MMMMMMMM
,
00010000
MMMMMMMM
00001000
MMMMMMMM
00000100
MMMMMMMM
00000001
MMMMMMMM
,
00000010
MMMMMMMM
00001000
MMMMMMMM
00010000
MMMMMMMM
01000000
10000000
,
01000000
00100000
00020000
00000000
0000MMMM
00000000
00030000
00000000
,
00001000
00000000
00000100
00000000
00000010
00000001
00000020
00000000
,
MMMM0000
00000030
00000001
00001000
,
MMMM2002
00000000
00000003
00003000
00000100
00000001
MMMM0200
00000000
,
00000000
00000300
00000010
00001000
0001MMMM
00000000
00100000
00000000
,
10000000
0100MMMM
00010000
01000000
,
1000MMMM
00000000
00100000
01000000
00100000
00010000
MMMM2000
00000000
,
00003020
00000000
00001030
00000000
00011000
MMMMMMMM
00000100
00001000
,
00000100
00000000
00010000
00000000
00022000
00000000
00033000
MMMMMMMM
,
00010100
MMMMMMMM
00001100
MMMMMMMM
00001010
MMMMMMMM
00010010
MMMMMMMM
,
00011000
MMMMMMMM
00101000
MMMMMMMM
10010000
MMMMMMMM
01001000
MMMMMMMM
,
00011000
MMMMMMMM
00010100
MMMMMMMM
00001001
MMMMMMMM
00000100
00001000
,
00000001
00000010
00002000
00000000
MMMM0000
00000000
00003000
00000000
,
00010000
00000000
01000000
00000000
10000000
01000000
00020000
00000000
,
0000MMMM
00000000
00030000
00000000
00001000
00010000
01000000
10000000
,
2002MMMM
00000000
30000000
00030000
01000000
10000000
0200MMMM
00000000
,
00000000
03000000
00100000
00010000
MMMM1000
00000000
00000010
00000000
,
00000001
MMMM0100
00001000
00000100
,
MMMM0001
00000010
00000100
00000010
00001000
00000000
0002MMMM
00000000
,
00230000
00000000
00310000
00000000
00011000
MMMMMMMM
00110000
00000000
,
00001000
00010000
01000000
00000000
20020000
00000000
30030000
MMMMMMMM
,
00022000
00033000
00000000
00002020
,
00003000
00000000
00000030
00000100
00000001
00000000
00000010
00000000
,
00001000
00000000
00010000
00000000
00100000
00000000
10000000
00010000
,
00100000
01000000
20000000
00000000
00000000
00000000
30100000
00000000
,
00010000
00000000
00000000
00000000
00000000
00000000
00000000
00000000
00000000
00000000
00000000
00000000
00000000
00000000
00000000
00000000
00001000
00000000
00000000
00000000
00000000
00000000
00000000
00000000
00000000
00000000
00000000
00000000
00000000
00000000
00000000
00000000
00011000
00000000
00000000
00000000
00000000
00000000
00000000
00000000
00000000
00000000
00000000
00000000
00000000
00000000
00000000
00000000
00000000
00000000
00000000
00000010
00000000
00000000
00000000
00000000
00000000
00000000
00000000
00000000
00000000
00000000
00000000
00000000
,
00000000
00000000
00000000
00000000
00000000
00000000
00000000
00000000
00000000
00000000
00001000
00000000
00000000
00000000
00000000
00000000
00000000
00000000
00000000
00000000
00000000
00000000
00000000
00000000
00000000
00000000
00000000
00000000
00000000
00000000
00000000
00000000
00000000
00000000
00000000
00000000
00000000
00000000
00000000
00000000
00000000
00000000
00000000
00000000
00000000
00000000
00000000
00000000
00000001
00000000
00000000
00000000
00000000
00000000
00000000
00000000
00000000
00000000
00000000
00000000
00000000
00000000
00000000
00000000
00000000
00000000
00000000
00000000
00000000
00000000
00000000
00000000
00000000
00000000
00000000
00000000
00000000
00000000
00000000
00000000
00000000
00000000
00000000
00000000
00000000
00000000
00000000
00000000
00000000
00000000
00000000
00000000
00000000
00000100
00000000
00000000
,
00000000
00000000
00000000
00000000
00000000
00000000
00000000
00000000
00000000
00000000
00000000
00000000
00000000
00000000
00000000
00000000
00000000
00000000
00000000
00000000
00000000
00000000
00000000
00000000
00000000
00000000
00000000
00000000
00000000
00000000
00000000
00000000
00000000
00000000
00000000
00000000
00000000
00000000
00000000
00002000
00000000
00000000
00000000
00000000
00000000
00000000
00000000
00000000
00000000
00000000
00000000
00000000
00000000
00000000
00000000
00000000
00000000
00000000
00000000
00000000
00000000
00000000
00000000
00000000
,
00000000
00000000
00003000
00000000
;
