#VERSION:0.83;
#TITLE:Electro Fantasy;
#SUBTITLE:;
#ARTIST:Beautiful Day;
#TITLETRANSLIT:;
#SUBTITLETRANSLIT:;
#ARTISTTRANSLIT:;
#GENRE:;
#CREDIT:;
#MUSIC:Electro Fantasy.ogg;
#BANNER:;
#BACKGROUND:Electro Fantasy-bg.png;
#JACKET:;
#DISCIMAGE:;
#CDIMAGE:;
#SELECTABLE:YES;
#LYRICSPATH:;
#CDTITLE:;
#SAMPLESTART:0.000;
#SAMPLELENGTH:0.000;
#OFFSET:-0.266;
#BPMS:0.000000=140.000000;
#STOPS:;
#WARPS:;
#DELAYS:;
#SPEEDS:;
#SCROLLS:;
#TICKCOUNTS:;
#TIMESIGNATURES:;
#LABELS:;
#COMBOS:;
#FAKES:;
#BGCHANGES:;
#FGCHANGES:;
#ATTACKS:;

//---------------dance-single - Keys---------------
#NOTEDATA:;
#CHARTNAME:;
#CHARTSTYLE:;
#CREDIT:;
#STEPSTYPE:dance-single;
#DESCRIPTION:Keys;
#DIFFICULTY:Beginner;
#METER:5;
#METERF:5;
#RADARVALUES:0,0,0,0,0;
#NOTES:
// measure 0
0000
0000
0000
0000
,  // measure 1
1000
0001
1000
0010
,  // measure 2
0100
0000
0000
0000
,  // measure 3
0000
0000
0000
0000
,  // measure 4
0001
0010
0100
1000
,  // measure 5
0100
0010
0001
0010
,  // measure 6
0100
0000
0000
0000
,  // measure 7
0000
0000
0010
0001
,  // measure 8
0010
0001
1000
0001
,  // measure 9
1000
0100
1000
0010
,  // measure 10
0100
1000
0100
0010
,  // measure 11
0001
0010
0100
1000
,  // measure 12
0100
1000
0001
1000
,  // measure 13
0001
0010
0001
0100
,  // measure 14
0010
1000
0100
0010
,  // measure 15
0100
1000
0001
1000
,  // measure 16
2000
0000
3000
0000
,  // measure 17
0002
0000
0003
0000
,  // measure 18
0200
0000
0300
0000
,  // measure 19
0020
0000
0030
0000
,  // measure 20
2000
0000
3000
0000
,  // measure 21
0002
0000
0003
0000
,  // measure 22
0020
0000
0030
0000
,  // measure 23
0200
0000
0300
0000
,  // measure 24
0002
0000
0000
0000
0000
0000
0000
0003
,  // measure 25
0200
0000
0000
0000
0000
0000
0000
0300
,  // measure 26
2000
0000
0000
0000
0000
0000
0000
3000
,  // measure 27
0002
0000
0000
0003
,  // measure 28
0110
0000
0000
0000
,  // measure 29
1100
0000
0000
0000
,  // measure 30
0100
1000
0100
0010
,  // measure 31
0001
0010
0100
1000
,  // measure 32
0100
1000
0001
1000
,  // measure 33
0001
0010
0001
0100
,  // measure 34
0010
1000
0100
0010
,  // measure 35
0100
1000
0010
0100
,  // measure 36
0001
0010
0100
1000
,  // measure 37
0001
0010
0100
1000
,  // measure 38
2200
0000
0000
0000
,  // measure 39
0000
0000
0000
0000
0000
3300
0000
0000
,  // measure 40
0100
0010
0100
0010
,  // measure 41
0010
0001
1000
0001
,  // measure 42
1000
0000
0000
0010
,  // measure 43
0000
0010
0000
0010
,  // measure 44
0000
0010
0000
0010
,  // measure 45
0000
0010
0000
0010
,  // measure 46
0002
0000
0103
0000
,  // measure 47
0002
0000
2003
0000
,  // measure 48
3200
0000
0000
0000
,  // measure 49
0320
0000
0000
0000
,  // measure 50
0032
0000
0000
0000
,  // measure 51
0203
0000
0000
0000
,  // measure 52
0320
0000
0000
0000
,  // measure 53
2030
0000
0000
0000
,  // measure 54
3002
0000
0000
0000
,  // measure 55
0203
0000
0000
0000
,  // measure 56
2300
0000
0000
0000
,  // measure 57
3002
0000
0000
0000
,  // measure 58
0203
0000
0000
0000
,  // measure 59
2300
3200
0320
0032
,  // measure 60
2003
0000
0000
0000
,  // measure 61
3200
0000
0000
0300
,  // measure 62
0001
0010
0001
0000
,  // measure 63
0100
1000
0100
0000
,  // measure 64
0010
0100
0010
0000
,  // measure 65
0001
1000
0001
0000
,  // measure 66
0100
0010
0100
0000
,  // measure 67
0001
0100
0001
0000
,  // measure 68
0010
1000
0010
1000
,  // measure 69
0100
0001
0100
0001
,  // measure 70
0010
0100
0010
0100
,  // measure 71
0010
0010
0001
0100
,  // measure 72
0001
0001
1000
1000
,  // measure 73
2002
0000
0000
0000
,  // measure 74
0000
0000
0000
3003
;

//---------------dance-single - Keys---------------
#NOTEDATA:;
#CHARTNAME:;
#CHARTSTYLE:;
#CREDIT:;
#STEPSTYPE:dance-single;
#DESCRIPTION:Keys;
#DIFFICULTY:Easy;
#METER:10;
#METERF:10;
#RADARVALUES:0,0,0,0,0;
#NOTES:
// measure 0
0000
0000
0000
0000
,  // measure 1
1000
0000
1000
0000
,  // measure 2
0001
0000
0000
0000
0000
0000
0001
0000
0000
0000
1000
0001
0000
0000
0000
0000
,  // measure 3
0000
0000
0000
0000
,  // measure 4
1000
0001
0010
0001
,  // measure 5
0100
0001
0010
0001
,  // measure 6
1000
0000
0000
0000
0000
0000
0001
0000
0000
0000
1000
0001
0000
0000
0000
0000
,  // measure 7
0001
0010
0001
0100
,  // measure 8
0010
1000
0100
0010
0100
1000
0100
0020
,  // measure 9
0030
0001
0010
0100
0010
0001
0010
0200
,  // measure 10
0300
1000
0100
0010
0001
0010
0100
1000
,  // measure 11
0100
1000
0001
0100
0001
1000
0010
0100
,  // measure 12
0001
0001
0010
0100
0010
0001
0010
0200
,  // measure 13
0300
1000
0100
0010
0100
1000
0100
0020
,  // measure 14
0031
0100
0010
0100
0001
0010
0100
1000
,  // measure 15
0100
0010
0100
1000
0010
0100
0010
0100
,  // measure 16
0002
0003
0200
0300
0020
0030
2000
3000
,  // measure 17
2200
3300
0022
0033
2200
3300
0022
0033
,  // measure 18
2000
3000
0020
0030
0200
0300
0002
0003
,  // measure 19
0022
0033
2200
3300
0022
0033
2200
3300
,  // measure 20
0020
0030
0200
0300
0002
0003
2000
3000
,  // measure 21
0020
0030
0200
0300
0002
0003
0010
0001
,  // measure 22
0002
0003
0020
0030
0200
0300
2000
3000
,  // measure 23
0020
0030
2000
3000
0020
0030
2000
3000
,  // measure 24
0100
0010
0100
0010
0001
0010
0001
0010
,  // measure 25
0100
0010
0100
1000
0100
1000
0100
1000
,  // measure 26
0001
1000
0001
1000
0010
1000
0010
0100
,  // measure 27
0010
0100
0010
1000
0100
0010
0001
0000
,  // measure 28
0011
0000
0001
0000
0010
0000
0001
1000
,  // measure 29
1000
0000
0010
0000
1000
0000
0100
0010
,  // measure 30
0010
0001
0010
0100
1000
0100
0010
0001
,  // measure 31
0010
0001
1000
0010
1000
0001
0100
0010
,  // measure 32
1000
0100
0010
0100
1000
0100
0010
0001
,  // measure 33
0100
0010
0100
0001
0100
0010
1000
2000
,  // measure 34
3001
0010
0100
0010
0001
0010
0100
1000
,  // measure 35
0010
0100
0010
1000
0010
0100
0001
0010
,  // measure 36
0001
0010
0100
1000
0001
0010
0100
1000
,  // measure 37
0010
0100
0001
0010
0100
1000
0001
0010
,  // measure 38
2200
0000
0000
0000
,  // measure 39
0000
0000
0000
3300
,  // measure 40
2002
3003
0000
0000
0220
0330
0000
0000
2002
3003
0000
0000
0220
0330
0000
0000
,  // measure 41
2200
3300
0000
0000
2200
3300
0000
0000
0022
0033
0000
0000
0022
0033
0000
0000
,  // measure 42
0100
0010
0100
0000
0001
1000
0001
0000
,  // measure 43
0010
0100
1000
0000
0001
0010
0100
0000
,  // measure 44
1000
0100
0010
0000
0100
0010
0001
0000
,  // measure 45
1000
1100
0001
0101
,  // measure 46
2001
0000
3020
0230
,  // measure 47
0302
0000
0023
0000
,  // measure 48
0032
0023
0230
2300
,  // measure 49
3200
0000
0320
0000
,  // measure 50
0000
0000
0230
2300
,  // measure 51
3002
0203
0320
2030
,  // measure 52
3200
0000
0000
0000
0000
0000
0000
0000
0320
0000
0000
0000
0000
0000
0032
0003
,  // measure 53
0002
0000
0000
0000
,  // measure 54
0203
0000
0320
2030
,  // measure 55
3002
0000
0023
0000
0000
0032
0000
0000
,  // measure 56
0023
0000
0032
2003
,  // measure 57
3020
0000
2030
0000
,  // measure 58
0000
0000
3020
2030
,  // measure 59
3200
0320
0032
0203
,  // measure 60
0320
0000
0000
1030
2000
0000
0000
3001
,  // measure 61
0002
0000
0000
0003
,  // measure 62
1000
0010
0100
0000
0001
0100
0010
0000
,  // measure 63
1000
0100
1000
0000
0001
0100
0001
0000
,  // measure 64
1000
0100
0010
0000
0001
0010
0100
0000
,  // measure 65
1000
0010
1000
0100
1000
0010
0100
0001
,  // measure 66
0010
0001
0100
0001
0010
0100
0010
0001
,  // measure 67
1000
0010
0100
0010
1000
0100
0010
0001
,  // measure 68
0001
0002
0000
0000
0000
0000
0000
0000
,  // measure 69
0203
0320
0100
0000
0000
0000
1000
0000
,  // measure 70
0000
0100
0000
1000
,  // measure 71
0000
0100
0000
1030
,  // measure 72
1000
0001
1000
0001
0100
0010
0100
0010
,  // measure 73
0220
0000
0000
0000
,  // measure 74
0000
0000
0000
0000
,  // measure 75
0330
0000
0000
0000
;

//---------------dance-single - Keys---------------
#NOTEDATA:;
#CHARTNAME:;
#CHARTSTYLE:;
#CREDIT:;
#STEPSTYPE:dance-single;
#DESCRIPTION:Keys;
#DIFFICULTY:Medium;
#METER:12;
#METERF:12;
#RADARVALUES:0,0,0,0,0;
#NOTES:
// measure 0
0000
0000
0000
0000
,  // measure 1
0000
0000
0000
0000
,  // measure 2
0012
0000
0000
0000
0000
0000
0013
0000
0000
0000
0100
1000
0000
0000
0000
0000
,  // measure 3
0000
0000
0000
0000
,  // measure 4
0002
0203
0320
2030
,  // measure 5
3002
0023
0230
2300
,  // measure 6
3001
0000
0000
0000
0000
0000
0100
0000
0000
0000
0001
0010
0000
0000
0000
0000
,  // measure 7
0000
0000
0001
0100
0001
0000
0100
0001
0100
0000
0001
1000
0001
0000
0100
0010
,  // measure 8
0100
0000
0001
0000
0010
0000
0100
0000
1000
0100
1000
0000
0100
0000
0020
0000
,  // measure 9
0030
0000
0100
0000
1000
0000
0100
0000
0010
0001
0010
0000
0001
0000
0200
0000
,  // measure 10
0300
0000
0010
1000
0010
0000
0100
0000
0010
0000
1000
0000
0100
0000
0010
0000
,  // measure 11
0100
1000
0001
0010
0100
0010
0001
0100
,  // measure 12
0110
0000
0001
0000
0010
0000
0100
0000
1000
0100
1000
0000
0100
0000
0020
0000
,  // measure 13
0030
0000
0100
0000
1000
0000
0100
0000
0010
0001
0010
0000
0001
0000
0200
0000
,  // measure 14
0310
1000
0100
0000
0010
0000
0100
0000
1000
0100
0010
0000
0001
0000
0100
0000
,  // measure 15
0010
0100
0001
0000
0100
0000
0010
0000
0100
0001
0100
0000
0010
0000
1000
0000
,  // measure 16
0010
1000
0000
0000
0001
1000
0000
0000
0010
1000
0000
0000
0001
1000
0000
0000
,  // measure 17
2020
3030
0220
0330
0202
0303
0220
0330
,  // measure 18
0100
0001
0000
0000
1000
0001
0000
0000
0100
0001
0000
0000
1000
0001
0000
0000
,  // measure 19
0100
0010
0000
0000
1000
0100
0000
0000
0010
0001
0000
0000
0100
0010
0000
0000
,  // measure 20
1100
0010
0001
0010
0100
1000
0100
0010
,  // measure 21
0001
0100
0010
1000
0100
1000
0010
1000
,  // measure 22
1100
0000
0000
0000
0010
0100
0000
0000
0001
0010
0000
0000
0100
1000
0000
0000
,  // measure 23
0010
0100
0000
0000
0001
0100
0000
0000
0010
1000
0000
0000
0100
0010
0000
0000
,  // measure 24
1010
0100
0010
1000
0100
0010
0100
1000
,  // measure 25
0001
0010
0100
0010
0001
0010
1000
0010
,  // measure 26
0001
0100
1000
0100
0001
0010
0100
0010
,  // measure 27
0001
0000
1000
0000
0100
0010
0000
0000
0100
0010
0000
0000
0001
0010
0100
1000
,  // measure 28
0001
0000
0010
0000
0100
0000
1000
0100
1000
0000
0100
0000
0020
0000
0030
0000
,  // measure 29
0100
0000
1000
0000
0100
0000
0010
0001
0010
0000
0001
0000
0200
0000
0300
0000
,  // measure 30
0010
1000
0010
0000
0100
0000
0010
0000
1000
0000
0100
0000
0010
0000
0100
0000
,  // measure 31
1000
0001
0010
0100
0010
0001
0100
0010
,  // measure 32
1000
0100
0010
0000
0001
0000
0100
0000
0010
0100
0001
0000
0010
0000
0001
0000
,  // measure 33
0100
0010
1000
0000
0100
0000
0010
0000
0001
1000
0001
0000
0100
0000
0020
0000
,  // measure 34
0030
0000
1000
0100
0010
0000
0001
0000
0100
0000
0010
0100
0001
0000
0010
0000
,  // measure 35
0001
0000
0100
0010
1000
0000
0100
0000
0010
0000
0001
1000
0001
0000
0100
0000
,  // measure 36
0001
0010
0001
0000
1000
0000
0100
0000
0010
0000
0001
0000
0100
0000
0010
0000
,  // measure 37
1000
0100
1000
0000
0001
0000
0010
0000
0100
0000
1000
0000
0010
0000
0100
0000
,  // measure 38
2002
0000
0000
0000
,  // measure 39
0000
0000
0000
3003
,  // measure 40
2200
3300
0000
0000
0202
0303
0000
0000
2200
3300
0000
0000
0202
0303
0000
0000
,  // measure 41
0022
0033
0000
0000
2020
3030
0000
0000
0022
0033
0000
0000
2020
3030
0000
0000
,  // measure 42
0011
0010
0100
0010
0001
0100
0010
1000
,  // measure 43
0100
0010
0001
0100
0010
0100
0001
1000
,  // measure 44
0010
1010
0000
0101
,  // measure 45
0000
0011
0000
1100
,  // measure 46
0020
0000
0000
0000
2030
3200
0320
0032
,  // measure 47
0203
0000
0320
0000
,  // measure 48
2030
0000
0000
0000
3002
0000
0000
0000
0023
0000
0000
0000
0230
0000
0000
0320
,  // measure 49
0032
0000
2003
0000
,  // measure 50
0000
0000
0000
0000
3020
0000
0230
0320
,  // measure 51
2030
3200
2300
3002
,  // measure 52
0023
0000
0000
0000
0000
0000
0000
0000
0032
0000
0000
0000
0000
0000
0203
0300
,  // measure 53
0200
0000
0000
0000
,  // measure 54
0320
0000
0000
0000
0000
0000
0000
0000
2030
0000
0000
3200
2300
0000
0000
3020
,  // measure 55
2030
0000
0000
0000
0000
0000
0000
0000
3002
0000
0000
0000
0000
0000
0000
0000
0003
0000
0200
0000
0000
0302
0000
0000
0023
0000
0000
0230
0000
0000
2300
0000
,  // measure 56
3002
0000
0000
0000
0000
0000
0000
0000
0203
0000
0000
0320
2030
0000
0000
3002
,  // measure 57
2003
0000
3200
0000
,  // measure 58
0000
0000
0000
0000
0320
0032
0023
0230
,  // measure 59
2300
3200
0320
0032
,  // measure 60
0203
0000
0000
0000
0000
0000
0320
0000
2030
0000
0000
0000
0000
0000
3002
0003
,  // measure 61
0002
0000
0000
0003
,  // measure 62
0001
0010
0001
0000
0010
0000
0100
0000
1000
0100
1000
0000
0010
0000
0100
0000
,  // measure 63
0001
1000
0001
0000
0100
0000
0010
0000
1000
0001
1000
0000
0010
0000
1000
0000
,  // measure 64
0100
0010
0001
0000
0100
0000
0001
0000
0010
0100
1000
0000
0010
0000
1000
0000
,  // measure 65
0100
0010
0001
0000
0100
0000
0001
0000
0100
0010
1000
0000
0010
0000
0100
0000
,  // measure 66
0001
0010
0011
0001
0100
0010
1100
1000
,  // measure 67
0010
0100
0011
0001
0010
0100
1001
0100
,  // measure 68
0010
0002
0000
0000
0000
0000
0000
0000
,  // measure 69
0103
0200
0000
0000
0000
0000
0000
0000
,  // measure 70
0310
0010
1010
0000
1000
1000
1100
0000
,  // measure 71
0010
0010
0011
0000
0001
0001
0101
0000
,  // measure 72
1000
1000
0001
0001
0010
0010
0100
0100
,  // measure 73
0220
0000
0000
0000
,  // measure 74
0000
0000
0000
0000
,  // measure 75
0330
0000
0000
0000
;

//---------------dance-single - Keys---------------
#NOTEDATA:;
#CHARTNAME:;
#CHARTSTYLE:;
#CREDIT:;
#STEPSTYPE:dance-single;
#DESCRIPTION:Keys;
#DIFFICULTY:Hard;
#METER:15;
#METERF:15;
#RADARVALUES:0,0,0,0,0;
#NOTES:
// measure 0
0000
0000
0000
0000
,  // measure 1
0000
0000
0000
0000
,  // measure 2
2100
0000
0000
0000
0000
0000
3100
0000
0000
0000
0010
0001
0000
0000
0000
0000
,  // measure 3
0000
0000
0000
0000
,  // measure 4
2000
3020
0230
0302
,  // measure 5
2003
3200
0320
0032
,  // measure 6
1003
0000
0000
0000
0000
0000
0010
0000
0000
0000
1000
0100
0000
0000
0000
0000
,  // measure 7
0000
0000
0000
0000
0010
1000
0000
0010
1000
0100
0000
0010
0001
0100
0000
0000
,  // measure 8
0010
1000
0010
1000
0100
0010
0001
0010
0001
0010
0001
0100
0010
1000
0002
0003
,  // measure 9
0000
0001
0010
0001
0010
0100
1000
0100
1000
0100
1000
0010
0100
0001
2000
3000
,  // measure 10
0000
1000
0010
1000
0100
0010
0001
0010
0100
1000
0100
0010
0001
0100
0001
0100
,  // measure 11
0010
0100
0001
1000
0001
0100
0010
1000
0100
0010
0001
0010
0001
1000
0001
1000
,  // measure 12
0010
1000
0010
1000
0100
0010
0001
0010
0001
0010
0001
0100
0010
1000
0002
0003
,  // measure 13
0000
0001
0010
0001
0010
0100
1000
0100
1000
0100
1000
0010
0100
0001
2000
3000
,  // measure 14
0010
1000
0010
0000
0100
0001
0100
0000
0010
1000
0100
0010
0001
0010
0100
1000
,  // measure 15
0010
1000
0010
0100
0010
0000
0100
0001
0100
0010
0100
0000
0001
1000
0001
0000
,  // measure 16
0001
0010
0000
0000
0001
0100
0000
0000
0010
1000
0000
0000
0010
0100
0000
0000
,  // measure 17
2020
3030
0202
0303
0022
0033
2200
3300
,  // measure 18
1000
0100
0000
0000
1000
0010
0000
0000
0100
0001
0000
0000
0100
0010
0000
0000
,  // measure 19
1000
0001
0000
0000
0100
0010
0000
0000
1000
0100
0000
0000
0010
0001
0000
0000
,  // measure 20
1001
0001
0100
0010
1000
0100
0010
0100
,  // measure 21
1000
0010
0100
0001
0100
0010
0100
0001
,  // measure 22
0101
0000
0000
0000
0001
0100
0000
0000
0010
0100
0000
0000
0001
1000
0000
0000
,  // measure 23
0010
1000
0000
0000
1000
0010
0000
0000
0100
0010
0000
0000
1000
0001
0000
0000
,  // measure 24
0100
0010
1000
0000
0100
0010
0001
0000
1000
0100
1000
0000
0001
0100
0001
0000
,  // measure 25
1000
0010
1000
0000
0001
0010
0001
0000
0100
0010
1000
0000
0001
0100
0010
0000
,  // measure 26
1000
0100
0010
0000
0001
0010
0100
0000
0010
0100
0010
0000
0100
0010
0100
0000
,  // measure 27
1000
0010
0100
0000
0001
0100
0010
0000
1000
0100
0010
0000
0001
0010
0100
0000
,  // measure 28
1001
1000
0010
0100
0001
0100
0110
0010
,  // measure 29
0010
1000
0100
0010
0001
1000
0011
0001
,  // measure 30
0001
0000
1000
0010
1000
0100
0010
0001
0010
0100
1000
0100
0010
0001
0100
0001
,  // measure 31
0100
0010
0100
0001
1000
0001
0100
0010
1000
0100
0010
0001
0010
0001
1000
0001
,  // measure 32
1000
0000
0100
0000
0010
0001
0010
0000
0100
0000
1000
0000
0010
0100
0001
0000
,  // measure 33
1000
0000
0100
0000
0010
0001
0010
0000
0001
0000
0100
0000
0010
1000
0100
0020
,  // measure 34
0030
0000
0001
0000
0100
0000
0010
1000
0010
0000
0100
0000
0001
0000
1000
0010
,  // measure 35
0100
0000
0001
0000
0010
0000
0100
1000
0100
0000
1000
0000
0010
0000
1000
0000
,  // measure 36
0100
0010
0100
0000
1000
0100
0010
0001
1000
0100
0010
0001
1000
0100
0010
0001
,  // measure 37
0010
0100
0010
0100
1000
0100
0010
0001
1000
0100
0010
0001
1000
0100
0010
0001
,  // measure 38
1000
0010
0100
0001
0010
0100
1000
0100
0010
0001
0010
0100
1000
0100
0010
0001
,  // measure 39
0010
0100
1000
0100
0010
0001
0010
0100
1000
0100
0010
0001
0010
0100
1000
0000
,  // measure 40
0220
0330
0000
0000
2002
3003
0000
0000
0220
0330
0000
0000
2002
3003
0000
0000
,  // measure 41
2200
3300
0000
0000
0022
0033
0000
0000
0202
0303
0000
0000
2020
3030
0000
0000
,  // measure 42
1001
0010
0100
0000
0011
0100
1000
0000
,  // measure 43
1001
0100
0010
0000
1100
0010
0001
0000
,  // measure 44
1000
0010
0100
0010
1000
0010
0100
0001
,  // measure 45
0010
0100
0010
0001
1000
0010
0100
0010
,  // measure 46
2000
0000
0000
0000
3200
0320
0230
2300
,  // measure 47
3002
0000
0023
0000
,  // measure 48
0032
0000
0000
0000
0203
0000
0000
0000
0320
0000
0000
0000
2030
0000
0000
3200
,  // measure 49
0320
0000
0032
0000
,  // measure 50
0000
0000
0000
0000
0203
0000
0320
2030
,  // measure 51
3200
0320
0230
2300
,  // measure 52
3002
0000
0000
0000
0000
0000
0000
0203
0320
0000
0000
0000
0000
0000
2030
3000
,  // measure 53
2000
0000
0000
3000
,  // measure 54
0210
0000
0000
0000
0000
0000
0000
0000
0302
0000
0000
2003
3200
0000
0000
0320
,  // measure 55
0230
0000
0000
0000
0000
0000
0000
0000
2300
0000
0000
0000
0000
0000
0000
0000
0000
0000
3020
0000
0000
2030
0000
0000
3200
0000
0000
0320
0000
0000
0032
0000
,  // measure 56
0203
0000
0000
0000
0000
0000
0000
0000
0320
0000
0000
2030
3200
0000
0000
0320
,  // measure 57
0230
0000
2300
0000
,  // measure 58
0000
0000
0000
0000
3020
0230
0302
0203
,  // measure 59
0320
2030
3002
0203
,  // measure 60
0320
0000
0000
0000
0000
0000
0000
1030
0200
0000
0000
0000
0000
0000
0310
0000
,  // measure 61
0020
0000
0000
0000
,  // measure 62
0031
0010
0001
0000
0010
0000
0100
0000
1000
0100
1000
0000
0010
0000
0100
0000
,  // measure 63
0001
0100
1000
0000
0100
0000
0001
0000
0010
1000
0010
0000
0001
0000
0100
0000
,  // measure 64
0010
1000
0100
0000
0010
0000
0100
0000
1000
0100
0001
0000
0100
0000
1000
0000
,  // measure 65
0010
0001
0010
0000
1000
0000
0100
0000
0010
0100
1000
0000
0001
0000
0100
0000
,  // measure 66
0010
0100
0001
0000
0100
0000
0010
0000
1000
0100
1000
0000
0010
0100
0010
0000
,  // measure 67
0100
0001
0100
0000
0001
0010
0001
0000
0100
0010
0100
0000
0010
1000
0010
0000
,  // measure 68
1000
0002
0000
0000
0000
0000
0000
0000
,  // measure 69
0103
0200
0000
0000
0000
0000
0000
0000
,  // measure 70
0310
0100
1010
0000
1000
0001
1100
0000
,  // measure 71
0010
0100
0011
0000
0001
1000
0101
0000
,  // measure 72
1100
1100
0011
0011
0110
0110
1001
1001
,  // measure 73
2002
0000
0000
0000
,  // measure 74
0000
0000
0000
0000
,  // measure 75
3003
0000
0000
0000
;

//---------------dance-single - Keys---------------
#NOTEDATA:;
#CHARTNAME:;
#CHARTSTYLE:;
#CREDIT:;
#STEPSTYPE:dance-single;
#DESCRIPTION:Keys;
#DIFFICULTY:Challenge;
#METER:17;
#METERF:17;
#RADARVALUES:0,0,0,0,0;
#NOTES:
// measure 0
0000
0000
0000
0000
,  // measure 1
0000
0000
0000
0000
,  // measure 2
1010
0000
0000
0000
0000
0000
0101
0000
0000
0000
0010
1000
0000
0000
0000
0000
,  // measure 3
0000
0000
0000
0000
,  // measure 4
0020
2030
3200
0302
,  // measure 5
0203
2300
3020
0130
,  // measure 6
0101
0000
0000
0000
0000
0000
1010
0000
0000
0000
0100
0001
0000
0000
0000
0000
,  // measure 7
0000
0000
0000
0010
1000
0100
0000
0010
0100
0010
0000
0001
0010
0100
0010
0100
,  // measure 8
0000
1000
0001
1000
0100
1000
0010
1000
0001
1000
0100
1000
0010
1000
0002
0003
,  // measure 9
0000
0001
1000
0001
0010
0001
0100
0001
1000
0001
0010
0001
0100
0001
2000
3000
,  // measure 10
0000
1000
0100
1000
0100
0010
0001
0100
0010
0100
0001
0010
0100
0010
0001
0100
,  // measure 11
0010
1000
0100
0010
0001
0100
0010
1000
0100
0010
0100
1000
0100
0010
0001
0100
,  // measure 12
0020
1030
0001
1000
0100
1000
0010
1000
0001
1000
0100
1000
0010
1000
0002
0003
,  // measure 13
0000
0001
1000
0001
0010
0001
0100
0001
1000
0001
0010
0001
0100
0001
1000
0010
,  // measure 14
0100
0010
1000
0100
1000
0010
0100
0001
0010
0100
0010
0100
1000
0010
0100
0001
,  // measure 15
1000
0100
1000
0001
0100
0001
0010
0100
0010
0001
1000
0001
0100
0010
1000
0100
,  // measure 16
0020
0030
0000
0010
0001
0000
1000
0100
0010
0000
0001
0100
0010
0000
0000
0000
,  // measure 17
2200
3300
0000
0000
0022
0033
0000
0000
0220
0330
0000
0000
2002
3003
2000
3000
,  // measure 18
2000
3100
0010
0000
0001
0100
0010
0000
1000
0100
0001
0000
0001
0100
1000
0000
,  // measure 19
0010
1000
0100
0000
0010
0001
0100
0000
0001
0100
1000
0000
1000
0100
0001
0000
,  // measure 20
0002
0003
0100
0000
0010
1000
0000
0010
0100
0000
0001
0000
0100
0010
0000
1000
,  // measure 21
0100
0000
0010
0000
0100
1000
0000
0001
0010
0000
0100
0000
0010
0001
2000
3000
,  // measure 22
2000
3000
0010
0000
1000
0100
0010
0000
0001
0100
0010
0000
0100
0010
1000
0000
,  // measure 23
0001
0100
0010
0000
1000
0100
0010
0000
0001
0100
0010
0000
0100
0001
0000
0000
,  // measure 24
0001
1000
0001
1000
0100
0010
0001
1000
0010
0100
0001
0010
0001
1000
0100
1000
,  // measure 25
0001
0100
0001
0010
0100
1000
0001
1000
0010
0100
0001
0010
0001
0100
0010
1000
,  // measure 26
0001
1000
0100
0010
0001
1000
0001
0100
0001
1000
0010
1000
0100
1000
0001
0100
,  // measure 27
0001
0010
0100
1000
0001
0100
0001
1000
0100
0010
0001
1000
0010
0100
0001
0000
,  // measure 28
0101
0100
0010
0100
0001
0100
1000
0100
0010
0100
0001
0100
1000
0100
0020
0030
,  // measure 29
0020
0030
0010
0100
0010
1000
0010
0001
0010
0100
0010
1000
0010
0001
0020
0030
,  // measure 30
0020
0030
1000
0100
1000
0100
0010
0001
0100
0010
0100
0001
0010
0100
0010
0001
,  // measure 31
0100
0010
1000
0100
0010
0001
0100
0010
1000
0100
0010
0100
1000
0100
0010
0001
,  // measure 32
0000
1000
0010
1000
0001
1000
0100
1000
0010
0100
0001
1000
0100
0010
0100
1000
,  // measure 33
0010
0100
0001
0010
0100
0010
0001
0100
0010
1000
0010
0100
0010
1000
0100
0020
,  // measure 34
0030
0001
0100
0001
1000
0001
0010
0001
0100
0010
1000
0001
0010
0100
0010
0001
,  // measure 35
0100
0010
1000
0100
0010
0100
1000
0010
0100
0001
0100
0010
0100
0001
0010
0001
,  // measure 36
0100
0010
0100
0001
0010
0100
1000
0001
0010
0100
1000
0001
0010
0100
1000
0001
,  // measure 37
1000
0010
0100
0010
1000
0100
1000
0100
0010
0001
1000
0100
0010
0001
1000
0100
,  // measure 38
0010
0001
0010
0100
1000
0100
0010
0001
0010
0100
1000
0100
0010
0001
0010
0100
,  // measure 39
1000
0100
0010
0001
0010
0100
1000
0100
0010
0001
0010
0100
1000
0100
0010
0001
,  // measure 40
0022
0033
0000
0000
2200
3300
0000
0000
2020
3030
0000
0000
0202
0303
0000
0000
,  // measure 41
0220
0330
0000
0000
2002
3003
0000
0000
2200
3300
0000
0000
0202
0303
0000
0000
,  // measure 42
1001
0100
0010
0000
1100
0010
0001
0000
,  // measure 43
1001
0010
0100
0000
0011
0100
1000
0000
,  // measure 44
0010
0000
1000
0100
0010
0000
0001
0100
0010
0000
1000
0001
1000
0000
0010
0100
,  // measure 45
0010
0000
0100
0001
0100
0000
0010
1000
0010
0000
0100
0010
1000
0000
0100
0010
,  // measure 46
0002
0000
0000
0000
1000
0000
0000
0003
0200
0000
0320
0000
2030
3000
0200
0300
,  // measure 47
0020
0000
0000
0000
1000
0000
0000
0030
0002
0000
0000
0000
0010
0000
0000
0003
,  // measure 48
0200
0000
0000
0300
0020
0000
0000
0000
2030
0000
0000
0000
3020
0000
0000
0230
,  // measure 49
0302
0000
0000
0000
1000
0000
0000
0003
0200
0000
0000
0000
0010
0000
0000
0000
,  // measure 50
0000
0000
0310
0000
4000
0000
3020
0230
,  // measure 51
0302
0023
0032
2003
,  // measure 52
3200
0000
0000
0000
0000
0300
0020
0032
0023
0000
0000
0000
0000
0030
0002
0003
,  // measure 53
0002
0000
0000
0000
0100
0000
0000
0000
0000
0000
0000
0000
0100
0000
0000
0003
,  // measure 54
2000
0000
0000
0000
0001
0000
0000
0000
3020
0000
0030
0200
0320
0030
0000
0200
,  // measure 55
0302
0000
0000
0000
0000
0000
0003
0000
0000
0000
0000
0000
0000
0000
0000
0000
0000
0000
0000
0000
0000
0000
0000
0000
2000
0000
0000
0000
0000
0000
0000
0000
0000
0000
0000
0000
0000
0000
0000
0000
0000
0000
0000
0000
0000
0000
0000
0000
0000
0000
0000
0000
0000
0000
3020
0000
0000
0000
0000
0000
0000
0000
0000
2000
0000
0000
0030
0000
0000
0000
0000
0000
3002
0000
0000
0000
0000
0000
0203
0000
0000
0000
0000
0000
0000
0000
0000
0320
0000
0000
0000
0000
0000
0000
2000
0000
,  // measure 56
0030
0000
0000
0000
0100
0000
3000
0000
0020
0000
0030
0001
2000
0000
3000
0001
,  // measure 57
0200
0310
2000
0100
,  // measure 58
0000
0000
3100
0000
0040
0032
0203
0320
,  // measure 59
2030
3200
0320
0230
,  // measure 60
2300
0000
0000
0000
0000
0000
0000
0000
3020
0000
0000
0000
0000
0000
0230
0300
,  // measure 61
0200
0000
0000
0000
0000
0000
0000
0000
0000
0000
0000
0300
0000
0000
0000
0000
,  // measure 62
0010
1000
0100
0010
0100
1000
0010
0100
0001
0100
0010
0100
0001
0010
0100
1000
,  // measure 63
0010
0100
0010
1000
0001
0010
0100
0010
0001
1000
0100
0010
0001
0100
0010
0100
,  // measure 64
0010
1000
0010
0100
0001
0100
0010
1000
0001
0100
0010
1000
0100
0010
0001
0100
,  // measure 65
0010
1000
0100
1000
0001
0100
0001
1000
0010
1000
0001
0010
0001
1000
0010
1000
,  // measure 66
0100
1000
0010
1000
0001
0100
0001
0010
0001
0100
0001
0010
0100
1000
0100
1000
,  // measure 67
0010
0100
0010
1000
0001
0100
0010
1000
0010
0100
0001
0010
0100
1000
0001
0000
,  // measure 68
0001
0200
0000
0000
0000
0000
0000
0000
,  // measure 69
0320
0000
2030
0000
0000
0000
0000
0000
0000
0000
0000
0000
0000
0000
0000
3000
,  // measure 70
0100
0000
0010
0001
0100
0000
0010
1000
0100
0000
1000
0010
1000
0000
0001
0100
,  // measure 71
0001
0000
1000
0001
1000
0000
0001
1000
0001
0000
0010
0100
0010
0000
0000
0000
,  // measure 72
0011
0101
1010
1100
0011
0101
1010
1100
,  // measure 73
2002
0000
0000
0000
,  // measure 74
0000
0000
0000
0000
,  // measure 75
3003
0000
0000
0000
;
