#VERSION:0.83;
#TITLE:Earendel;
#SUBTITLE:;
#ARTIST:Palami feat. neur6sia;
#TITLETRANSLIT:;
#SUBTITLETRANSLIT:;
#ARTISTTRANSLIT:;
#GENRE:;
#CREDIT:;
#MUSIC:Earendel.ogg;
#BANNER:bn.png;
#BACKGROUND:bg.png;
#CDTITLE:;
#SAMPLESTART:67.667;
#SAMPLELENGTH:10.667;
#SELECTABLE:YES;
#OFFSET:0.333;
#BPMS:0.000=180.000;
#STOPS:;
#JACKET:;
#DISCIMAGE:;
#CDIMAGE:;
#BGCHANGES:;
#FGCHANGES:;

//--------------- dance-single - XO ----------------
#NOTEDATA:;
#STEPSTYPE:dance-single;
#DESCRIPTION:XO;
#DIFFICULTY:Hard;
#METER:13;
#RADARVALUES:0,0,0,0,0;
#CHARTNAME:;
#CHARTSTYLE:;
#CREDIT:Talkion;
#METERF:13;
#NOTES:
0000
0000
0000
0000
,
0000
0000
0000
0000
,
0000
0000
0000
0000
,
0000
0000
0000
0000
,
0000
0000
0000
0000
,
0000
0000
0000
0000
,
0000
0000
0000
0000
,
0000
0000
0000
0000
,
0000
0000
0000
0000
,
1000
0100
0010
0100
,
1000
0000
0010
0000
0100
0000
0001
0010
,
0001
0100
0010
1000
,
0100
0010
0100
1000
,
2001
0000
0010
3002
0000
0010
2003
0000
,
3010
0100
0001
0100
0010
0010
1000
0000
,
2001
0000
0100
3002
0000
0103
0000
2100
,
0000
0000
0100
0000
0001
0000
3010
0100
,
0001
1000
0001
1000
0100
0010
0100
1000
,
0002
0100
1003
1001
,
0001
0010
0100
0000
0010
0000
0001
1000
,
0001
0010
0100
0000
0010
0001
0100
0010
,
1000
0010
0100
0000
0010
0000
1000
0001
,
1000
0010
0100
0000
1000
0100
0010
1000
,
0001
0011
1000
1010
,
0001
0000
0011
0000
0010
0001
0100
0010
,
1000
1010
0001
0011
,
0010
0100
0001
0100
0010
0001
0100
0000
,
0001
0100
0010
0000
1000
0100
1000
0001
,
0100
0010
1000
0001
0100
0001
0010
0100
,
1000
0100
0010
0000
0001
0100
0001
1000
,
0100
0010
0001
0100
0010
0001
0010
0100
,
0001
0100
0010
0000
1000
0100
1000
0001
,
0100
0010
1000
0001
0100
0001
0010
0100
,
2000
0000
3002
0100
0000
2003
0000
3100
,
0010
0100
1000
0001
1000
0010
0100
0001
,
0010
0200
0000
0000
0000
0000
0000
0000
,
0300
0000
0000
0000
,
1000
0001
0100
0010
,
1000
0010
0100
0001
,
1000
0000
0100
0010
0100
0000
1000
0000
,
0001
0000
0100
0010
1000
0000
0001
0000
,
0010
0010
0100
0100
,
1000
0010
0100
0000
0010
0000
1000
0000
,
2001
0000
0000
3000
,
0001
0000
0010
0000
0001
0000
0000
0200
0000
0000
0310
0000
1000
0000
0000
0000
,
2001
0000
0000
3000
,
0001
0000
0100
0000
0001
0000
0000
0020
0000
0000
0130
0000
1000
0000
0000
0000
,
1002
0000
0000
0000
0103
0010
0100
0000
,
1002
0000
0000
0000
0013
0100
0010
0001
,
1000
0010
1000
0010
0100
0001
0010
0100
,
1000
0000
0000
0000
0001
0000
0000
0001
0000
0000
0100
0000
0010
0000
0000
0000
,
1000
0000
0010
0000
0100
0000
0000
0102
0000
0000
1003
0000
1000
0000
0100
0000
,
1000
0000
0010
0000
0100
0000
0000
2000
0000
0000
3100
0000
0010
0000
1000
0000
,
0001
0000
0010
0000
0100
0000
0000
2100
0000
0000
3001
0000
0100
0000
0001
0000
,
0020
0000
0000
0130
0000
0000
1002
0000
0000
0000
0103
0000
0100
0000
0000
0000
,
0001
0000
0010
0000
0100
0000
0000
2100
0000
0000
3001
0000
0001
0000
0100
0000
,
0001
0000
0010
0000
0100
0000
0000
0002
0000
0000
0103
0000
0010
0000
0001
0000
,
2000
0000
0000
3010
0000
0000
1000
0000
0002
0000
0000
0013
0000
0000
0001
0000
,
0100
0000
0010
0000
0001
0000
0000
1000
0000
0000
0100
0000
0010
0000
1000
0000
,
0001
0000
0010
0000
0100
0000
0000
2100
0000
0000
3001
0000
0001
0000
0100
0000
,
0001
0000
0010
0000
0100
0000
0000
0002
0000
0000
0103
0000
0010
0000
0001
0000
,
1000
0000
0010
0000
0100
0000
0000
0102
0000
0000
1003
0000
0100
0000
0010
0000
,
2000
0000
0000
3001
0000
0000
0100
0000
0000
1000
0000
0000
0001
0000
0000
0000
,
1000
0000
0010
0000
0100
0000
0000
0102
0000
0000
1003
0000
1000
0000
0100
0000
,
1000
0000
0010
0000
0100
0000
0000
0102
0000
0000
1003
0000
1000
0000
0100
0000
,
0010
0000
0001
0000
0100
0000
0000
0120
0000
0000
1030
0000
1000
0000
0010
0000
,
0200
0000
0000
1000
0000
0000
0010
0000
0000
0302
0000
0000
0013
0000
0100
0000
,
2000
0000
0000
0000
0000
3000
1001
0000
,
0001
0100
0010
0100
0001
1000
0100
1000
,
0010
0100
0001
1000
0001
0010
0001
1000
,
0010
1000
0001
0010
0100
1000
0001
0000
,
1000
0010
0100
0001
1000
0100
1000
0001
,
0100
0001
0010
0100
0001
0100
0010
0001
,
1000
0010
0100
0010
1000
0001
0010
0001
,
1000
0010
0100
1000
0100
0010
1000
0000
,
0001
0100
0001
1000
0100
1000
0010
0100
,
0001
1000
0001
0010
0100
0001
1000
0010
,
0100
1000
0001
0100
0001
0010
0100
1000
,
0001
1000
0010
0100
0010
1000
0001
0000
,
1002
0000
0010
2003
0000
0010
3002
0000
,
0013
0100
1000
0100
0010
0010
0001
0000
,
1002
0000
0100
2003
0000
3100
0000
0102
,
0000
1003
0100
0010
0100
1000
0010
0200
,
0000
0302
0000
0000
0000
0000
0000
0000
,
0000
0000
0000
0000
0000
0000
0000
0003
;

//--------------- dance-single - DS XO ----------------
#NOTEDATA:;
#STEPSTYPE:dance-single;
#DESCRIPTION:DS XO;
#DIFFICULTY:Challenge;
#METER:17;
#RADARVALUES:0,0,0,0,0;
#CHARTNAME:;
#CHARTSTYLE:;
#CREDIT:Talkion;
#METERF:16;
#NOTES:
0000
0000
0000
0000
,
0000
0000
0000
0000
,
0000
0000
0000
0000
,
0000
0000
0000
0000
,
0000
0000
0000
0000
,
0000
0000
0000
0000
,
0000
0000
0000
0000
,
0000
0000
0000
0000
,
0000
0000
0000
0000
0000
0000
0000
1000
,
0100
0010
0000
0001
0100
0010
0100
0002
,
0000
0010
0000
2003
0000
0010
0000
3100
,
0010
0000
0001
0200
0000
0320
0000
2030
,
0000
3001
0010
0100
0010
0001
1000
0000
,
2010
0000
3100
0012
0000
0103
2010
0000
,
3100
0000
1000
0001
1000
0000
0010
0100
0001
0000
0001
0000
1000
0000
0000
0000
,
2100
0000
3010
0102
0000
0013
0100
2100
,
0000
0000
3001
0010
0001
0000
1000
0000
0010
0000
0100
0000
0010
0000
1000
0000
,
0100
0000
1000
0000
0001
0000
0100
0010
1000
0001
1000
0001
0010
0100
0010
0100
,
2000
0010
3001
1001
,
1000
0100
1000
0001
0100
0001
0010
0100
,
1000
0001
0100
0001
0010
0100
0001
0100
,
1000
0010
1000
0001
0010
0001
0100
0010
,
1000
0000
0001
0010
0001
0000
1000
0000
0010
0000
1000
0001
0010
0100
0010
0001
,
2000
0010
3001
0100
0002
0010
1003
0100
,
0020
0100
0031
1000
0010
0100
1000
0100
,
0002
0010
1003
0100
2000
0010
3001
0100
,
0010
0000
1000
0001
0010
0100
0010
0000
0001
1000
0010
0100
0001
0000
0000
0000
,
1000
0000
0100
0010
0100
0000
1000
0000
0001
0010
0001
0000
1000
0000
0010
0000
,
0100
0000
0001
1000
0001
0000
0010
0000
0100
0010
1000
0000
0010
0100
1000
0000
,
0001
0000
0100
0010
0100
0000
0001
0000
1000
0010
1000
0000
0001
0000
0010
0000
,
0100
0000
1000
0001
1000
0000
0010
0000
0100
0000
0001
1000
0100
0010
0100
1000
,
0001
0000
0100
0010
0100
0000
0001
0000
1000
0010
1000
0000
0001
0000
0010
0000
,
0100
0000
1000
0001
1000
0000
0010
0000
0100
0010
0001
0000
0010
0100
0001
0100
,
0010
1000
0001
0010
0100
0001
0100
1000
,
0001
0010
0001
0000
1000
0010
1000
0000
0001
0100
0001
0100
0010
1000
0010
1000
,
0001
0020
0000
0000
0000
0000
0000
0000
,
0030
0000
0000
0000
,
0001
1000
0010
0100
0001
1000
0100
0010
,
0001
0010
0100
1000
0001
0100
0010
1000
,
0001
0000
0002
0010
0000
2003
0000
3020
0000
0000
0130
0000
0001
1000
0001
0000
,
0010
0000
0020
0001
0000
0230
0000
2300
0000
0000
3001
0000
0100
0000
0010
0000
,
2000
0000
0000
3001
0000
0000
0010
0000
0002
0000
0000
1003
0000
0000
0010
0000
,
1000
0000
0100
0000
0010
0000
0000
0001
0000
0000
0100
0000
0010
0000
1000
0000
,
1002
0000
0000
0003
,
0010
0000
0020
0001
0000
0230
0000
0302
0000
0000
0103
0000
0010
0000
0001
0000
,
2001
0000
0000
3000
,
0010
0000
0020
1000
0000
0230
0000
2300
0000
0000
3100
0000
0010
0000
1000
0000
,
2001
0000
0000
0000
0000
0000
0000
0000
3100
0000
0200
1000
0000
0310
0000
0000
,
1002
0000
0000
0000
0000
0000
0000
0000
0103
0000
0200
0001
0000
0310
0100
0010
,
1000
0000
0001
0000
0010
0000
0001
1000
0010
0100
0001
0100
0010
1000
0100
0010
,
0001
0000
0000
0000
1000
0000
0010
0100
0000
0100
0001
0010
0100
0000
0000
0000
,
1000
0000
2000
0100
0000
3002
0000
0103
0010
0000
1000
0000
0001
0010
0100
0000
,
1000
0000
2000
0100
0000
3002
0000
0103
1000
0000
0100
0010
0100
0000
0001
0000
,
0010
0000
0020
0100
0000
0032
0000
0103
0010
0000
1000
0010
0100
0000
0001
0000
,
1002
0000
0000
0013
0000
0000
0120
0000
0000
0000
0031
0000
1000
0010
0100
0000
,
0001
0000
0002
0100
0000
2003
0000
3100
0010
0000
0001
0000
1000
0010
0100
0000
,
0001
0000
0002
0100
0000
2003
0000
3100
0001
0000
0100
0010
0100
0000
1000
0000
,
1020
0000
0000
0130
0000
0000
0001
0000
0021
0000
0000
0130
0000
0000
1000
0000
,
0010
0100
1000
0000
0001
0000
0010
0100
0001
0000
1000
0000
0100
0010
0100
1000
,
0001
0000
0002
0010
0000
2003
0000
3010
0100
0000
0001
0000
1000
0100
0010
0000
,
0001
0000
0002
0010
0000
2003
0000
3010
0001
0000
0010
0100
0010
0000
1000
0000
,
0100
0000
0200
0010
0000
2300
0000
3010
0100
0000
0001
0010
0100
0000
0001
0000
,
1000
0000
0010
0100
1000
0000
1001
0000
0000
1010
0000
0000
0011
0000
0001
0100
,
0010
0000
0020
0100
0000
2030
0000
3100
0010
0000
0001
0000
0010
0001
0100
0000
,
0010
0000
0020
0100
0000
2030
0000
3100
0010
0000
0001
0000
0010
0001
0100
0000
,
0010
0000
0020
0100
0000
2030
0000
3001
0010
0000
0001
0000
0010
0100
1000
0100
,
0020
0000
0000
1000
0000
0000
0100
0000
0000
0032
0000
0000
0103
0010
1000
0010
,
0200
0000
0000
1000
0000
0000
0010
0000
0000
0301
0000
0000
1001
0000
0000
0000
,
1000
0000
0100
0010
0001
1000
0001
0000
0100
0010
1000
0001
1000
0000
0100
0000
,
1000
0000
0001
0100
0010
0000
1000
0001
0000
0000
0010
0100
0000
0000
1000
0001
,
0000
0000
0100
0010
1000
0001
1000
0000
0100
0010
0001
1000
0001
0000
0100
0000
,
0010
0000
1000
0001
1000
0000
0100
0010
0000
0000
0001
1000
0000
0000
0010
0100
,
0000
0000
0001
1000
0001
0000
0010
0000
1000
0010
0100
1000
0001
0000
0100
0000
,
0010
0000
1000
0100
1000
0000
0010
0000
0100
0000
0001
0010
0001
0000
1000
0010
,
0000
0000
0100
0001
0000
0000
0010
0100
0000
0000
1000
0001
1000
0000
0010
0000
,
0100
0000
0001
1000
0100
0010
0100
0000
1000
0001
0100
0010
0100
0000
0001
1000
,
0000
0000
0100
0010
0000
0000
0001
1000
0000
0000
0010
0100
0010
0000
0001
0000
,
0010
0000
1000
0001
0010
0100
0010
0000
0001
1000
0010
0100
0010
0000
1000
0000
,
0001
0000
0010
0100
1000
0000
0001
0000
0100
0010
0100
0010
1000
0001
1000
0001
,
0010
0000
0000
0000
0010
0001
0100
0000
0000
0000
0100
0001
0020
0000
0000
0000
,
0130
0000
1000
0001
1000
0000
0010
0100
0001
0000
0001
0000
1000
0000
0000
0000
,
0100
0000
0000
0000
0100
1000
0010
0000
0000
0000
0010
1000
0100
0010
0002
0000
,
0000
0000
1003
0000
0010
0100
0010
1000
0100
0010
0100
1000
0010
0000
0200
0000
,
0000
0302
0000
0000
0000
0000
0000
0000
,
0000
0000
0000
0000
0000
0000
0000
0003
;
