#VERSION:0.83;
#TITLE:Dual Fractal;
#SUBTITLE:;
#ARTIST:M2U;
#TITLETRANSLIT:;
#SUBTITLETRANSLIT:;
#ARTISTTRANSLIT:;
#GENRE:Orchestral;
#CREDIT:;
#MUSIC:Dual Fractal.ogg;
#BANNER:Dual Fractal.png;
#BACKGROUND:Dual Fractal-bg.png;
#CDTITLE:cdtitle.png;
#SAMPLESTART:38.573;
#SAMPLELENGTH:12.000;
#SELECTABLE:YES;
#OFFSET:-1.073;
#BPMS:0.000=80.000
,32.000=160.000
;
#STOPS:;
#SPEEDS:0.000=1.000=0.000=0;
#SCROLLS:0.000=1.500,
24.000=1.000
;
#TICKCOUNTS:0.000=4;
#TIMESIGNATURES:0.000=4=4;
#LABELS:0.000=Song Start;
#COMBOS:0.000=1;
#DISPLAYBPM:80.000:160.000;
#ORIGIN:;
#PREVIEWVID:;
#JACKET:Dual Fractal-jacket.png;
#CDIMAGE:;
#DISCIMAGE:;
#BGCHANGES:;
#FGCHANGES:;

//--------------- dance-single - ----------------
#NOTEDATA:;
#STEPSTYPE:dance-single;
#DESCRIPTION:;
#DIFFICULTY:Beginner;
#METER:2;
#RADARVALUES:0.127344,0.181118,0.06483,0.218801,0,110,102,8,27,0,0,0,0,0,0.127344,0.181118,0.06483,0.218801,0,110,102,8,27,0,0,0,0,0;
#OFFSET:-1.073;
#BPMS:0.000=160.000;
#SPEEDS:0.000=1.000=0.000=0;
#SCROLLS:0.000=1.000;
#TICKCOUNTS:0.000=4;
#TIMESIGNATURES:0.000=4=4;
#LABELS:0.000=Song Start;
#COMBOS:0.000=1;
#DISPLAYBPM:80.000:160.000;
#CHARTNAME:;
#CHARTSTYLE:;
#CREDIT:;
#NOTES:
0000
0000
0000
0000
,
0000
0000
0000
0000
,
0000
0000
0000
0000
,
0000
0000
0000
0000
,
0001
0000
0000
0000
,
0010
0000
0000
0000
,
0100
0000
0000
0000
,
1000
0000
0000
0000
,
0002
0000
0003
0000
,
0200
0000
0300
0000
,
0020
0000
0030
0000
,
2000
0000
3000
0000
,
1001
0000
0000
0000
,
0000
0000
0000
0000
,
0000
0000
0000
0000
,
0000
0000
0000
0000
,
0002
0000
0003
0000
,
0010
0000
0100
0000
,
2000
0000
3000
0000
,
0010
0000
0100
0000
,
0001
0000
0001
0000
,
1000
0000
0001
0000
,
1000
0000
1000
0000
,
0001
0000
0020
0000
,
0000
0000
0030
0000
,
0002
0000
0003
0000
,
0010
0000
0001
0000
,
0200
0000
0300
0000
,
0100
0000
0001
0000
,
0010
0000
0010
0000
,
0100
0000
0100
0000
,
1000
0000
0001
0000
,
0000
2002
3003
0000
,
2000
0000
3000
0000
,
0010
0000
1000
0000
,
0200
0000
0300
0000
,
0100
0000
1000
0000
,
0010
0000
0010
0000
,
0100
0000
0100
0000
,
0001
0000
1000
0000
,
1001
0000
0000
0000
,
1001
0000
0000
0000
,
1000
0000
0000
0000
,
0001
0000
0000
0000
,
1000
0000
0001
0000
,
1000
0000
0001
0000
,
0100
0100
0000
0020
,
0000
0000
0030
0000
,
1000
1000
0000
0002
,
0000
0000
0003
0000
,
0010
0020
0030
0000
,
0100
0200
0300
0000
,
1000
2000
3000
0000
,
0001
0002
0003
0000
,
0100
0200
0300
0000
,
0010
0020
0030
0000
,
1000
2000
3000
0000
,
0001
0002
0003
0000
,
0010
0000
0000
0000
,
0000
0000
0000
0000
,
0000
1001
0000
0000
,
0002
0003
0000
0000
,
0200
0300
0000
0000
,
0010
0000
0100
0000
,
0001
0000
0001
0000
,
2000
3000
0000
0000
,
0200
0300
0000
0000
,
0010
0000
0100
0000
,
1000
0000
0001
0000
,
1001
0000
0000
0000
,
1001
0000
0000
0000
,
1000
0000
0010
0000
,
0100
0000
0001
0000
,
0010
0000
0100
0000
,
1000
0000
1001
0000
;

//--------------- dance-single - ----------------
#NOTEDATA:;
#STEPSTYPE:dance-single;
#DESCRIPTION:;
#DIFFICULTY:Easy;
#METER:7;
#RADARVALUES:0.316045,0.378647,0.388979,0.591572,0,273,225,48,73,0,0,0,0,0,0.316045,0.378647,0.388979,0.591572,0,273,225,48,73,0,0,0,0,0;
#OFFSET:-1.073;
#BPMS:0.000=80.000
,32.000=160.000
;
#SPEEDS:0.000=1.000=0.000=0;
#SCROLLS:0.000=1.500,
24.000=1.000
;
#TICKCOUNTS:0.000=4;
#TIMESIGNATURES:0.000=4=4;
#LABELS:0.000=Song Start;
#COMBOS:0.000=1;
#DISPLAYBPM:80.000:160.000;
#CHARTNAME:;
#CHARTSTYLE:;
#CREDIT:;
#NOTES:
0000
0000
0000
0000
,
0000
0000
0000
0000
,
0001
0010
0100
1000
,
0010
0100
0002
2003
,
3001
0011
1000
1100
,
1000
1010
0001
0101
,
2002
3003
1000
0100
,
0010
0001
2000
0000
,
3001
0100
0101
2000
,
3020
0230
0302
1003
,
1000
0100
1100
0002
,
0023
0230
2300
3001
,
1001
0000
0000
0001
0100
0000
0000
0001
,
0100
0000
0000
0001
0100
0000
1010
0000
,
1001
0000
0000
1000
0100
0000
0000
1000
,
0100
0000
0100
0000
0020
0002
0000
0000
,
0000
0000
0000
0033
,
2000
0000
3020
0000
,
0230
0320
2030
3200
,
0320
0000
0230
0000
,
2300
3002
0203
0320
,
1030
0000
0000
0001
0010
0000
0000
0100
,
1000
0001
1000
1001
,
2000
0010
3002
0100
,
1003
0001
1001
1001
,
0002
0000
0023
0000
,
0230
0320
0032
0203
,
0320
0000
0230
0000
,
0302
2003
3200
0320
,
0031
0000
0000
1000
0010
0000
0000
0100
,
0001
1000
0100
0010
,
0001
0000
1000
0001
1000
0000
0001
0000
,
1002
0103
0100
0100
,
1002
0013
0010
0010
,
1001
0000
0001
0000
,
1000
0000
0001
1000
,
1001
0000
0000
1000
0001
0000
0000
1000
,
0001
0000
0010
0000
0001
0200
0000
0000
,
0310
2010
0010
0001
,
0000
0100
0000
0000
3100
0000
1000
0000
,
0100
0012
0010
1000
,
0000
0100
0000
0000
0103
0000
0001
0000
,
0101
2002
0000
3003
,
1100
2002
0000
3003
,
1010
0202
0000
0303
,
0011
2200
0000
3300
,
1001
1002
0103
0010
,
1001
2001
3100
0010
,
0011
2100
3001
0100
,
1010
0000
0102
0000
1003
0000
0100
0010
,
0001
0000
0000
0000
,
0000
2000
3001
0100
,
0020
2000
0000
3030
,
1000
0010
1001
0000
,
1000
0100
1001
0000
,
1000
0010
0100
0001
,
1000
2001
3200
0320
,
0031
0010
1001
0000
,
0001
0100
1001
0000
,
0001
0010
0100
1000
,
0001
1001
0110
0110
,
2001
0010
0010
3010
,
2001
0100
0100
3100
,
2001
0000
3000
0001
0200
0000
0300
0001
,
0020
0000
0030
0001
0100
0000
1010
0000
,
1002
0000
0003
1000
0200
0000
0300
1000
,
0020
0000
1030
0001
0020
0000
0030
0000
;

//--------------- dance-single - ----------------
#NOTEDATA:;
#STEPSTYPE:dance-single;
#DESCRIPTION:;
#DIFFICULTY:Medium;
#METER:10;
#RADARVALUES:0.39824,0.432739,0.332253,0.615883,0.016207,344,303,41,76,0,0,0,0,0,0.39824,0.432739,0.332253,0.615883,0.016207,344,303,41,76,0,0,0,0,0;
#OFFSET:-1.073;
#BPMS:0.000=80.000
,32.000=160.000
;
#SPEEDS:0.000=1.000=0.000=0;
#SCROLLS:0.000=1.500,
24.000=1.000
;
#TICKCOUNTS:0.000=4;
#TIMESIGNATURES:0.000=4=4;
#LABELS:0.000=Song Start;
#COMBOS:0.000=1;
#DISPLAYBPM:80.000:160.000;
#CHARTNAME:;
#CHARTSTYLE:;
#CREDIT:;
#NOTES:
0000
0000
0000
0000
,
0000
0000
0000
0000
,
0001
0010
0100
1000
0010
0100
0010
1000
,
0100
0010
0001
1000
0020
0000
0230
0000
,
0302
0010
2003
0100
,
3002
0100
2003
0010
,
3001
0000
1000
0100
0010
0001
0010
0100
,
1000
0001
0100
0001
0020
0000
0000
0000
,
0031
2002
3003
0002
,
0203
0320
2030
3002
,
0013
0000
0100
0010
0002
0000
0103
0010
,
2000
0000
3001
1000
0200
0000
0300
0000
,
1001
0000
1000
0001
0100
0000
0001
1000
,
0100
0000
1000
0001
0100
0010
1000
0000
,
1001
0000
1000
0001
0010
0000
0001
1000
,
0010
0000
1000
0001
1000
0200
0000
0000
,
0000
0000
0000
0300
,
2000
0010
3002
0100
,
2003
3020
0032
0023
,
2030
0100
3002
0010
,
2003
0000
3200
0000
0302
0000
0103
0010
,
0100
0000
0010
0001
1000
0000
1000
0001
,
0100
0000
0100
0010
1000
0001
0010
0000
,
0011
1100
1010
0101
,
0000
1000
0001
1000
0001
0000
1001
0000
,
0002
0010
2003
0100
,
3002
0023
2030
3020
,
0032
0100
2003
0010
,
3002
0000
0203
0000
2300
0000
3100
0010
,
0100
0000
0010
1000
0001
0000
0001
1000
,
0100
0000
0100
0010
0001
1000
0010
0000
,
0100
0010
0100
0010
0100
0000
0010
0000
,
2001
0000
3010
1000
0100
1000
0100
0000
,
2001
0000
3100
1000
0010
1000
0010
0000
,
1000
0000
0001
0000
,
1000
0000
0000
0000
0001
1000
0100
0000
,
0110
1000
0110
0001
,
0110
0000
1000
0001
1000
0020
0000
0030
,
1010
0000
0001
1000
0200
0000
0010
0000
,
0000
0010
0000
1000
1300
0000
0100
0000
,
0011
0000
1000
0001
0200
0000
1000
0000
,
0000
1000
0000
0001
0301
0000
1000
0010
,
0100
0000
0202
0000
0303
0000
0001
0010
,
0100
0000
2200
0000
3300
0000
1000
0010
,
0001
0000
2020
0000
3030
0000
0001
0010
,
1000
0000
0022
0000
0033
0000
1000
0001
,
0100
0000
2010
0000
3001
0000
0001
1000
,
0100
0000
0012
0000
1003
0000
0001
0100
,
1000
0000
0102
0000
1003
0000
1000
0100
,
0001
0000
2100
0000
3001
0010
1000
0010
,
0001
0000
0000
0000
1000
0000
0000
0010
,
0000
0101
1000
0100
,
0110
0022
0000
0033
,
1002
0000
0000
0000
0103
0000
0000
0000
0001
0000
0000
0100
0000
0000
0001
0000
,
1002
0000
0000
0000
0013
0000
0000
0000
0001
0000
0000
0010
0000
0000
0001
0000
,
0200
1000
0320
0001
,
0130
1010
1001
0011
,
2001
0000
0000
0000
3100
0000
0000
0000
1000
0000
0000
0100
0000
0000
1000
0000
,
2001
0000
0000
0000
3010
0000
0000
0000
1000
0000
0000
0010
0000
0000
1000
0000
,
0200
0001
0320
1000
,
0130
0011
1010
1010
,
1002
0000
0013
0001
0100
0001
0100
0000
,
1002
0000
0103
0001
0010
0001
0010
0000
,
1002
0000
0000
0100
0203
0000
0000
0010
,
0320
0000
0130
0010
0100
0000
1010
0000
,
2001
0000
0000
0100
3200
0000
0000
0010
,
0320
0000
0130
0010
2000
0000
3000
0000
;

//--------------- dance-single - ----------------
#NOTEDATA:;
#STEPSTYPE:dance-single;
#DESCRIPTION:;
#DIFFICULTY:Hard;
#METER:14;
#RADARVALUES:0.586941,0.622062,0.559157,0.89141,0.307942,507,438,69,110,0,0,0,0,0,0.586941,0.622062,0.559157,0.89141,0.307942,507,438,69,110,0,0,0,0,0;
#OFFSET:-1.073;
#BPMS:0.000=80.000
,32.000=160.000
;
#SPEEDS:0.000=1.000=0.000=0;
#SCROLLS:0.000=1.500,
24.000=1.000
;
#TICKCOUNTS:0.000=4;
#TIMESIGNATURES:0.000=4=4;
#LABELS:0.000=Song Start;
#COMBOS:0.000=1;
#DISPLAYBPM:80.000:160.000;
#CHARTNAME:;
#CHARTSTYLE:;
#CREDIT:;
#NOTES:
0000
0000
0000
0000
,
0000
0000
0000
0000
,
0001
0000
0010
0000
0100
1000
0001
1000
0010
0000
0100
0001
1000
0001
0010
0100
,
1000
0001
0100
0010
2000
3000
0002
0003
,
0022
0000
0000
0000
0033
0000
0000
1000
0100
0000
0000
0000
0000
0000
0000
0000
2020
0000
0000
0000
3030
0000
0000
0001
0100
0000
0000
0000
0000
0000
0000
0000
,
2200
0000
0000
0000
3300
0000
0000
0001
0010
0000
0000
0000
0000
0000
0000
0000
0202
0000
0000
0000
0303
0000
0000
1000
0010
0000
0000
0000
0000
0000
0000
0000
,
2002
0000
3003
0000
0001
0010
0100
1000
0001
0000
1000
0100
0010
0000
0001
0000
,
1000
0000
0001
0100
0010
1000
0100
0010
0002
0000
0000
0000
0000
0000
0000
0000
,
1003
0010
0200
0000
1000
0000
0010
0000
,
0301
1000
0100
0010
0200
0000
0001
0000
,
0310
0000
0001
0100
0020
0000
1030
0100
,
0020
0000
0031
1000
0020
0000
0130
0000
,
1010
0000
0001
0010
0011
0000
1000
0010
,
1010
0000
0000
0000
0001
0000
0010
0000
0011
0000
2000
3000
0002
0003
0200
0300
,
0220
0330
0000
0000
1000
0000
0010
0000
2002
3003
0000
0000
0001
0000
0010
0000
,
2002
3003
0000
0000
1000
0000
0010
0000
0200
0000
0002
0000
0000
0000
0000
0000
,
0000
0000
0000
0303
,
0002
0000
0013
0100
0002
0000
0103
0010
,
0001
0000
0000
0001
0010
0000
0000
0001
1000
0000
0000
0001
0100
0000
0010
0000
,
0002
0000
0013
0100
0002
0000
0103
0001
,
0010
0000
0000
0100
1000
0000
0000
0001
0100
0000
0000
0000
0001
0000
0000
0000
,
0011
0000
1000
0010
1010
0000
0001
0010
,
1100
0000
0000
1000
0010
0000
0100
0000
0101
0000
0000
0001
1000
0001
1000
0000
,
0100
0010
0100
0001
0100
0010
0100
1000
,
0010
0000
0100
0001
0100
0000
0001
0000
0010
0000
0000
0000
0011
0000
0000
0000
,
2000
0000
3010
0100
2000
0000
3100
0010
,
1000
0000
0000
1000
0010
0000
0000
1000
0001
0000
0000
1000
0100
0000
0010
0000
,
2000
0000
3010
0100
2000
0000
3100
1000
,
0010
0000
0000
0100
0001
0000
0000
1000
0100
0000
0000
0000
1000
0000
0000
0000
,
1010
0000
0001
0010
0011
0000
1000
0010
,
0101
0000
0000
0001
0010
0000
0100
0000
1100
0000
0000
1000
0001
1000
0001
0000
,
0100
0000
0010
1000
0010
0000
1000
0000
0200
0300
0000
0000
0220
0330
0000
0000
,
2002
3003
0000
0000
1000
0000
0010
0000
0001
0000
1000
0000
0100
0000
0001
0000
,
2002
3003
0001
0000
0010
0000
1000
0000
0001
0000
0100
0000
1000
0000
0001
0000
,
2000
3000
0000
0000
0001
0000
0100
0000
0001
0000
0000
0000
1000
0000
0100
0000
,
1000
0000
0000
0000
0001
0000
0100
0000
0001
0000
2000
3000
0200
0300
2000
3000
,
2002
3003
0000
0001
0100
0000
0010
0000
1010
0000
0000
1000
0100
0000
0010
0000
,
0011
0000
0000
0000
1000
0001
1000
0000
0020
0000
0200
0000
0000
0000
0330
0000
,
2002
3003
0000
0000
0002
0000
0023
0000
0130
0000
1000
0000
0001
0000
1000
0010
,
0000
1000
0010
0000
0100
0000
0001
1000
0001
0000
0010
0000
0200
0300
2000
3000
,
2002
3003
0000
0000
2000
0000
3020
0000
0031
0000
0010
0000
1000
0000
0001
0010
,
0000
1000
0010
0000
0001
0000
1000
0001
1000
0000
0010
0000
0200
0300
0002
0003
,
0202
0303
0000
0000
1002
0000
0000
0000
1003
0100
1000
0000
0100
0000
0010
0000
,
0022
0033
0000
0000
2001
0000
0000
0000
3010
0100
0010
0000
0100
0000
1000
0000
,
2200
3300
0000
0000
0102
0000
0000
0000
0013
0100
0010
0000
0100
0000
0001
0000
,
0202
0303
0000
0000
2100
0000
0000
0000
3001
0000
0100
0010
1000
0000
0001
0000
,
2002
3003
0000
0000
0021
0000
0000
0000
0130
0000
1000
0001
1000
0000
0010
0000
,
2020
3030
0000
0000
2001
0000
0000
0000
3100
0000
0010
1000
0010
0000
0001
0000
,
0022
0033
0000
0000
1002
0000
0000
0000
0103
0000
0010
0001
0010
0000
1000
0000
,
2020
3030
0000
0000
1002
0000
0000
0000
0013
0000
0100
0000
1000
0001
1000
0001
,
1000
0000
0000
0000
0000
0000
0000
0000
0002
0003
0000
0000
0000
0000
0200
0300
,
0000
0000
0020
1030
0001
1000
0100
0010
,
0011
2002
0000
3003
,
2001
0000
0000
0000
0000
0000
0000
0000
0000
0000
0000
0000
3001
0000
0000
0000
0010
0000
0000
0000
0001
0000
0000
0000
0100
0000
0000
0000
0000
0000
0000
0000
0000
0101
0000
0000
0000
0000
0000
0000
0000
0000
0101
0000
0000
0000
0000
0000
,
2010
0000
0000
0000
0000
0000
0000
0000
0000
0000
0000
0000
3001
0000
0000
0000
0100
0000
0000
0000
0001
0000
0000
0000
0010
0000
0000
0000
0000
0000
0000
0000
0000
0011
0000
0000
0000
0000
0000
0000
0000
0000
0011
0000
0000
0000
0000
0000
,
1000
1010
0001
0101
,
1000
0000
0010
1000
0001
1000
0100
0000
0000
0011
0000
0000
,
1002
0000
0000
0000
0000
0000
0000
0000
0000
0000
0000
0000
1003
0000
0000
0000
0010
0000
0000
0000
1000
0000
0000
0000
0100
0000
0000
0000
0000
0000
0000
0000
0000
1100
0000
0000
0000
0000
0000
0000
0000
0000
1100
0000
0000
0000
0000
0000
,
0012
0000
0000
0000
0000
0000
0000
0000
0000
0000
0000
0000
1003
0000
0000
0000
0100
0000
0000
0000
1000
0000
0000
0000
0010
0000
0000
0000
0000
0000
0000
0000
0000
1010
0000
0000
0000
0000
0000
0000
0000
0000
1010
0000
0000
0000
0000
0000
,
0001
0011
1000
1010
,
0002
0000
0003
1000
0100
0010
0001
0100
0010
1000
0000
0000
,
2002
3003
0000
0000
0001
0000
0010
0000
1000
0000
0001
0000
0100
0000
1000
0000
,
2002
3003
1000
0000
0010
0000
0001
0000
1000
0000
0100
0000
0001
0000
1000
0000
,
0200
0000
0000
0000
1300
0001
1000
0000
0020
0000
0000
0000
1030
0001
1000
0000
,
0200
0000
0000
0000
0310
0001
1000
0000
1001
0000
0000
0000
1010
0000
0010
0000
,
0200
0000
0000
0000
0301
1000
0001
0000
0020
0000
0000
0000
0031
1000
0001
0000
,
0200
0000
0310
0000
0100
0010
0100
0000
2002
0000
0000
0000
3003
0000
0000
0000
;

//--------------- dance-single - ----------------
#NOTEDATA:;
#STEPSTYPE:dance-single;
#DESCRIPTION:;
#DIFFICULTY:Challenge;
#METER:17;
#RADARVALUES:0.828896,0.838432,0.510535,0.810373,0.980551,716,653,63,100,0,0,0,0,0,0.828896,0.838432,0.510535,0.810373,0.980551,716,653,63,100,0,0,0,0,0;
#OFFSET:-1.073;
#BPMS:0.000=80.000
,32.000=160.000
;
#SPEEDS:0.000=1.000=0.000=0;
#SCROLLS:0.000=1.500,
24.000=1.000
;
#TICKCOUNTS:0.000=4;
#TIMESIGNATURES:0.000=4=4;
#LABELS:0.000=Song Start;
#COMBOS:0.000=1;
#DISPLAYBPM:80.000:160.000;
#CHARTNAME:;
#CHARTSTYLE:;
#CREDIT:;
#NOTES:
0000
0000
0000
0000
,
0000
0000
0000
0000
,
0001
0000
0010
0000
0001
1000
0100
1000
0010
0000
1000
0001
0100
0001
0010
0100
,
1000
0001
0100
0010
2000
3000
0002
0003
,
0022
0000
0000
0000
0033
0000
0000
1000
0100
0000
0000
0000
0000
0000
0000
0000
2020
0000
0000
0000
3030
0000
0000
0001
0100
0000
0000
0000
0000
0000
0000
0000
,
2200
0000
0000
0000
3300
0000
0000
0001
0010
0000
0000
0000
0000
0000
0000
0000
0202
0000
0000
0000
0303
0000
0000
1000
0010
0000
0000
0000
0000
0000
0000
0000
,
2002
0000
3003
0000
0001
0100
0001
0010
0001
0000
1000
0010
1000
0000
0100
0000
,
1000
0000
0001
0100
0010
1000
0100
0010
0002
0000
0000
0000
0000
0000
0000
0000
,
1003
0000
1000
0010
0200
0000
0000
0000
1000
0000
0000
0000
0310
0000
0000
0000
,
0110
0000
0010
0100
0001
1000
0001
1000
0200
0000
0000
0000
0301
0000
0000
0000
,
0120
0000
0000
0000
0031
0010
0100
1000
0002
0000
0000
0000
1003
0010
0100
0001
,
2000
0000
0000
0000
3100
0010
0001
0100
0020
0000
0000
0000
0130
0000
0000
0000
,
0110
0000
0010
1000
0001
0000
0010
0000
0110
0000
0010
0001
1000
0000
0010
0000
,
0110
0000
0010
1000
0001
0000
0010
0000
0110
0000
2000
3000
0002
0003
0200
0300
,
0220
0330
0010
1000
0100
0000
0010
0000
0220
0330
0010
0001
0100
0000
0010
0000
,
0220
0330
0010
1000
0001
0010
0001
0010
0200
0300
0220
0000
0000
0000
0000
0000
,
0000
0000
0000
0330
,
0002
0000
0000
0000
0013
0001
0010
0001
0100
0000
0001
0100
0001
0100
0010
1000
,
0100
0000
0100
0010
0001
0000
0001
1000
0010
0000
0010
0100
0001
0100
0001
0010
,
0200
0000
0000
0310
0100
1000
0100
1000
0020
0000
0130
0010
1000
0010
1000
0100
,
0010
0000
0010
0001
1000
0000
1000
0001
0100
0000
0001
0100
0001
1000
0100
1000
,
0001
0000
1000
1010
1001
0000
0001
0011
,
1100
0000
0001
1000
0010
0000
0100
0000
0010
0000
0001
0010
0100
0010
0100
0010
,
1000
0000
0001
0010
0100
0000
0010
0100
1000
0000
0100
1000
0001
0100
0010
1000
,
0010
0000
1000
0100
1000
0100
1000
0100
0020
0000
0000
0000
0032
0000
0000
0000
,
2003
0000
0000
0000
3010
1000
0010
1000
0100
0000
1000
0100
1000
0100
0010
0001
,
0100
0000
0100
0010
1000
0000
1000
0001
0010
0000
0010
0100
1000
0100
1000
0010
,
0200
0000
0000
0310
0100
0001
0100
0001
0020
0000
0130
0010
0001
0010
0001
0100
,
0010
0000
0010
1000
0001
0000
0001
1000
0100
0000
1000
0100
1000
0001
0100
0001
,
1000
0000
0001
0011
1001
0000
1000
1010
,
0101
0000
0000
1000
0001
0010
0100
0010
1000
0000
0010
0100
0010
0000
0011
0000
,
1000
0000
0001
0100
0010
0000
1000
0000
2020
3030
0000
0000
0202
0303
0000
0000
,
2002
3003
0000
0000
0001
0010
0100
1000
0001
0010
0100
1000
0001
0010
0100
1000
,
0020
0030
1000
0010
0100
0001
1000
0001
0010
0100
1000
0001
1000
0010
0100
0001
,
0020
0030
0000
0000
0001
0000
0010
0000
0001
0000
0000
0000
1000
0000
0010
0000
,
1000
0000
0000
0000
0001
0000
0010
0000
0001
0000
2000
3000
0020
0030
0200
0300
,
0202
0303
0001
1000
0001
0000
0010
0000
1100
0000
1000
0001
1000
0000
0010
0100
,
0001
1000
0001
1000
0100
0010
0001
0100
0010
0000
0220
0000
0000
0000
0330
0000
,
2002
3003
0000
0000
0001
0010
0100
1000
0001
1000
0010
0000
1000
0100
1000
0100
,
0000
0010
0001
0000
1000
0010
1000
0010
0100
0001
1000
0100
0020
0030
0002
0003
,
2002
3003
0000
0000
1000
0010
0100
0001
1000
0100
0010
0000
0100
0001
0100
0010
,
0000
0100
1000
0000
0001
0100
0010
0100
1000
0100
0010
0100
0002
0003
2000
3000
,
0200
0300
0000
0000
0202
0303
0000
0000
1000
0100
1000
0100
0010
0001
1000
0001
,
0200
0300
0000
0000
2200
3300
0000
0000
0001
0100
0001
0100
0010
1000
0100
0010
,
0002
0003
0000
0000
2020
3030
0001
0000
1000
0100
1000
0100
0010
0001
0100
0010
,
2000
3000
0000
0000
0022
0033
1000
0000
0001
0000
1000
0010
0100
0001
0010
0100
,
2000
3000
0000
0000
0002
1003
0010
0100
0001
0000
1000
0100
0010
0000
0100
0000
,
0202
0303
0000
0000
0200
0310
0100
1000
0001
0000
1000
0001
0100
0010
0100
0000
,
2200
3300
0000
0000
0200
0310
0100
0001
1000
0000
0001
1000
0100
0010
0100
0000
,
0220
0330
0000
0000
0002
0013
0100
0010
1000
0000
0010
0001
1000
0001
0100
0010
,
1000
0000
0010
0000
1000
0000
0001
0000
0200
0300
0001
0000
1000
0000
0200
0300
,
1000
0001
0200
0310
0100
0010
1000
0001
,
0011
2200
0000
3300
,
1001
0000
0000
0000
0000
0000
0000
0000
1000
0000
0010
0000
1000
0000
0000
0000
0010
0000
0000
0000
0100
0000
0000
0000
0110
0000
0000
0000
0000
0000
0000
0000
0000
0110
0000
0000
0000
0000
0000
0000
0000
0000
1010
0000
0000
0000
0000
0000
,
1001
0000
0000
0000
0000
0000
0000
0000
1000
0000
0100
0000
1000
0000
0000
0000
0100
0000
0000
0000
0010
0000
0000
0000
0110
0000
0000
0000
0000
0000
0000
0000
0000
0110
0000
0000
0000
0000
0000
0000
0000
0000
1100
0000
0000
0000
0000
0000
,
0001
0100
0010
0110
0100
0001
1000
0001
0010
0011
0001
1000
,
0001
0000
0100
0000
0010
1000
0010
0000
1000
0000
0001
0000
0010
0000
0100
0000
1000
0000
0010
0000
0100
0000
0001
0000
,
1001
0000
0000
0000
0000
0000
0000
0000
0000
0000
0000
0000
0001
0000
0000
0000
0010
0000
0000
0000
0100
0000
0000
0000
0110
0000
0000
0000
0000
0000
0000
0000
0000
0110
0000
0000
0000
0000
0000
0000
0000
0000
0011
0000
0000
0000
0000
0000
,
1001
0000
0000
0000
0000
0000
0000
0000
0001
0000
0100
0000
0001
0000
0000
0000
0100
0000
0000
0000
0010
0000
0000
0000
0110
0000
0000
0000
0000
0000
0000
0000
0000
0110
0000
0000
0000
0000
0000
0000
0000
0000
0101
0000
0000
0000
0000
0000
,
1000
0100
0010
0110
0100
1000
0001
1000
0010
1010
1000
0001
,
0010
0000
0000
0000
0100
0010
0100
0000
1000
0000
0001
0000
1000
0000
0010
0000
0100
0000
0110
0000
0000
0000
0000
0000
,
2002
0000
3003
0000
1000
0010
0100
0001
1000
0010
0100
0001
1000
0010
0100
0001
,
0020
0000
0031
0010
0100
1000
0001
1000
0010
0100
0001
1000
0001
0010
0100
1000
,
0002
0000
0103
0010
0100
0010
0100
0000
0002
0000
0013
0100
0010
0100
0010
0000
,
0002
0000
0103
0010
1000
0100
0010
0000
0002
0000
1003
0010
0100
0001
0100
0010
,
2000
0000
3100
0010
0100
0010
0100
0000
2000
0000
3010
0100
0010
0100
0010
0000
,
1000
0010
0100
0001
0010
0100
0010
0100
0002
0000
0000
0000
0003
0000
0000
0000
;

//--------------- dance-double - ----------------
#NOTEDATA:;
#STEPSTYPE:dance-double;
#DESCRIPTION:;
#DIFFICULTY:Challenge;
#METER:17;
#RADARVALUES:0.802269,0.835292,0.372771,0.786062,0.968395,693,647,46,97,4,0,0,0,0,0.802269,0.835292,0.372771,0.786062,0.968395,693,647,46,97,4,0,0,0,0;
#DISPLAYBPM:80.000:160.000;
#CHARTNAME:;
#CHARTSTYLE:;
#CREDIT:;
#NOTES:
00000000
00000000
00000000
00000000
,
00000000
00000000
00000000
00000000
,
00010000
00000000
00001000
00000000
01000000
00001000
00010000
00001000
00100000
00000000
00001000
00010000
00000010
00010000
00000100
00010000
,
00001000
00000100
00000001
00001000
00000200
00000300
00000020
00000030
,
00000022
00000000
00000000
00000000
00000033
00000000
00000000
00001000
00000010
00000000
00000000
00000000
00000000
00000000
00000000
00000000
00002020
00000000
00000000
00000000
00003030
00000000
00000000
00010000
00001000
00000000
00000000
00000000
00000000
00000000
00000000
00000000
,
00022000
00000000
00000000
00000000
00033000
00000000
00000000
00100000
00010000
00000000
00000000
00000000
00000000
00000000
00000000
00000000
00220000
00000000
00000000
00000000
00330000
00000000
00000000
10000000
00010000
00000000
00000000
00000000
00000000
00000000
00000000
00000000
,
10010000
00000000
00000000
00000000
10000000
00100000
01000000
00100000
00010000
00000000
00100000
10000000
01000000
00000000
00010000
00000000
,
00001000
00000000
00000010
00000001
00000010
00000001
00000100
00001000
00020000
00000000
00000000
00000000
00000000
00000000
00000000
00000000
,
00031000
00000000
00001000
00100000
00020000
00000000
00000000
00000000
00100000
00000000
00000000
00000000
01030000
00000000
00000000
00000000
,
01100000
00000000
00100000
01000000
00010000
10000000
00010000
10000000
02000000
00000000
00000000
00000000
03100000
00000000
00000000
00000000
,
00210000
00000000
00000000
00000000
00301000
00100000
00001000
01000000
00002000
00000000
00000000
00000000
00013000
00000010
00010000
00000100
,
00020000
00000000
00000000
00000000
00030100
00001000
00000100
00000010
00000002
00000000
00000000
00000000
00001003
00000000
00000000
00000000
,
00001001
00000000
00000001
00000100
00000010
00000000
00001000
00000000
00001010
00000000
00001000
00000100
00000010
00000000
00000001
00000000
,
00000011
00000000
00000001
00000100
00000010
00000000
00001000
00000000
00001010
00000000
00000020
00000030
00020000
00030000
00002000
00003000
,
00200000
00300000
00010000
01000000
00100000
00000000
10000000
00000000
20200000
30300000
10000000
01000000
00100000
00000000
00010000
00000000
,
00220000
00330000
00010000
01000000
00100000
10000000
00100000
10000000
00010000
00000000
20020000
00000000
00000000
00000000
00000000
00000000
,
00000000
00000000
00000000
30030000
,
20000000
00000000
00000000
00000000
30100000
10000000
00100000
10000000
01000000
00000000
10000000
01000000
10000000
01000000
00100000
00001000
,
00010000
00000000
00010000
00001000
01000000
00000000
01000000
00001000
00010000
00000000
00010000
00001000
00100000
00010000
10000000
00010000
,
02000000
00000000
00000000
03100000
01000000
00010000
01000000
00010000
00200000
00000000
01300000
00100000
00010000
00100000
00010000
10000000
,
00100000
00000000
00100000
01000000
00010000
00000000
00010000
01000000
00001000
00000000
00010000
00001000
01000000
00010000
01000000
00100000
,
10000000
00000000
10000000
01000000
00010000
00000000
00001000
00000010
,
00000001
00000000
00000010
00000001
00000100
00000000
00001000
00000000
00010000
00000000
00100000
10000000
00100000
10000000
00100000
10000000
,
01000000
00000000
00100000
00010000
01000000
00000000
00010000
00100000
00001000
00000000
00010000
00000100
00001000
00000100
00000010
00000001
,
00001000
00000000
00000001
00000100
00000001
00000100
00000001
00000100
00000020
00000000
00000000
00000000
00002030
00000000
00000000
00000000
,
00003002
00000000
00000000
00000000
00000013
00000001
00000010
00000001
00000100
00000000
00000001
00000100
00000001
00000100
00000010
00010000
,
00001000
00000000
00001000
00010000
00000100
00000000
00000100
00010000
00001000
00000000
00001000
00010000
00000010
00001000
00000001
00001000
,
00000200
00000000
00000000
00000310
00000100
00001000
00000100
00001000
00000020
00000000
00000130
00000010
00001000
00000010
00001000
00000001
,
00000010
00000000
00000010
00000100
00001000
00000000
00001000
00000100
00010000
00000000
00001000
00010000
00000100
00001000
00000100
00000010
,
00000001
00000000
00000001
00000100
00001000
00000000
00010000
00100000
,
10000000
00000000
00000000
00100000
10000000
01000000
10000000
01000000
00010000
00000000
00001000
00010000
00001000
00000000
00000100
00000000
,
00000001
00000000
00001000
00000001
00001000
00000000
00000001
00000000
00000022
00000033
00000000
00000000
00002200
00003300
00000000
00000000
,
00002002
00003003
00000000
00000000
00000001
00000100
00000010
00001000
00000001
00000100
00000010
00001000
00000001
00000100
00000010
00001000
,
00000200
00000300
00000010
00000001
00001000
00000001
00000100
00000010
00001000
00000100
00010000
00001000
00100000
00010000
01000000
00100000
,
20000000
30000000
00000000
00000000
00010000
00000000
00100000
00000000
00010000
00000000
00000000
00000000
10000000
00000000
00100000
00000000
,
10000000
00000000
00000000
00000000
00010000
00000000
00100000
00000000
00010000
00000000
20000000
30000000
00200000
00300000
02000000
03000000
,
02020000
03030000
01000000
00001000
00010000
00000000
00001000
00000000
00011000
00000000
00010000
00000100
00001000
00000000
00000100
00000010
,
00000001
00001000
00000001
00001000
00000010
00000100
00000001
00000010
00000100
00000000
00000220
00000000
00000000
00000000
00000330
00000000
,
00002002
00003003
00000000
00000000
00000001
00000010
00000100
00001000
00000100
00010000
00000010
00000000
00010000
00000100
00010000
00000100
,
00000000
00010000
00000010
00000000
00010000
00001000
01000000
00010000
00100000
01000000
00100000
01000000
20000000
30000000
00200000
00300000
,
20020000
30030000
00000000
00000000
10000000
00100000
01000000
00010000
01000000
00001000
00100000
00000000
01000000
00010000
01000000
00010000
,
00000000
00001000
00010000
00000000
00001000
00000100
00001000
00000100
00000001
00001000
00000100
00000010
00000002
00000003
00002000
00003000
,
00000020
00000030
00000000
00000000
00000220
00000330
00000000
00000000
00000010
00000100
00000010
00000100
00001000
00010000
00000010
00010000
,
00002000
00003000
00000000
00000000
00022000
00033000
00000000
00000000
00001000
00010000
00001000
00010000
01000000
00100000
00010000
00100000
,
02000000
03000000
00000000
00000000
02200000
03300000
00000000
00000000
00100000
01000000
00100000
01000000
00010000
00001000
00100000
00001000
,
00020000
00030000
00000000
00000000
00022000
00033000
00000000
00000000
00001001
00000000
00001000
00000100
00000010
00000001
00000100
00000010
,
00002000
00003000
00000000
00000000
00022000
00033000
00001000
00100000
00010000
00000000
01000000
00010000
10000000
00010000
00100000
00000000
,
00220000
00330000
00000000
00000000
00022000
00033000
00010000
00000010
00001000
00000000
00000100
00001000
00000001
00001000
00000010
00000000
,
00002020
00003030
00000000
00000000
00202000
00303000
00001000
01000000
00010000
00000000
00100000
01000000
00010000
01000000
00100000
00000000
,
00220000
00330000
00000000
00000000
00020020
00030030
00010000
00000100
00001000
00000000
00000010
00000100
00001000
00000100
00000010
00000100
,
00000001
00000000
00000100
00000000
00000001
00000000
00001000
00000000
00000002
00000003
00000010
00000000
00000100
00000000
00002000
00003000
,
00000010
00000100
00002000
00013000
00001000
00000100
00000001
00000010
,
00001000
00022000
00000000
00033000
,
00011000
00000000
00000000
00000000
00000000
00000000
00000000
00000000
00001000
00000000
00010000
00000000
00001000
00000000
00000000
00000000
00010000
00000000
00000000
00000000
00100000
00000000
00000000
00000000
01000000
00000000
00000000
00000000
00000000
00000000
00000000
00000000
00000000
01100000
00000000
00000000
00000000
00000000
00000000
00000000
00000000
00000000
01100000
00000000
00000000
00000000
00000000
00000000
,
10100000
00000000
00000000
00000000
00000000
00000000
00000000
00000000
00010000
00000000
10000000
00000000
00010000
00000000
00000000
00000000
10000000
00000000
00000000
00000000
01000000
00000000
00000000
00000000
00010000
00000000
00000000
00000000
00000000
00000000
00000000
00000000
00000000
01100000
00000000
00000000
00000000
00000000
00000000
00000000
00000000
00000000
10010000
00000000
00000000
00000000
00000000
00000000
,
10000000
00100000
00010000
00001000
00010000
00100000
10000000
01000000
00010000
00001000
00010000
01000000
,
10000000
00100000
00010000
00001000
00010000
01000000
00100000
00010000
01000000
00100000
01000000
00001000
,
00011000
00000000
00000000
00000000
00000000
00000000
00000000
00000000
00010000
00000000
00001000
00000000
00010000
00000000
00000000
00000000
00001000
00000000
00000000
00000000
00000010
00000000
00000000
00000000
00000100
00000000
00000000
00000000
00000000
00000000
00000000
00000000
00000000
00000110
00000000
00000000
00000000
00000000
00000000
00000000
00000000
00000000
00000110
00000000
00000000
00000000
00000000
00000000
,
00000011
00000000
00000000
00000000
00000000
00000000
00000000
00000000
00001000
00000000
00000001
00000000
00001000
00000000
00000000
00000000
00000001
00000000
00000000
00000000
00000100
00000000
00000000
00000000
00001000
00000000
00000000
00000000
00000000
00000000
00000000
00000000
00000000
00000110
00000000
00000000
00000000
00000000
00000000
00000000
00000000
00000000
00001001
00000000
00000000
00000000
00000000
00000000
,
00000001
00000010
00001000
00010000
00001000
00000010
00000001
00000100
00001000
00010000
00001000
00000100
,
00000001
00000000
00000000
00000000
00000001
00001000
00000001
00000000
00000010
00000000
00001000
00000000
00010000
00000000
01000000
00000000
10000000
00000000
00010000
00000000
00000000
00000000
00000000
00000000
,
20020000
00000000
30030000
00000000
10000000
01000000
00100000
00010000
10000000
01000000
00100000
00010000
10000000
01000000
00100000
00010000
,
02000000
00000000
03100000
10000000
00010000
10000000
01000000
00100000
00010000
01000000
00001000
00010000
00000010
00001000
00000100
00000010
,
00000002
00000000
00000103
00000010
00000100
00000010
00000100
00000000
00000002
00000000
00000013
00000100
00001000
00000100
00000010
00000000
,
00000002
00000000
00000103
00000010
00001000
00000100
00010000
00000000
00022000
00000000
00033000
00000000
00100000
00010000
01000000
00100000
,
20000000
00000000
31000000
00100000
01000000
00100000
01000000
00000000
20000000
00000000
30100000
01000000
00010000
01000000
00100000
00000000
,
10000000
01000000
00100000
00010000
00001000
00000100
00000010
00000001
00001000
00000000
00000000
00000000
00000000
00000000
00000000
00000000
;
