#VERSION:0.83;
#TITLE:Deep Sea Cocoon;
#SUBTITLE:;
#ARTIST:Guilty Kiss;
#TITLETRANSLIT:;
#SUBTITLETRANSLIT:;
#ARTISTTRANSLIT:;
#GENRE:;
#ORIGIN:;
#CREDIT:;
#BANNER:Deep Sea Cocoon.png;
#BACKGROUND:Deep Sea Cocoon-bg.png;
#PREVIEWVID:;
#JACKET:Deep Sea Cocoon-jacket.png;
#CDIMAGE:;
#DISCIMAGE:;
#LYRICSPATH:;
#CDTITLE:;
#MUSIC:Deep Sea Cocoon.ogg;
#OFFSET:1.500000;
#SAMPLESTART:84.750000;
#SAMPLELENGTH:24.600000;
#SELECTABLE:YES;
#BPMS:0.000=80.000,
52.000=160.000;
#STOPS:;
#DELAYS:;
#WARPS:;
#TIMESIGNATURES:0.000=4=4;
#TICKCOUNTS:0.000=4;
#COMBOS:0.000=1;
#SPEEDS:0.000=1.000=0.000=0;
#SCROLLS:0.000=1.000;
#FAKES:;
#LABELS:0.000=Song Start;
#BGCHANGES:;
#KEYSOUNDS:;
#ATTACKS:
;

//---------------dance-single - ----------------
#NOTEDATA:;
#CHARTNAME:;
#STEPSTYPE:dance-single;
#DESCRIPTION:;
#CHARTSTYLE:;
#DIFFICULTY:Hard;
#METER:15;
#RADARVALUES:0.647823,0.819615,0.454898,0.405143,0.298527,638.000000,574.000000,64.000000,57.000000,0.000000,0.000000,0.000000,0.000000,0.000000,0.647823,0.819615,0.454898,0.405143,0.298527,638.000000,574.000000,64.000000,57.000000,0.000000,0.000000,0.000000,0.000000,0.000000;
#CREDIT:Kekkle;
#NOTES:
0000
0000
0000
0000
,
0000
0000
0000
0000
,
0000
0000
0000
0000
,
2000
3010
0100
0001
0100
0010
0100
0001
,
1000
0100
0010
0100
2000
3001
0100
0010
,
0210
0000
0000
0000
0310
1000
0002
0000
0010
0000
0000
0000
1003
0000
0001
0100
,
0010
0000
1000
0100
0010
0000
0001
0010
1000
0010
0001
1000
0000
0010
0000
0100
,
0020
0000
0000
0000
1030
0000
0001
1000
0200
0000
0000
0000
0310
0000
0001
0010
,
0100
0000
1000
0010
0100
0000
0001
0100
1000
0100
0001
0100
0000
1000
0000
1000
,
0200
0000
0000
0000
0310
0000
1000
0001
0020
0000
0000
0000
0130
0000
1000
0001
,
0100
0000
0010
1000
0000
0010
0000
0001
0000
0010
0000
0100
0000
0001
0000
1000
,
0200
0000
0000
0000
0310
0000
0001
1000
0020
0000
0000
0000
0130
0000
0001
1000
,
0100
0000
1000
0001
0000
0100
0000
1000
0000
0100
0000
0010
0000
0100
0000
0001
,
1000
0100
1000
0010
0100
0010
1000
1000
,
0001
0100
0010
0000
0100
0001
0000
0000
1000
0000
0100
0010
0000
0100
1000
0000
,
0001
0100
0001
0010
0100
0010
0001
0001
,
1000
0100
0010
0000
0100
1000
0000
0000
0001
0000
0100
0010
0000
0100
0001
0000
,
2000
0000
3100
0010
0100
1000
0001
0001
,
1000
0010
0100
0000
0010
1000
0000
0000
0001
0000
0010
0100
0000
0010
0001
0000
,
0020
0000
0031
1000
0010
0100
0001
0001
,
1000
0010
0100
0000
0010
1000
0000
0000
0001
0000
0010
0000
0100
0010
0100
0000
,
2000
0000
3001
0100
0001
0010
0100
0100
,
1000
0001
0010
0000
0001
0100
0000
0000
0010
0000
1000
0010
0100
0010
1000
0000
,
0001
0010
0100
1000
0001
0100
0010
0010
,
1000
0001
0010
0000
0001
0100
0000
0000
0010
0000
1000
0010
0100
0010
1000
0000
,
0020
0000
0130
0001
0010
0100
1000
1000
,
0001
1000
0100
0000
1000
0010
0000
0000
0100
0000
0010
0100
0001
0100
0010
0000
,
0200
0000
0310
1000
0100
0010
0001
0002
,
0000
0000
2003
0000
0000
0000
3010
0000
0100
0000
0100
0001
1000
0000
0001
0000
,
0021
0000
0100
0000
0031
1000
0010
0100
,
2000
3200
0302
2003
,
3100
0020
0000
1000
0000
0000
0001
0000
,
0000
0100
0000
0000
0031
1000
0010
0100
,
2000
0000
0100
0000
3001
0010
0100
0001
,
2000
0000
3001
0010
0100
0010
1000
0010
,
0002
1000
0100
0103
,
2010
3001
0012
1003
,
2001
0000
0100
0000
3100
0010
0001
1000
,
0010
0100
1000
0100
0002
0000
2003
0000
,
3200
0000
0320
0000
0001
0000
0031
1000
,
0010
0000
0100
0000
0001
1000
0100
0010
,
2000
0000
0010
0000
3001
0100
0010
0001
,
2000
0000
3001
0000
1000
0010
0100
0001
,
1000
0100
1000
0000
0001
0100
0001
0000
1000
0010
1000
0000
0001
0010
0001
0000
,
0010
0100
1000
0100
0010
0001
1000
0000
1001
0000
0001
0000
0000
0000
0000
0000
,
1200
0000
0310
0001
0100
0001
0011
1000
,
0010
0001
0010
0100
0110
0000
0001
0001
,
0100
1000
0100
0001
0010
1000
0010
0200
,
0000
0320
0000
0031
1001
1000
0010
0100
,
0201
0000
0310
1000
0100
1000
1010
0001
,
0010
1000
0010
0100
0110
0000
0011
0201
,
0000
0310
1010
1200
0000
0310
0011
0201
,
0000
0310
0010
1000
0001
0001
1000
1000
,
1200
0010
0010
0310
0001
0100
0201
0001
,
0010
0010
0001
0001
0310
1000
0001
0010
,
0021
0100
0100
0130
1000
0010
1020
1000
,
0100
0100
1000
1000
0130
0001
1000
0100
,
0120
0001
0001
0031
1000
0010
0120
0100
,
1000
1000
0100
0100
1030
0001
0010
0100
,
1100
1001
1001
1001
1000
0010
0101
1001
,
1001
0000
1001
0000
0001
0000
0001
1000
0100
0000
0110
0000
0110
0000
0110
0000
,
2001
0000
3001
0100
0001
0010
0210
0000
,
0000
0301
0100
1000
1100
0001
0000
0001
,
1002
0000
1003
0100
1000
0010
0210
0000
,
0000
1300
0100
0001
0101
1000
0000
1000
,
2001
0000
3001
0010
0001
0100
0120
0000
,
0000
0031
0010
1000
1010
0001
0000
0001
,
2001
0100
0100
0100
3100
0000
1000
2000
,
0010
0000
3020
0000
0100
0000
0130
0001
1000
0000
1000
0000
0001
0000
0001
0000
,
0011
1000
0010
1000
1010
0001
0100
0001
,
0101
1000
0100
1000
1100
0001
0010
0001
,
1001
1000
0010
0100
1001
0001
0010
0100
,
1001
1000
0100
0010
1001
0001
0100
0010
,
1000
0010
0100
0000
0010
0100
0001
0000
0100
0001
1000
0000
0001
1000
0100
0000
,
0010
0001
0010
0100
0010
0001
1000
0001
0100
0000
0010
0100
0001
0100
0010
0000
,
1010
0000
0110
0000
0110
0000
0110
0000
1000
0000
1000
0001
0010
0000
0110
0000
,
0110
0000
0110
0000
0001
1000
0010
0100
0001
0000
1001
0000
1001
0000
1001
0000
;

//---------------dance-double - ----------------
#NOTEDATA:;
#CHARTNAME:;
#STEPSTYPE:dance-double;
#DESCRIPTION:;
#CHARTSTYLE:;
#DIFFICULTY:Hard;
#METER:16;
#RADARVALUES:0.632592,0.819615,0.348281,0.376712,0.298527,623.000000,574.000000,49.000000,53.000000,0.000000,0.000000,0.000000,0.000000,0.000000,0.632592,0.819615,0.348281,0.376712,0.298527,623.000000,574.000000,49.000000,53.000000,0.000000,0.000000,0.000000,0.000000,0.000000;
#CREDIT:Kekkle;
#NOTES:
00000000
00000000
00000000
00000000
,
00000000
00000000
00000000
00000000
,
00000000
00000000
00000000
00000000
,
20000000
30010000
00100000
00001000
00010000
00001000
00100000
00001000
,
00010000
00000010
00001000
00000010
00000200
00000301
00001000
00000100
,
00000120
00000000
00000000
00000000
00000031
00001000
00000002
00000000
00000100
00000000
00000000
00000000
00001003
00000000
00000001
00000100
,
00000010
00000000
00000100
00000010
00001000
00000000
00000010
00001000
00010000
01000000
00100000
10000000
00000000
00010000
00000000
00100000
,
02000000
00000000
00000000
00000000
13000000
00000000
10000000
00010000
20000000
00000000
00000000
00000000
30010000
00000000
10000000
01000000
,
00100000
00000000
01000000
00100000
00010000
00000000
00100000
00010000
00001000
00000100
00000010
00000001
00000000
00001000
00000000
00000010
,
00000200
00000000
00000000
00000000
00000301
00000000
00000100
00001000
00020000
00000000
00000000
00000000
00030100
00000000
00010000
00001000
,
00100000
00000000
00010000
10000000
00000000
00100000
00000000
00010000
00000000
00100000
00000000
01000000
00000000
00010000
00000000
10000000
,
02000000
00000000
00000000
00000000
03100000
00000000
01000000
00010000
00002000
00000000
00000000
00000000
01003000
00000000
00001000
00010000
,
00000100
00000000
00001000
00000001
00000000
00000100
00000000
00001000
00000000
00000100
00000000
00000010
00000000
00001000
00000000
00000001
,
00000010
00000100
00001000
00000010
00001000
00000100
00000010
00000010
,
00000001
00001000
00000001
00000000
00000100
00000010
00000000
00000000
00000100
00000000
00001000
00010000
00000000
00001000
00010000
00000000
,
00100000
01000000
00010000
00100000
00010000
01000000
00100000
00100000
,
10000000
00010000
10000000
00000000
01000000
00100000
00000000
00000000
00001000
00000000
00010000
00001000
00000000
00010000
00001000
00000000
,
00000200
00000000
00000301
00001000
00000100
00000010
00000001
00000001
,
00001000
00000010
00000100
00000000
00000010
00001000
00000000
00000000
00000010
00000000
00000100
00000010
00000000
00010000
00000010
00000000
,
00020000
00000000
00031000
00100000
01000000
10000000
00010000
00010000
,
10000000
00100000
01000000
00000000
00100000
10000000
00000000
00000000
00010000
00000000
00100000
00000000
00001000
00010000
00001000
00000000
,
00020000
00000000
00031000
00000010
00000001
00001000
00000010
00000010
,
00001000
00000001
00000100
00000000
00000001
00000010
00000000
00000000
00000100
00000000
00010000
00000100
00001000
00000100
00010000
00000000
,
00002000
00000000
00013000
00100000
10000000
00010000
00100000
00100000
,
00010000
10000000
01000000
00000000
10000000
00100000
00000000
00000000
01000000
00000000
00001000
01000000
00010000
01000000
00001000
00000000
,
00020000
00000000
00031000
00000100
00000001
00001000
00000100
00000100
,
00001000
00000001
00000010
00000000
00000001
00000100
00000000
00000000
00000010
00000000
00010000
00000010
00001000
00000010
00010000
00000000
,
00002000
00000000
00013000
01000000
10000000
00010000
01000000
02000000
,
00000000
00000000
03200000
00000000
00000000
00000000
00310000
00000000
00001000
00000000
00010000
00001000
00010000
00000000
00001000
00000000
,
00012000
00000000
00003020
00000000
00000031
00001000
00000010
00000100
,
00002000
00023000
00230000
20300000
,
31000000
00200000
00000000
10000000
00000000
00000000
00001000
00000000
,
00000000
10000000
00000000
00000000
00310000
10000000
00100000
00010000
,
00002000
00000000
00103000
00000000
00001000
00010000
00100000
10000000
,
00020000
00000000
00130000
00001000
00010000
00001000
00000100
00000001
,
00000020
00000230
00001000
00001300
,
00020100
00031000
01002000
00013000
,
00012000
00000000
01000000
00000000
01003000
00001000
01000000
00010000
,
10000000
01000000
00010000
01000000
00200000
00000000
00320000
00000000
,
10030000
00100000
00020000
00000000
00001000
00000000
00031000
00000010
,
00000100
00000000
00001000
00000000
00000001
00000100
00001000
00010000
,
00000200
00000000
00000310
00000000
00000100
00010000
00001000
00000100
,
00000002
00000000
00000103
00000000
00000001
00000100
00000010
00010000
,
00001000
00010000
00001000
00000000
00100000
00001000
00100000
00000000
00010000
00100000
00010000
00000000
10000000
00010000
10000000
00000000
,
00010000
01000000
00100000
01000000
00010000
01000000
00001000
00000000
00011000
00000000
00010000
00000000
00000000
00000000
00000000
00000000
,
00021000
00000000
00031000
00000010
00000001
00001000
00001001
00000001
,
00000100
00001000
00010000
00100000
10000000
00000000
00010000
00010000
,
00100000
10000000
00100000
00001000
00000010
00000001
00001000
00000020
,
00000000
00000230
00000000
00000301
00001001
00001000
00000010
00010000
,
00012000
00000000
00013000
00100000
10000000
00010000
10010000
10000000
,
01000000
00010000
00001000
00000010
00000001
00000000
00001001
00001020
,
00000000
00010030
00011000
00201000
00000000
00310000
10010000
10200000
,
00000000
01300000
01000000
00010000
10000000
10000000
00010000
00010000
,
00100000
01000000
00010000
01000000
00001000
00010000
00000010
00000001
,
00001000
00000010
00000001
00000010
00001000
00000001
00000100
00000100
,
00000010
00000100
00001000
00000100
00010000
00001000
00100000
10000000
,
00010000
00100000
10000000
00100000
00010000
10000000
00100000
00100000
,
01000000
00100000
00010000
00100000
00001000
00010000
00000100
00000001
,
00001000
00000100
00000001
00000100
00001000
00000001
00000100
00000100
,
00000110
00000010
00010000
00011000
00001000
00100000
01100000
00100000
,
00001000
00000000
00011000
00000000
00001000
00000000
00001000
01000000
00100000
00000000
01100000
00000000
01100000
00000000
01100000
00000000
,
20010000
00000000
31000000
00010000
00001000
01000000
01200000
00000000
,
00000000
00310000
00001000
00000100
00000001
00001000
00000000
00001000
,
00001002
00000000
00000103
00001000
00010000
00000100
00000120
00000000
,
00000000
00001030
00010000
01000000
10000000
00010000
00000000
00010000
,
20010000
00000000
30100000
00010000
00001000
00100000
02100000
00000000
,
00000000
03010000
00001000
00000010
00000001
00001000
00000000
00001000
,
00001002
00000010
00000010
00000010
00000013
00000000
00000001
00000002
,
00000100
00000000
00000203
00000000
00001000
00000000
00001300
00010000
00001000
00000000
01000000
00000000
00100000
00000000
10000000
00000000
,
10010000
10000000
01000000
00010000
00011000
00001000
00000010
00000001
,
00001001
00000001
00000100
00001000
00011000
00010000
00100000
10000000
,
10010000
10000000
01000000
00010000
00011000
00001000
00000100
00000001
,
00001001
00000001
00000010
00001000
00011000
00010000
00100000
10000000
,
00010000
10000000
01000000
00000000
10000000
01000000
00100000
00000000
01000000
00100000
00010000
00000000
00100000
00001000
00010000
00000000
,
00001000
00010000
00000010
00000100
00000010
00001000
00000001
00000010
00000100
00000000
00001000
00000100
00010000
00001000
00010000
00000000
,
00011000
00000000
01001000
00000000
01100000
00000000
10010000
00000000
00010000
00000000
00100000
00001000
00010000
00000000
00010100
00000000
,
00000110
00000000
00001001
00000000
00000001
00000100
00000010
00010000
00001000
00000000
00011000
00000000
00011000
00000000
00011000
00000000
;

//---------------dance-single - ----------------
#NOTEDATA:;
#CHARTNAME:;
#STEPSTYPE:dance-single;
#DESCRIPTION:;
#CHARTSTYLE:;
#DIFFICULTY:Medium;
#METER:13;
#RADARVALUES:0.462005,0.519090,0.199018,0.582838,0.074632,455.000000,427.000000,28.000000,82.000000,0.000000,0.000000,0.000000,0.000000,0.000000,0.462005,0.519090,0.199018,0.582838,0.074632,455.000000,427.000000,28.000000,82.000000,0.000000,0.000000,0.000000,0.000000,0.000000;
#CREDIT:Kekkle;
#NOTES:
0000
0000
0000
0000
,
0000
0000
0000
0000
,
0000
0000
0000
0000
,
1000
0100
1000
0100
1000
0100
1000
0100
,
0010
0001
0010
0001
1000
0010
1000
0010
,
0110
0000
0000
0000
0001
1000
0002
0000
0000
0000
0000
0000
1003
0000
0001
0000
,
0100
0000
0010
0000
1000
0000
0001
0000
0010
0100
0010
0000
0100
0000
1000
0000
,
1002
0000
0000
0000
1003
0000
0010
0100
0020
0000
0000
0000
0130
0000
0001
0000
,
1000
0000
0100
0000
0010
0000
0001
0000
1000
0001
1000
0000
0001
0000
0100
0000
,
0120
0000
0000
0000
1030
0000
0001
1000
0002
0000
0000
0000
1003
0000
0001
0000
,
0010
0000
0100
0010
0000
0001
0000
1000
0000
0001
0000
0100
0000
0010
0000
0000
,
0210
0000
0000
0000
0301
0000
1000
0001
2000
0000
0000
0000
3001
0000
1000
0000
,
0100
0000
0010
0100
0000
1000
0000
0001
0000
0100
0000
0010
0000
1000
0000
0010
,
0200
0000
0301
0000
0100
0010
1000
0000
,
0001
0000
1000
0000
0000
1000
0000
0000
0100
0000
1000
0000
0001
0000
0100
0000
,
0020
0000
1030
0000
0010
0100
0001
0000
,
1000
0000
0001
0000
0000
0001
0000
0000
0010
0000
0100
0000
1000
0000
0001
0000
,
0200
0000
0310
1000
0001
0010
0100
1000
,
0020
0000
1030
0000
0010
1000
0100
0010
,
0002
0000
0103
0000
0001
0020
0000
0230
,
0000
2300
0000
3002
0000
0103
0010
1000
,
0020
0000
0130
0001
1000
0100
0000
0020
,
0000
0032
0000
0203
0000
0320
0000
1030
,
0001
0010
0200
0000
1300
0000
0001
2000
,
0000
0000
0000
0000
3010
0100
0001
0100
,
0010
0000
1000
0000
0001
0100
0010
1000
,
0200
0000
1300
0000
0100
1000
0010
0100
,
0002
0000
0103
0000
0001
0020
0000
0230
,
0000
2300
0000
3001
0100
0010
1000
0001
,
1001
0000
2000
0000
0000
3100
0010
0001
,
0200
0302
0023
0230
,
1300
0002
0000
0100
0000
0000
1000
0000
,
0000
0010
0000
0000
1003
0001
0010
0100
,
2000
0000
3010
0000
1000
0100
0010
0001
,
0200
0000
0301
1000
0010
0100
0001
0100
,
0020
2030
0000
3001
,
2002
3003
0220
0330
,
1002
0000
0000
0000
0013
0100
0010
0001
,
1000
0010
0100
0010
2000
0000
3200
0000
,
0320
0000
0032
0000
0000
0000
1003
0020
,
0000
0000
0130
0000
0001
0100
0010
1000
,
0200
0000
1300
0000
0100
1000
0010
0100
,
0002
0000
0103
0000
0001
0010
0100
1000
,
0020
0230
0000
0000
,
0301
1000
0100
0010
0110
0000
0000
0000
,
2001
0000
3001
0100
0000
0010
1000
0200
,
0000
0320
0000
0031
0101
0000
0100
0020
,
0000
0032
0000
0023
0000
2030
0000
3002
,
0000
0023
0000
0130
1000
0100
0010
0001
,
1001
0000
1000
0010
0000
0100
0001
0020
,
0000
0230
0000
1300
1010
0000
0010
0200
,
0000
0310
1000
0200
0000
0310
0001
0200
,
0000
0310
1000
0001
0010
0100
0010
0000
,
2001
0000
3100
0010
0100
0010
0210
0000
,
0000
1300
0001
0010
0100
1000
0010
0000
,
1002
0000
0103
0010
0100
0010
0210
0000
,
0000
0301
1000
0100
0010
0001
0100
0000
,
2001
0000
3010
0100
0010
0100
0120
0000
,
0000
1030
0001
0010
0100
1000
0010
0000
,
1000
0001
0010
0200
0000
0310
0001
0100
,
0010
2000
0000
3001
0010
0100
1000
1000
,
1002
0000
0000
0103
0010
0000
2010
0000
,
0000
0010
0000
0000
3001
1000
0000
0000
,
2001
0000
0000
3100
0010
0000
0012
0000
,
0000
0010
0000
0000
1003
0001
0000
0000
,
1002
0000
0000
0013
0100
0000
2100
0000
,
0000
0100
0000
0000
3001
1000
0000
0000
,
0001
0100
0010
1000
0010
0000
0100
0002
,
0000
2003
0000
3100
0010
0001
1000
0010
,
0100
0001
0010
0001
0100
0010
1000
0000
,
0010
1000
0100
1000
0010
0100
0001
0000
,
1000
0100
0010
0001
0100
0001
0010
0000
,
0001
0010
0100
1000
0010
1000
0100
0000
,
0010
0001
0010
0100
1000
0010
0100
0001
,
0100
0010
1000
0100
0010
0001
1000
0010
,
0100
0001
0100
0101
0000
0000
1000
0100
,
1000
1100
0000
0000
0100
0010
0100
0110
;

//---------------dance-double - ----------------
#NOTEDATA:;
#CHARTNAME:;
#STEPSTYPE:dance-double;
#DESCRIPTION:;
#CHARTSTYLE:;
#DIFFICULTY:Medium;
#METER:13;
#RADARVALUES:0.450836,0.491769,0.220341,0.561514,0.063970,444.000000,413.000000,31.000000,79.000000,0.000000,0.000000,0.000000,0.000000,0.000000,0.450836,0.491769,0.220341,0.561514,0.063970,444.000000,413.000000,31.000000,79.000000,0.000000,0.000000,0.000000,0.000000,0.000000;
#CREDIT:Kekkle;
#NOTES:
00000000
00000000
00000000
00000000
,
00000000
00000000
00000000
00000000
,
00000000
00000000
00000000
00000000
,
10000000
00100000
10000000
00100000
10000000
00100000
10000000
00100000
,
01000000
00010000
01000000
00010000
01000000
00001000
01000000
00001000
,
00011000
00000000
00000000
00000000
00010000
00000100
00020000
00000000
00000000
00000000
00000000
00000000
00000000
00000000
00030100
00000000
,
00000010
00000000
00000001
00000000
00001000
00000000
00000010
00000000
00000100
00000010
00000100
00000000
00000010
00000000
00010000
00000000
,
00012000
00000000
00000000
00000000
01003000
00000000
00010000
10000000
00020000
00000000
00000000
00000000
00000000
00000000
10030000
00000000
,
01000000
00000000
00100000
00000000
00010000
00000000
10000000
00000000
00100000
01000000
00100000
00000000
01000000
00000000
00001000
00000000
,
00012000
00000000
00103000
00001000
00020000
00000000
00031000
00010000
,
00000100
00000000
00001000
00000001
00000000
00000100
00000000
00000010
00000000
00001000
00000000
00000010
00000000
00010000
00000000
00000000
,
00012000
00000000
01003000
00001000
00020000
00000000
00031000
01000000
,
00100000
00000000
10000000
00010000
00000000
00100000
00000000
01000000
00000000
00100000
00000000
00010000
00000000
10000000
00000000
00000000
,
00020000
00000000
10030000
00000000
00010000
00100000
01000000
00000000
,
00100000
00000000
00001000
00000000
00000000
00001000
00000000
00000000
00010000
00000000
00000100
00000000
00001000
00000000
00000000
00000000
,
00000002
00000000
00001003
00000000
00000001
00000100
00000010
00000000
,
00010000
00000000
00000010
00000000
00000000
00000010
00000000
00000000
00010000
00000000
00001000
00000000
01000000
00000000
00000000
00000000
,
00002000
00000000
01003000
00000000
00010000
10000000
01000000
00000000
,
00200000
00000000
00301000
00000000
00010000
00000010
00000100
00000000
,
00000002
00000000
00001003
00000000
00000001
00000020
00000000
00002030
,
00000000
00023000
00000000
00030020
00000000
00010030
00001000
00010000
,
00011000
00000000
00001000
01000000
00010000
10000000
00000000
00020000
,
00000000
00230000
00000000
02300000
00000000
23000000
00000000
30010000
,
00000000
01000000
00002000
00000000
00013000
00000100
00001000
00000200
,
00000000
00000000
00000310
00000000
00000001
00001000
00000010
00010000
,
00001000
00000000
00010000
00000000
00001000
01000000
00010000
00000000
,
20000000
00000000
31000000
00000000
00100000
00001000
00010000
00000000
,
00002000
00000000
00013000
00000000
00000100
00000020
00000000
00000032
,
00000000
00002003
00000000
00003010
00000100
00000010
00010000
00000000
,
00011000
00000000
00002000
00000000
00000000
01003000
00100000
10000000
,
00020000
00230000
02300000
03020000
,
00031000
00200000
00000000
00010000
00000000
00000000
00001000
00000000
,
00000000
00010000
00000000
00000000
00301000
00010000
00000100
00000010
,
00000200
00000000
00000000
00000000
00010300
00001000
00010000
00000010
,
00000200
00000000
00000000
00000301
00001000
00000001
00000010
00000100
,
00020000
00032000
00000000
00003000
,
00202000
00303000
00020020
00030030
,
00012000
00000000
00000000
00000000
00000000
00013000
00001000
01000000
,
00010000
10000000
01000000
10000000
00010000
00000000
00100000
00000000
,
00002000
00000000
00023000
00000000
00000000
00000000
00030100
00000020
,
00000000
00000000
00000031
00000000
00001000
00000010
00010000
00001000
,
00020000
00000000
00000000
00000000
00030100
00001000
00000010
00010000
,
00002000
00000000
00000000
00000000
00013000
00001000
01000000
00100000
,
20000000
30020000
00000000
00000000
,
00130000
01000000
00100000
00001000
00011000
00000000
00000000
00000000
,
00011000
00000000
00001000
02000000
00000000
03100000
10000000
02000000
,
00000000
03020000
00000000
00031000
00011000
00000000
00010000
00000200
,
00000000
00000320
00000000
00000032
00000000
00000203
00000000
00002300
,
00000000
00023000
00000000
00000000
00030100
00000010
00000100
00010000
,
00011000
00000000
00010000
00000100
00000000
00000010
00000001
00000200
,
00000000
00002300
00000000
00013000
00011000
00000000
00001000
00200000
,
00000000
00301000
00010000
00000020
00000000
00010030
00001000
02000000
,
00000000
03100000
10000000
00010000
00100000
01000000
10000000
00000000
,
20010000
00000000
31000000
00010000
00001000
00010000
00012000
00000000
,
00003010
00000001
00000100
00000001
00000010
00000001
00000100
00000000
,
00001002
00000000
00000103
00001000
00010000
00001000
00021000
00000000
,
00130000
10000000
01000000
10000000
00100000
10000000
01000000
00000000
,
20010000
00000000
30100000
00010000
00001000
00010000
00012000
00000000
,
00003100
00000001
00000010
00000001
00000100
00000001
00000010
00000000
,
00000001
00001000
00000100
00000020
00000000
00000130
00010000
00001000
,
01000000
00200000
00000000
10300000
00010000
00100000
01000000
10000000
,
10020000
00000000
00000000
01030000
00100000
00000000
02100000
00000000
,
00000000
03001000
00010000
00000000
00001000
00000010
00000000
00000000
,
00002001
00000000
00000000
00003100
00000010
00000000
00000210
00000000
,
00000000
00010300
00001000
00000000
00010000
00100000
00000000
00000000
,
10020000
00000000
00000000
00130000
01000000
00000000
01200000
00000000
,
00000000
00301000
00010000
00000000
00001000
00000010
00000000
00000000
,
00000001
00001000
00000001
00000100
00000110
00000000
00000001
00002000
,
00000000
00003020
00000000
00010030
00001000
00100000
00001000
00010000
,
00100000
10000000
01000000
10000000
00100000
00010000
00001000
00000000
,
00010000
00001000
00000010
00000001
00000100
00000001
00000010
00000000
,
00001000
00000010
00000001
00000100
00000010
00010000
00001000
00000000
,
00010000
00100000
10000000
01000000
00100000
00001000
00010000
00000000
,
00001000
00010000
00000010
00000100
00000001
00000100
00000010
00010000
,
00001000
00100000
01000000
10000000
01000000
00100000
00001000
00000000
,
00010000
00000010
00010000
00011000
00000000
00000000
00001000
00100000
,
00001000
00011000
00000000
00000000
00011000
00010000
00001000
00011000
;

//---------------dance-single - ----------------
#NOTEDATA:;
#CHARTNAME:;
#STEPSTYPE:dance-single;
#DESCRIPTION:;
#CHARTSTYLE:;
#DIFFICULTY:Easy;
#METER:9;
#RADARVALUES:0.300557,0.409808,0.071078,0.277203,0.000000,296.000000,286.000000,10.000000,39.000000,0.000000,0.000000,0.000000,0.000000,0.000000,0.300557,0.409808,0.071078,0.277203,0.000000,296.000000,286.000000,10.000000,39.000000,0.000000,0.000000,0.000000,0.000000,0.000000;
#CREDIT:Kekkle;
#NOTES:
0000
0000
0000
0000
,
0000
0000
0000
0000
,
0000
0000
0000
0000
,
1000
1000
1000
1000
,
0010
0010
0100
0100
,
1001
0001
0002
0000
,
0013
0000
0100
0000
1000
0000
0001
1000
,
0001
1000
2000
0000
,
3100
0000
0010
0000
0001
0000
1000
0001
,
1000
0010
0020
0000
,
0130
0010
0001
0010
,
1000
0100
0200
0000
,
0310
0100
0001
0100
,
0020
0000
0032
0000
,
1003
0000
0001
0000
0100
0010
0100
0000
,
0020
0000
2030
0000
,
3001
0000
0010
0000
0100
0010
0100
0000
,
2000
0000
3001
0100
,
0020
0000
1030
0100
,
0020
0000
0031
0100
,
0010
0000
1000
0000
0010
0100
0010
0000
,
2000
0000
3001
0010
,
0100
1000
0010
1000
,
0100
0010
0200
0000
0000
0000
1300
0000
,
0200
0000
0310
0001
,
1000
0000
0001
0100
,
0020
0000
1030
0100
,
0020
0000
0031
0100
,
0010
0000
1000
0000
0001
1000
0001
0000
,
1001
0000
1000
0000
,
0100
0010
0100
0000
,
0020
0000
0001
0000
,
0001
0000
0000
0000
0031
1000
0001
0000
,
0200
0000
0301
1000
,
0200
0000
0000
0000
1300
0001
1000
0000
,
0100
0200
0000
0300
,
1001
0000
1001
0000
,
1001
0000
1000
0010
,
0100
0001
0010
0001
,
0100
0020
0000
1030
,
0020
0000
0000
0000
1030
0001
1000
0000
,
0200
0000
1300
0001
,
0200
0000
0301
1000
,
0100
0200
0000
0000
,
1300
0001
1000
0000
1001
0000
0000
0000
,
1001
0000
1000
0010
,
0100
0000
0010
0000
2000
0000
0000
3001
,
0000
0010
0000
0001
0000
1000
0000
0010
,
0000
2000
0000
0000
3001
1000
0001
0000
,
1001
0000
0001
0010
,
0100
0010
0002
0000
,
1003
0010
0100
0001
,
0020
0000
0130
1000
,
0001
0000
0100
0000
0010
0100
0010
0000
,
0100
0010
0100
0010
0100
0000
0001
0000
,
1000
0000
0100
0000
0010
0100
0010
0000
,
0100
0010
0100
0010
0100
0000
1000
0000
,
0001
0000
0010
0000
0100
0010
0100
0000
,
0010
0100
0010
0100
0010
0000
0001
0000
,
1000
0001
1000
0002
0000
0000
0103
0010
,
0100
0020
0000
0000
1030
0001
1000
0001
,
1000
0000
0001
2000
,
0000
3020
0000
0000
0130
0000
0000
0000
,
1001
0000
1000
0002
,
0000
0023
0000
0000
0130
0000
0000
0000
,
1001
0000
0001
2000
,
0000
3200
0000
0000
0310
0000
0000
0000
,
0001
1000
0001
1000
0001
0000
0100
0000
,
0010
1000
0010
0100
,
0001
1000
0001
0000
0010
0000
0100
0000
,
1000
0001
1000
0000
0010
0000
0100
0000
,
0001
1000
0001
0000
0010
0000
0100
0000
,
1000
0001
1000
0000
0010
0000
0100
0000
,
0001
1000
0001
1000
0001
1000
0001
0000
,
1000
0001
1000
0001
1000
0001
1000
0000
,
0001
1000
0001
2000
0000
0000
3010
0100
,
0010
0200
0000
0000
0301
1000
0001
1000
;

//---------------dance-double - ----------------
#NOTEDATA:;
#CHARTNAME:;
#STEPSTYPE:dance-double;
#DESCRIPTION:;
#CHARTSTYLE:;
#DIFFICULTY:Easy;
#METER:9;
#RADARVALUES:0.302588,0.409808,0.063970,0.277203,0.000000,298.000000,289.000000,9.000000,39.000000,0.000000,0.000000,0.000000,0.000000,0.000000,0.302588,0.409808,0.063970,0.277203,0.000000,298.000000,289.000000,9.000000,39.000000,0.000000,0.000000,0.000000,0.000000,0.000000;
#CREDIT:Kekkle;
#NOTES:
00000000
00000000
00000000
00000000
,
00000000
00000000
00000000
00000000
,
00000000
00000000
00000000
00000000
,
10000000
10000000
10000000
10000000
,
00010000
00010000
00100000
00100000
,
00001000
00010000
00020000
00000000
,
00031000
00000000
00000010
00000000
00000001
00000000
00001000
00000001
,
00001000
00000001
00000002
00000000
,
00000103
00000000
00001000
00000000
00010000
00000000
00001000
00010000
,
00001000
00010000
00020000
00000000
,
00031000
00010000
01000000
10000000
,
00010000
01000000
02000000
00000000
,
03100000
00010000
00001000
00000100
,
00000002
00000000
00002003
00000000
,
00003100
00000000
00000010
00000000
00000001
00001000
00000001
00000000
,
00000200
00000000
00000320
00000000
,
00010030
00000000
00001000
00000000
00010000
00001000
00010000
00000000
,
00002000
00000000
00103000
01000000
,
20000000
00000000
30100000
01000000
,
00020000
00000000
10030000
01000000
,
00010000
00000000
00001000
00000000
00010000
00001000
00010000
00000000
,
00002000
00000000
00003010
00000001
,
00001000
00000010
00000001
00000010
,
00000100
00000020
00000000
00010030
,
00002000
00000000
00013000
00010000
,
00001000
00000000
01000000
00100000
,
20000000
00000000
31000000
00100000
,
00020000
00000000
00130000
01000000
,
00100000
00000000
00001000
00000000
00010000
00001000
00010000
00000000
,
00011000
00000000
00002000
00000000
,
00003010
00000001
00001000
00000000
,
00000002
00000000
00000100
00000000
,
00000100
00000000
00000000
00000000
00000103
00000000
00000010
00000100
,
00000020
00000000
00000000
00000000
00001030
00000000
00000001
00001000
,
00000002
00000000
00001003
00000100
,
00000010
00002000
00000000
00003000
,
00011000
00000000
00011000
00000000
,
00011000
00000000
00001000
01000000
,
00100000
01000000
00100000
00000000
10000000
00000000
00010000
00000000
,
00100000
02000000
00000000
13000000
,
00020000
00000000
10030000
00100000
,
02000000
00000000
03100000
00010000
,
00002000
00000000
00103000
00001000
,
00010000
00020000
00000000
00000000
,
00030100
00000010
00000100
00000000
00000110
00000000
00000000
00000000
,
00001001
00000000
00000001
00000100
,
00000010
00000000
00010000
00000000
00002000
00000000
00000000
00013000
,
00000000
01000000
00000000
10000000
00000000
00100000
00000000
10000000
,
00000000
02000000
00000000
00000000
03100000
01000000
00100000
00000000
,
10010000
00000000
10000000
01000000
,
00100000
00000000
00001000
00000000
00010000
00000000
00001000
00010000
,
00000000
00000000
00010000
00001000
00000000
00000000
00001000
00020000
,
00000000
00000000
00030100
00000010
,
00000001
00000000
00001000
00000000
00000010
00000100
00000010
00000000
,
00000100
00000010
00000100
00000010
00000100
00000000
00001000
00000000
,
00010000
00000000
00100000
00000000
01000000
00100000
01000000
00000000
,
00100000
01000000
00100000
01000000
00100000
00000000
00010000
00000000
,
00001000
00000000
00000010
00000000
00000100
00000010
00000100
00000000
,
00000010
00000100
00000010
00000100
00000010
00000000
00000001
00000000
,
00000100
00000010
00000100
00000020
00000000
00000000
00010030
00001000
,
00010000
00002000
00000000
00000000
00103000
01000000
00100000
01000000
,
00100000
00010000
10000000
02000000
,
00000000
03020000
00000000
00000000
00031000
00000000
00000000
00000000
,
00000110
00000000
00000001
00000200
,
00000000
00002300
00000000
00000000
00013000
00000000
00000000
00000000
,
01100000
00000000
10000000
00200000
,
00000000
00320000
00000000
00000000
00031000
00000000
00000000
00000000
,
00010000
00001000
00010000
00001000
00010000
00000000
00001000
00000000
,
00000010
00000000
00000001
00001000
00000001
00001000
00000001
00000000
,
00000100
00000010
00000100
00000000
00000010
00000000
00010000
00000000
,
00001000
00010000
00001000
00000000
00100000
00000000
01000000
00000000
,
00100000
01000000
00100000
00000000
01000000
00000000
00100000
00000000
,
00001000
00010000
00001000
00000000
00010000
00000000
00000010
00000000
,
00000100
00000010
00000100
00000010
00000100
00000010
00000100
00000000
,
00000001
00001000
00000001
00001000
00000001
00001000
00000001
00000000
,
00000100
00000010
00000100
00000020
00000000
00000000
00010030
00001000
,
00010000
00002000
00000000
00000000
00103000
01000000
00100000
01000000
;

//---------------dance-single - ----------------
#NOTEDATA:;
#CHARTNAME:;
#STEPSTYPE:dance-single;
#DESCRIPTION:;
#CHARTSTYLE:;
#DIFFICULTY:Beginner;
#METER:5;
#RADARVALUES:0.174648,0.245485,0.085293,0.106617,0.000000,172.000000,160.000000,12.000000,15.000000,0.000000,0.000000,0.000000,0.000000,0.000000,0.174648,0.245485,0.085293,0.106617,0.000000,172.000000,160.000000,12.000000,15.000000,0.000000,0.000000,0.000000,0.000000,0.000000;
#CREDIT:Kekkle;
#NOTES:
// measure 0
0000
0000
0000
0000
,  // measure 1
0000
0000
0000
0000
,  // measure 2
0000
0000
0000
0000
,  // measure 3
1000
0000
1000
0000
,  // measure 4
0001
0000
0001
0000
,  // measure 5
0100
0000
0020
0000
,  // measure 6
0130
0000
0001
1000
,  // measure 7
0001
0000
0020
0000
,  // measure 8
0130
0000
1000
0001
,  // measure 9
1000
0000
0020
0000
,  // measure 10
0130
0000
0001
1000
,  // measure 11
0001
0000
0020
0000
,  // measure 12
0130
0000
1000
0001
,  // measure 13
1000
0000
0000
0000
,  // measure 14
0001
0000
1000
0000
,  // measure 15
0001
0000
0001
0000
,  // measure 16
0100
0000
0100
0000
,  // measure 17
0020
0000
1030
0001
,  // measure 18
1000
0000
0001
1000
,  // measure 19
0001
0000
0100
0000
,  // measure 20
0010
0000
1000
0000
,  // measure 21
0020
0000
0130
0000
,  // measure 22
0001
0000
1000
0000
,  // measure 23
0100
0000
0010
0000
,  // measure 24
0200
0000
0300
0000
,  // measure 25
1001
0000
0001
1000
,  // measure 26
0001
0000
1000
0001
,  // measure 27
1000
0000
0001
0000
,  // measure 28
0010
0000
0010
0000
,  // measure 29
0110
0000
1000
0000
,  // measure 30
0100
0000
0010
0000
,  // measure 31
0002
0000
0003
0000
,  // measure 32
1000
0000
1000
0000
,  // measure 33
0020
0000
0030
0000
,  // measure 34
0200
0000
0300
0000
,  // measure 35
0002
0000
0003
0000
,  // measure 36
1000
0000
0001
0000
,  // measure 37
1001
0000
1000
0000
,  // measure 38
0100
0000
0010
0000
,  // measure 39
0002
0000
0003
0000
,  // measure 40
0100
0000
0100
0000
,  // measure 41
0020
0000
0030
0000
,  // measure 42
2000
0000
3000
0000
,  // measure 43
0002
0000
0003
0000
,  // measure 44
0010
0000
0010
0000
,  // measure 45
1001
0000
0001
0000
,  // measure 46
0100
0000
1000
0000
,  // measure 47
0100
0000
0100
0000
,  // measure 48
0010
0000
0010
0000
,  // measure 49
1001
0000
1000
0000
,  // measure 50
0100
0000
0001
0000
,  // measure 51
0100
0000
0100
0000
,  // measure 52
0010
0000
0001
1000
,  // measure 53
0001
0000
0100
0000
,  // measure 54
0010
0100
0010
0000
,  // measure 55
0110
0000
1000
0000
,  // measure 56
0001
1000
0001
0000
,  // measure 57
1001
0000
1000
0000
,  // measure 58
0100
0010
0100
0000
,  // measure 59
1000
0000
0100
0000
,  // measure 60
0001
0000
0100
0000
,  // measure 61
0110
0000
0001
0000
,  // measure 62
0100
0010
0100
0000
,  // measure 63
0110
0000
1000
0000
,  // measure 64
0100
0010
0100
0000
,  // measure 65
0110
0000
0001
0000
,  // measure 66
0100
0010
0100
0000
,  // measure 67
0010
0000
0010
0000
,  // measure 68
1000
0000
1000
0000
,  // measure 69
0001
1000
0001
0000
,  // measure 70
1000
0001
1000
0000
,  // measure 71
0100
0010
0100
0000
,  // measure 72
0010
0100
0010
0000
,  // measure 73
0001
1000
0001
1000
,  // measure 74
0001
1000
0001
0000
,  // measure 75
0110
0000
0000
0110
,  // measure 76
0000
0000
0100
0010
;
