#VERSION:0.83;
#TITLE:Deca Dance;
#SUBTITLE:;
#ARTIST:Yooh;
#TITLETRANSLIT:;
#SUBTITLETRANSLIT:;
#ARTISTTRANSLIT:;
#GENRE:VARIETY;
#ORIGIN:;
#CREDIT:MILEN;
#BANNER:Deca Dance.png;
#BACKGROUND:Deca Dance-bg.png;
#PREVIEWVID:;
#JACKET:Deca Dance-jacket.png;
#CDIMAGE:;
#DISCIMAGE:;
#LYRICSPATH:;
#CDTITLE:;
#MUSIC:Deca Dance.ogg;
#OFFSET:-0.050000;
#SAMPLESTART:31.632414;
#SAMPLELENGTH:14.779993;
#SELECTABLE:YES;
#BPMS:0.000=160.000;
#STOPS:;
#DELAYS:;
#WARPS:;
#TIMESIGNATURES:0.000=4=4;
#TICKCOUNTS:0.000=4;
#COMBOS:0.000=1;
#SPEEDS:0.000=1.000=0.000=0;
#SCROLLS:0.000=1.000;
#FAKES:;
#LABELS:0.000=Song Start;
#BGCHANGES:0.000=Deca Dance.avi=1.000=0=0=0=StretchNoLoop====,
99999=-nosongbg-=1.000=0=0=0 // don't automatically add -songbackground-
;
#KEYSOUNDS:;
#ATTACKS:
;

//---------------dance-single - ----------------
#NOTEDATA:;
#CHARTNAME:;
#STEPSTYPE:dance-single;
#DESCRIPTION:;
#CHARTSTYLE:;
#DIFFICULTY:Medium;
#METER:12;
#RADARVALUES:0.500007,0.586560,0.257475,0.474719,0.076438,435.000000,403.000000,32.000000,59.000000,0.000000,0.000000,0.000000,0.000000,0.000000,0.500007,0.586560,0.257475,0.474719,0.076438,435.000000,403.000000,32.000000,59.000000,0.000000,0.000000,0.000000,0.000000,0.000000;
#CREDIT:MILEN;
#NOTES:
0000
0000
0000
0000
,
0000
0000
0000
0000
,
0000
0000
0000
0000
,
0000
0000
0000
0000
,
0000
0000
0000
0000
,
1000
0001
1000
0001
,
0010
0100
0010
0100
,
1000
0010
0100
0001
,
0100
0010
1000
1001
,
0001
0100
0001
0100
0010
0000
0100
0001
,
1000
0000
0000
1000
0000
0000
0000
0000
0001
0000
0000
0001
0000
0000
0000
0000
,
1000
0010
1000
0010
0100
0000
0010
1000
,
0001
0101
1000
1100
,
0001
0010
0001
0010
0100
0000
0010
0001
,
1000
0000
0100
0000
1000
0000
0100
0000
0010
0000
0000
0020
0000
0000
0000
0000
,
0030
0000
0000
0000
0000
0000
0001
0000
0001
0000
0000
0100
0000
0000
0010
0000
,
1000
0000
0000
0010
0000
0000
0200
0000
0000
0000
0000
0000
0301
0000
0000
0000
,
0001
0010
0001
0010
,
0100
1000
0100
1000
,
0010
1000
0010
1000
0001
0100
0001
0100
,
0010
1000
0100
0010
0001
1000
0001
0000
,
2002
3003
0000
0000
1000
0000
0010
0000
0100
0000
0002
0000
0013
0000
0002
0000
,
1003
0002
0013
0000
0010
0001
1000
0001
,
2002
3003
0000
0000
0001
0000
0010
0000
0100
0000
2000
0000
3010
0000
2000
0000
,
3001
2000
3010
0000
0010
1000
0001
1000
,
2002
3003
0000
0000
0001
0000
1000
0000
0010
0000
0200
0000
0301
0000
0200
0000
,
1300
0200
0301
0000
0001
0010
0100
1000
,
0001
1000
0100
0010
0002
0000
0103
0010
,
2000
0000
0000
3001
,
1001
0000
0000
0000
0000
0010
0020
0000
,
1030
1000
0100
0000
1000
0010
0100
0001
,
2002
3003
0000
0000
1000
0000
0010
0000
0100
0000
0002
0000
1003
0000
2000
0000
,
3100
0200
0310
0000
0010
0001
1000
0001
,
2002
3003
0000
0000
0001
0000
0010
0000
0100
0000
2000
0000
3001
0000
0002
0000
,
0103
0200
0310
0000
0020
0000
0000
0000
,
0130
0000
0100
0001
0010
0200
1300
0002
,
0103
0020
1030
0002
0013
0200
0310
0000
,
2002
0000
3003
0000
0201
0000
1000
1000
,
0000
0010
0010
0010
0000
0001
0001
0001
,
0302
0000
0023
0000
0230
0000
1000
1300
,
0000
0000
1000
0000
0001
0000
0000
0010
0000
0000
1000
0000
0000
0010
0000
0000
,
0002
0000
2003
0000
3020
0000
0001
0001
,
0000
0100
0100
0100
0000
1000
1000
1030
,
1000
0010
0100
0001
1000
0000
0001
0000
,
2002
0000
3003
0101
,
1010
0000
0000
0000
,
0000
0000
0000
0000
,
0000
0000
0000
0000
,
0000
0000
0000
0000
,
1000
1000
0100
0100
,
0010
0010
0001
0001
,
1000
0010
0100
0001
0010
0100
1000
0000
,
2002
0000
3003
1001
,
0001
0000
0000
0000
0100
0000
0000
0100
0000
0000
0010
0000
0100
0000
0000
0000
,
1000
0000
0000
0000
0100
0000
0000
0100
0000
0000
0010
0000
0100
0000
0000
0000
,
0001
0000
0000
0000
0010
0000
0000
0010
0000
0000
0100
0000
0010
0000
0000
0000
,
1000
0000
0000
0000
0010
0000
0000
0010
0000
0000
0100
0000
0010
0000
0000
0000
,
0011
0101
1100
1010
,
0010
0100
0001
1000
0100
0010
0001
1000
,
2002
0000
0000
3003
,
0010
0000
0000
0000
0010
0000
0000
0000
0010
0000
0000
0000
0010
0100
0010
0000
,
1000
0000
0100
0000
0010
0000
0000
0010
0000
0000
0001
0000
0100
0000
1000
0000
,
0100
0000
0000
0000
0101
0000
0000
0001
0000
0000
0010
0000
0100
0000
0010
0000
,
0001
0000
0100
0000
0010
0000
0000
0010
0000
0000
1000
0000
0100
0000
0001
0000
,
0100
0000
0000
0000
1100
0000
0000
1000
0000
0000
0010
0000
0100
0000
0010
0000
,
0001
0000
0010
0000
1000
0000
0000
1000
0000
0000
0100
0000
0001
0000
0100
0000
,
0010
0000
0000
0000
0011
0000
0000
0001
0000
0000
0010
0000
0100
0000
0010
0000
,
1000
0000
0010
0000
0001
0000
0000
0001
0000
0000
0100
0000
1000
0000
0100
0000
,
0010
1010
0110
1001
,
0001
0010
0100
0001
0100
1000
0100
0001
,
0100
1000
0010
0100
0001
1000
0001
0000
,
1000
0010
0100
1000
0100
0001
0100
1000
,
0100
0001
0010
0100
1000
0001
1000
0000
,
0010
0100
0010
0001
0010
1000
0010
0100
,
0001
0100
1000
0100
0010
0100
0001
1000
,
0002
0010
2003
0010
,
3002
0203
0320
1030
,
1100
0010
0011
0001
,
0101
0100
1010
1000
,
0001
0100
0010
0001
1000
0100
0010
1000
,
0002
0023
0230
1300
,
1001
0000
0000
0000
;

//---------------dance-double - ----------------
#NOTEDATA:;
#CHARTNAME:;
#STEPSTYPE:dance-double;
#DESCRIPTION:;
#CHARTSTYLE:;
#DIFFICULTY:Medium;
#METER:12;
#RADARVALUES:0.482765,0.553973,0.233337,0.265521,0.088507,420.000000,391.000000,29.000000,33.000000,0.000000,0.000000,0.000000,0.000000,0.000000,0.482765,0.553973,0.233337,0.265521,0.088507,420.000000,391.000000,29.000000,33.000000,0.000000,0.000000,0.000000,0.000000,0.000000;
#CREDIT:;
#NOTES:
00000000
00000000
00000000
00000000
,
00000000
00000000
00000000
00000000
,
00000000
00000000
00000000
00000000
,
00000000
00000000
00000000
00000000
,
00000000
00000000
00000000
00000000
,
01000000
00001000
01000000
00001000
,
00010000
00001000
00010000
00001000
,
00010000
00000100
00010000
00000100
,
00010000
00001000
00010000
00001000
,
00100000
00010000
00100000
00010000
10000000
00000000
00100000
00010000
,
00001000
00000000
00000000
00001000
00000000
00000000
00000000
00000000
00010000
00000000
00000000
00010000
00000000
00000000
00000000
00000000
,
00000010
00001000
00000010
00001000
00000001
00000000
00000010
00001000
,
00010000
00010100
00001000
01001000
,
01000000
00010000
01000000
00010000
10000000
00000000
01000000
00010000
,
00001000
00000000
00010000
00000000
00001000
00000000
00000010
00000000
00000001
00000000
00000000
00000002
00000000
00000000
00000000
00000000
,
00000003
00000000
00000000
00000000
00000000
00000000
00001000
00000000
00001000
00000000
00000000
00000010
00000000
00000000
00010000
00000000
,
00001000
00000000
00000000
00100000
00000000
00000000
00020000
00000000
00000000
00000000
00000000
00000000
10030000
00000000
00000000
00000000
,
10000000
00100000
01000000
00010000
,
00100000
01000000
00010000
00001000
,
00000010
00000001
00000010
00000001
00001000
00000100
00001000
00000100
,
00000010
00001000
00010000
01000000
10000000
00010000
10000000
00000000
,
10010000
00000000
00010000
01000000
00200000
00010000
00000000
10000000
,
00000000
00010000
00310000
00000000
00010000
00001000
00000010
00000001
,
00001001
00000000
00001000
00000100
00000020
00001000
00000000
00000001
,
00000000
00001000
00001030
00000000
00001000
00010000
01000000
10000000
,
10010000
00000000
00010000
00100000
00002000
00000010
00000000
00100000
,
00000000
00000010
00003010
00000000
00000010
00000001
00001000
00000001
,
00000010
00000100
00001000
00000100
00020000
00000000
01030000
10000000
,
00200000
00000000
00000000
00310000
,
00011000
00000000
00000000
00000000
00000000
00001000
00002000
00000000
,
00013000
00010000
00000010
00000000
00001000
00000100
00000010
00000001
,
00001001
00000000
00001000
00000010
00000100
00001000
00000100
00000001
,
00000100
00010000
00000100
00000000
00001000
00010000
00100000
10000000
,
10010000
00000000
00010000
00100000
01000000
00010000
01000000
10000000
,
01000000
00001000
01000000
00000000
00020000
00000000
00000000
00000000
,
00031000
00000000
00001000
00000010
00000001
00001000
00000100
00010000
,
01000000
00001000
00000010
00010000
00100000
10000000
00010000
00000000
,
20020000
00000000
30030000
00000000
01200000
00000000
00010000
00320000
,
00000000
00001000
00001000
00032000
00000000
00000100
00000100
00000100
,
00003200
00000000
00000302
00000000
00000023
00000000
00000100
00000130
,
00000000
00000000
00000100
00000000
00001000
00000000
00000000
00000010
00000000
00000000
00010000
00000000
00000000
00001000
00000000
00000000
,
00200000
00000000
00320000
00000000
02030000
00000000
00001000
03002000
,
00000000
00010000
00010000
00023000
00000000
00100000
00100000
00100000
,
00130000
10000000
01000000
00010000
00001000
00000000
00010000
00000000
,
00022000
00000000
00033000
01001000
,
00010010
00000000
00000000
00000000
,
00000000
00000000
00000000
00000000
,
00000000
00000000
00000000
00000000
,
00000000
00000000
00000000
00000000
,
00001000
00010000
00000010
00010000
,
00001000
01000000
00001000
00010000
,
00000100
00001000
00000010
00010000
00001000
00100000
00010000
01000000
,
00002000
00000000
00000000
00013000
,
00001000
00000000
00000000
00000000
00010000
00000000
00000000
00010000
00000000
00000000
00010000
00000000
01000000
00000000
00000000
00000000
,
00010000
00000000
00000000
00000000
00001000
00000000
00000000
00001000
00000000
00000000
00001000
00000000
00000100
00000000
00000000
00000000
,
00001000
00000000
00000000
00000000
00010000
00000000
00000000
00010000
00000000
00000000
00010000
00000000
00100000
00000000
00000000
00000000
,
00010000
00000000
00000000
00000000
00001000
00000000
00000000
00001000
00000000
00000000
00001000
00000000
00000010
00000000
00000000
00000000
,
00000011
00001000
00001100
00010000
,
00001000
00100000
00010000
10000000
00100000
01000000
00010000
00100000
,
00002000
00000000
00000000
00000000
,
00010000
00000000
00000000
00000000
00010000
00000000
00000000
00000000
00013000
00000000
00000000
00000000
00010000
00001000
00010000
00000000
,
00000100
00000000
00001000
00000000
00000001
00000000
00000000
00000100
00000000
00000000
00000001
00000000
00001000
00000000
00000100
00000000
,
00000010
00000000
00000000
00000000
00001001
00000000
00000000
00001000
00000000
00000000
00000010
00000000
00010000
00000000
00001000
00000000
,
01000000
00000000
00010000
00000000
10000000
00000000
00000000
01000000
00000000
00000000
10000000
00000000
00010000
00000000
01000000
00000000
,
00100000
00000000
00000000
00000000
10010000
00000000
00000000
00010000
00000000
00000000
00100000
00000000
00001000
00000000
00010000
00000000
,
00000100
00000000
00000010
00000000
00000001
00000000
00000000
00000100
00000000
00000000
00001000
00000000
00000100
00000000
00001000
00000000
,
00010000
00000000
00000000
00000000
00011000
00000000
00000000
00100000
00000000
00000000
01000000
00000000
10000000
00000000
00010000
00000000
,
01000000
00000000
00100000
00000000
10000000
00000000
00000000
01000000
00000000
00000000
00010000
00000000
01000000
00000000
00010000
00000000
,
00001000
00011000
00010100
00101000
,
00100000
00010000
01000000
10000000
01000000
00010000
00100000
01000000
,
00010000
00000000
00000000
00000000
00011000
00000000
00000000
00000010
00000000
00000000
00001000
00000000
00001000
00000000
00000000
00000000
,
00000010
00001000
00000100
00000001
00000100
00001000
00000010
00000100
,
00001000
00000000
00000000
00000000
00011000
00000000
00000000
00100000
00000000
00000000
00010000
00000000
00010000
00000000
00000000
00000000
,
01000000
10000000
01000000
00010000
00100000
01000000
00010000
00001000
,
00000010
00000000
00000000
00000000
00000110
00000000
00000000
00001000
00000000
00000000
00000001
00000000
00000001
00000000
00000000
00000000
,
00000200
00000010
00002300
00010000
,
02003000
00100000
03020000
10030000
,
11000000
00100000
00101000
00001000
,
00010010
00000010
00000101
00000001
,
00001000
00000100
00000010
00000001
00000100
00001000
00010000
00100000
,
20000000
32000000
03020000
00031000
,
00011000
00000000
00000000
00000000
;

//---------------dance-single - ----------------
#NOTEDATA:;
#CHARTNAME:;
#STEPSTYPE:dance-single;
#DESCRIPTION:;
#CHARTSTYLE:;
#DIFFICULTY:Hard;
#METER:16;
#RADARVALUES:0.727596,0.879840,0.522996,0.450581,0.539088,633.000000,568.000000,65.000000,56.000000,7.000000,0.000000,0.000000,0.000000,0.000000,0.727596,0.879840,0.522996,0.450581,0.539088,633.000000,568.000000,65.000000,56.000000,7.000000,0.000000,0.000000,0.000000,0.000000;
#CREDIT:MILEN;
#NOTES:
0000
0000
0000
0000
,
0000
0000
0000
0000
,
0000
0000
0000
0000
,
0000
0000
0000
0000
,
0000
0000
0000
0000
,
1001
0000
0000
0000
1000
0000
0000
0010
0000
0000
1000
0000
0100
0000
1000
0000
,
1010
0000
0000
0000
0001
0000
0000
0010
0000
0000
0001
0000
0100
0000
0001
0000
,
0011
0000
0000
0000
1000
0000
0000
0100
0000
0000
0010
0000
0100
0000
1000
0000
,
1100
0000
0000
0000
0001
0000
0000
0100
0000
0000
0001
0000
0101
0000
0000
0000
,
0100
0000
0010
0000
0100
0000
0001
0000
0020
0000
0030
0000
0001
0100
0001
0100
,
0010
0000
0000
1000
0010
0000
1000
0000
0001
0000
0000
0010
0001
0000
1000
0000
,
0010
0100
0010
1000
0200
0300
1000
0010
,
0100
0000
0001
0000
1000
0000
0100
0010
0100
0000
0010
0000
0001
0000
0000
0000
,
0010
0000
0100
0000
0010
0000
0001
0000
0200
0000
0300
0000
0001
0010
0001
0010
,
0100
0000
0010
0000
0100
0000
1000
0000
0010
0000
0100
0020
0000
0000
0000
0000
,
0030
0000
0000
0000
0000
0000
0110
0000
0200
0000
0000
0302
0000
0000
0203
0000
,
0320
0000
0000
2030
0000
0000
0002
0000
0000
0000
3003
0000
1001
0000
0000
0000
,
0001
0000
0100
0001
0000
0010
0001
0000
1000
0000
0100
1000
0000
0010
1000
0000
,
0010
0000
0100
0001
0000
0010
0001
0000
0010
0000
0100
1000
0000
0010
1000
0000
,
0001
0100
1000
0100
0001
0010
1000
0010
,
0001
0010
0001
0000
1000
0100
1000
0000
0010
0100
0010
0100
0020
0000
0030
0000
,
0110
0000
0000
0000
1001
0000
0001
0100
0010
0000
2010
0000
0100
0000
3002
0000
,
0010
2003
0100
3000
0010
0001
0010
1000
,
1100
0000
0000
0000
1001
0000
1000
0100
0010
0000
0012
0000
0100
0000
2003
0000
,
0010
3002
0100
0003
0010
1000
0010
0001
,
0101
0000
0000
0000
1001
0000
1000
0010
0100
0000
0120
0000
1000
0000
0230
0000
,
1000
0320
1000
0030
0100
0001
0010
0200
,
0001
0000
0320
0000
0001
0000
0230
0000
0001
0000
0300
0000
1000
0100
0010
0001
,
2000
3020
0230
0302
,
2000
0000
3003
0000
0000
0000
1000
0001
1000
0000
0001
0100
0010
0000
0001
0010
,
0100
0000
0001
0100
0020
0000
0000
0000
1030
0000
0100
0000
0001
0000
0100
0000
,
1100
0000
0000
0000
1000
0000
0001
1000
0001
0000
1000
0100
0010
0000
1000
0010
,
0100
0000
1000
0100
0020
0000
0000
0000
0031
0000
0001
1000
0001
0000
0100
0000
,
0110
0000
0000
0000
0010
0000
0100
0010
0100
0000
0001
1000
0100
0000
1000
0001
,
0010
0000
0001
1000
0010
0000
0100
0000
0220
0000
0000
0000
0300
0000
0000
0000
,
0001
0000
0000
0000
1030
0000
0100
0000
0010
0000
0001
1000
0010
0000
1000
0001
,
0100
0010
0100
0010
1000
0000
0100
0000
0010
0100
0010
0100
0001
0000
0000
0000
,
2200
0000
0000
0000
0300
0000
0000
0000
0002
0003
0000
0000
0010
0000
0020
0030
,
0000
0000
0010
0000
0001
0000
0200
0300
0000
0000
0100
0000
0001
0000
3010
0000
,
1020
0000
0100
0000
0001
0000
0100
0130
,
0000
0000
0100
0000
0110
0000
0000
1010
0000
0000
1100
0000
0000
0011
0000
0000
,
0202
0000
0000
0000
0300
0000
0000
0000
2000
3000
0000
0000
0010
0000
0020
0030
,
0000
0000
0010
0000
1000
0000
0200
0300
0000
0000
0103
0000
0100
0010
0100
0001
,
1000
0000
0010
0000
0001
0000
1000
0000
0100
0000
0001
0000
0010
0100
0010
0002
,
2000
0000
0000
0000
0000
3003
1001
0000
,
0110
0000
0000
0000
,
0000
0000
0000
0000
,
0000
0000
0000
0000
,
0000
0000
0000
0000
,
1000
0010
0100
0010
0001
0010
0100
0000
,
0001
0100
0010
0100
1000
0100
0010
0000
,
1000
0000
1000
0000
0001
0000
0001
0000
1000
0010
1000
0010
0100
0001
0100
0001
,
0200
0000
0000
0310
,
1001
0000
0000
0000
1000
0000
0000
1010
0000
M000
0011
0000
1000
0000
0100
0000
,
1100
0000
0000
0000
0001
0000
0000
0101
0000
000M
1100
0000
0001
0000
0100
0000
,
0101
0000
0000
0000
1000
0000
0000
1100
0000
M000
0101
0000
1000
0000
0010
0000
,
1010
0000
0000
0000
0001
0000
0000
0011
0000
000M
1010
0000
0001
0000
0010
0000
,
0011
0001
0100
0010
0110
0100
0010
1000
,
1001
0000
0001
0000
1001
0000
1000
0000
0001
0010
0001
0010
0100
1000
0100
1000
,
0200
0000
0000
0000
,
0010
0000
0000
0000
0010
0000
0000
0000
0010
0000
0300
0000
1000
0010
0100
0001
,
0010
0000
0001
0000
0100
0000
1000
0100
0000
0010
0100
0000
0001
0000
0010
0100
,
0020
0000
0030
0000
0011
0000
0000
1100
0000
M000
0101
0000
0001
0010
0100
1000
,
0010
0000
1000
0000
0100
0000
0001
0100
0000
0010
0100
0000
1000
0000
0010
0100
,
0020
0000
0030
0000
1010
0000
0000
0101
0000
000M
1100
0000
1000
0001
0100
0010
,
1000
0000
0001
0000
0010
0000
1000
0010
0000
0100
0010
0000
0100
0000
1000
0010
,
0200
0000
0300
0000
0101
0000
000M
1100
0000
0000
0011
0000
0001
1000
0100
0010
,
0001
0000
1000
0000
0010
0000
0001
0010
0000
0100
0010
0000
0100
0000
1000
0100
,
0020
0000
0000
0000
2030
0000
0000
0000
3002
0000
0000
0000
0103
0010
0100
0001
,
0010
0100
1000
0000
1010
0000
1010
0000
0010
0000
0100
0001
0000
1000
0001
0000
,
0010
0000
1000
0000
0010
0000
0001
0100
0000
0001
1000
0000
0100
0010
0100
1000
,
0010
0100
0001
0000
0011
0000
0011
0000
0010
0000
0100
1000
0000
0001
1000
0000
,
0010
0000
0001
0000
0010
0000
1000
0100
0000
1000
0001
0000
0100
0010
0100
0001
,
1000
0100
0010
0000
0110
0000
0110
0000
0100
0000
0001
0100
0000
1000
0100
0000
,
0010
0000
0100
0000
1000
0000
0010
0001
0000
0010
1000
0000
0010
0100
0001
1000
,
0100
0000
0100
0000
0010
0000
0010
0000
0001
0010
0100
0000
1000
0010
0100
0000
,
0002
0000
1000
0000
1003
0000
1000
0001
0100
0010
1000
0000
1001
0000
0000
0000
,
0101
0100
0010
1000
1100
0001
0100
0010
,
1010
0010
0100
0001
0011
1000
0100
0010
,
0001
0000
0001
0000
1000
0000
1000
0000
0010
0100
0010
0100
0001
1000
0001
1000
,
0100
0010
0001
0100
0010
0100
1000
0001
0010
0100
0010
2000
0002
0000
3003
0000
,
1001
0000
0000
0000
;

//---------------dance-double - ----------------
#NOTEDATA:;
#CHARTNAME:;
#STEPSTYPE:dance-double;
#DESCRIPTION:;
#CHARTSTYLE:;
#DIFFICULTY:Hard;
#METER:16;
#RADARVALUES:0.714952,0.879840,0.458627,0.442535,0.506904,622.000000,565.000000,57.000000,55.000000,0.000000,0.000000,0.000000,0.000000,0.000000,0.714952,0.879840,0.458627,0.442535,0.506904,622.000000,565.000000,57.000000,55.000000,0.000000,0.000000,0.000000,0.000000,0.000000;
#CREDIT:MILEN;
#NOTES:
00000000
00000000
00000000
00000000
,
00000000
00000000
00000000
00000000
,
00000000
00000000
00000000
00000000
,
00000000
00000000
00000000
00000000
,
00000000
00000000
00000000
00000000
,
00011000
00000000
00000000
00000000
00001000
00000000
00000000
00010000
00000000
00000000
01000000
00000000
10000000
00000000
00100000
00000000
,
00010000
00000000
00000000
00000000
00010000
00000000
00000000
00001000
00000000
00000000
00000100
00000000
00000001
00000000
00000010
00000000
,
00001000
00000000
00000000
00000000
00001000
00000000
00000000
00010000
00000000
00000000
00100000
00000000
10000000
00000000
01000000
00000000
,
00010000
00000000
00000000
00000000
00001000
00000000
00000000
00000010
00000000
00000000
00000001
00000000
00001001
00000000
00000000
00000000
,
00001000
00000000
00000010
00000000
00001000
00000000
00000001
00000000
00000020
00000000
00000030
00000000
00000100
00000010
00000100
00000010
,
00001000
00000000
00000000
00010000
00001000
00000000
00100000
00000000
00001000
00000000
00000000
00010000
00001000
00000000
01000000
00000000
,
00010000
00100000
00010000
10000000
00200000
00300000
01000000
00100000
,
01000000
00000000
00010000
00000000
00100000
00000000
00001000
00010000
00001000
00000000
00000100
00000000
00000010
00000000
00000000
00000000
,
00000100
00000000
00000001
00000000
00000010
00000000
00001000
00000000
00020000
00000000
00030000
00000000
00001000
00010000
00001000
00010000
,
00100000
00000000
10000000
00000000
01000000
00000000
00100000
00000000
00001000
00000000
00010000
00002000
00000000
00000000
00000000
00000000
,
00003000
00000000
00000000
00000000
00000000
00000000
00011000
00000000
00020000
00000000
00000000
00000010
00000000
00000000
00031000
00000000
,
00002000
00000000
00000000
00100000
00000000
00000000
00020000
00000000
00000000
00000000
00033000
00000000
00011000
00000000
00000000
00000000
,
00010000
00000000
00001000
00100000
00000000
00010000
00100000
00000000
01000000
00000000
00010000
00001000
00000000
00010000
00000010
00000000
,
00000100
00000000
00001000
00010000
00000000
00001000
01000000
00000000
00100000
00000000
00010000
00000010
00000000
00001000
00000010
00000000
,
00000100
00001000
00010000
00100000
00010000
00001000
00000100
00001000
,
00010000
00000010
00010000
00000000
00001000
00100000
00001000
00000000
00010000
00000100
00010000
00000100
00020000
00000000
00030000
00000000
,
00011000
00000000
00000000
00000000
00101000
00000000
00100000
00010000
01000000
00000000
00200000
00000000
10000000
00000000
00320000
00000000
,
00001000
00230000
10000000
00300000
01000000
00100000
00010000
00001000
,
00011000
00000000
00000000
00000000
00010010
00000000
00000010
00001000
00000100
00000000
00000020
00000000
00000001
00000000
00002030
00000000
,
00010000
00003020
00000001
00000030
00000100
00000010
00001000
00010000
,
00011000
00000000
00000000
00000000
01001000
00000000
01000000
00010000
00100000
00000000
02000000
00000000
00010000
00000000
03002000
00000000
,
00000100
02003000
00010000
03000000
10000000
00100000
00010000
00000020
,
00001000
00000000
00020030
00000000
00100000
00000000
00030020
00000000
00001000
00000000
00000030
00000000
00000001
00000010
00000001
00000010
,
00000200
00002300
00023000
00230000
,
02000000
00000000
03300000
00000000
00000000
00000000
00100000
10000000
01000000
00000000
01000000
00100000
00010000
00000000
00100000
00001000
,
00010000
00000000
00001000
00010000
00000020
00000000
00000000
00000000
00001030
00000000
00000100
00000000
00000010
00000000
00000001
00000000
,
00001001
00000000
00000000
00000000
00000001
00000000
00000010
00000001
00000100
00000000
00000100
00000010
00001000
00000000
00000010
00010000
,
00001000
00000000
00010000
00001000
00200000
00000000
00000000
00000000
00310000
00000000
00010000
01000000
00100000
00000000
10000000
00000000
,
10010000
00000000
00000000
00000000
00010000
00000000
00010000
00100000
01000000
00000000
01000000
00010000
00001000
00000000
00010000
00001000
,
00000100
00000000
00001000
00000100
00000001
00000000
00000010
00000000
00000220
00000000
00000000
00000000
00000030
00000000
00000000
00000000
,
00000001
00000000
00000000
00000000
00001300
00000000
00001000
00000000
00000100
00000000
00010000
00001000
00100000
00000000
00001000
00010000
,
00000010
00001000
00000010
00001000
00000100
00000000
00010000
00000000
00001000
00100000
00001000
00100000
01000000
00000000
00000000
00000000
,
00022000
00000000
00000000
00000000
00003000
00000000
00000000
00000000
00000020
00000030
00000000
00000000
00100000
00000000
00200000
00300000
,
00000000
00000000
00000010
00000000
00000010
00000000
00000020
00000030
00000000
00000000
00001000
00000000
00001000
00000000
00031000
00000000
,
00012000
00000000
00203000
00000000
02300000
00000000
10000000
13000000
,
00000000
00000000
10000000
00000000
10010000
00000000
00000000
01010000
00000000
00000000
01100000
00000000
00000000
00110000
00000000
00000000
,
00022000
00000000
00000000
00000000
00030000
00000000
00000000
00000000
00200000
00300000
00000000
00000000
00000010
00000000
00000020
00000030
,
00000000
00000000
00100000
00000000
00100000
00000000
00200000
00300000
00000000
00000000
00013000
00000000
00010000
00000100
00010000
00000100
,
00001000
00000010
00000100
00000001
00001000
00000100
00000010
00001000
,
00022000
00000000
00000000
00000000
00000000
00033000
00011000
00000000
,
00011000
00000000
00000000
00000000
,
00000000
00000000
00000000
00000000
,
00000000
00000000
00000000
00000000
,
00000000
00000000
00000000
00000000
,
00010000
00001000
00000010
00001000
00010000
00001000
01000000
00000000
,
00001000
00010000
00100000
00010000
00001000
00010000
00000010
00000000
,
00010000
00000000
00010000
00000000
00001000
00000000
00001000
00000000
00010000
00001000
00010000
00001000
00010000
00001000
00010000
00001000
,
00020000
00000000
00000000
00031000
,
00011000
00000000
00000000
00000000
00010000
00000000
00000000
00010010
00000000
00000000
00001010
00000000
00000010
00000000
00010000
00000000
,
00011000
00000000
00000000
00000000
00001000
00000000
00000000
00101000
00000000
00000000
00110000
00000000
00100000
00000000
00001000
00000000
,
00011000
00000000
00000000
00000000
00010000
00000000
00000000
00010100
00000000
00000000
00001100
00000000
00000100
00000000
00010000
00000000
,
00011000
00000000
00000000
00000000
00001000
00000000
00000000
01001000
00000000
00000000
01010000
00000000
01000000
00000000
00001000
00000000
,
00011000
00010000
00000100
00010000
00011000
00001000
01000000
00001000
,
00011000
00000000
00010000
00000000
00011000
00000000
00001000
00000000
00010000
00001000
00010000
00001000
00010000
00001000
00010000
00001000
,
00020000
00000000
00000000
00000000
,
00001000
00000000
00000000
00000000
00001000
00000000
00000000
00000000
00001000
00000000
00030000
00000000
00000010
00001000
00000010
00001000
,
00000001
00000000
00000100
00000000
00001000
00000000
00010000
00001000
00000000
00010000
00001000
00000000
01000000
00000000
00010000
00100000
,
02000000
00000000
03000000
00000000
11000000
00000000
00000000
01000000
00000000
00000000
00110000
00000000
00100000
00010000
00100000
00010000
,
10000000
00000000
01000000
00000000
00010000
00000000
00001000
00010000
00000000
00001000
00010000
00000000
00000100
00000000
00001000
00000010
,
00000200
00000000
00000300
00000000
00000101
00000000
00000000
00000100
00000000
00000000
00001010
00000000
00000010
00000100
00000010
00000100
,
00001000
00000000
00000100
00000000
00010000
00000000
01000000
00100000
00000000
01000000
00100000
00000000
10000000
00000000
00010000
00100000
,
02000000
00000000
03000000
00000000
11000000
00000000
00000000
00010000
00000000
00000000
00110000
00000000
00100000
01000000
00100000
01000000
,
00010000
00000000
01000000
00000000
00001000
00000000
00000100
00000010
00000000
00000100
00000010
00000000
00000001
00000000
00001000
00000010
,
00000200
00000000
00000000
00000000
00002300
00000000
00000000
00000000
00023000
00000000
00000000
00000000
01030000
00100000
01000000
10000000
,
00100000
01000000
00010000
00000000
00110000
00000000
00110000
00000000
00100000
00000000
00001000
00010000
00000000
00000010
00001000
00000000
,
00000100
00000000
00000010
00000000
00000001
00000000
00000100
00001000
00000000
00010000
00001000
00000000
00000100
00000010
00000100
00000001
,
00000010
00000100
00001000
00000000
00001010
00000000
00001010
00000000
00000010
00000000
00010000
00001000
00000000
00100000
00010000
00000000
,
01000000
00000000
00100000
00000000
10000000
00000000
01000000
00010000
00000000
00001000
00010000
00000000
01000000
00100000
01000000
10000000
,
00010000
01000000
00100000
00000000
01100000
00000000
01100000
00000000
01000000
00000000
00010000
00100000
00000000
01000000
00010000
00000000
,
00001000
00000000
00000010
00000000
00000100
00000000
00001000
00000010
00000000
00000100
00001000
00000000
00010000
00001000
00010000
00001000
,
00010000
00000000
00010000
00000000
00001000
00000000
00001000
00000000
00010000
00001000
01000000
00000000
00001000
00010000
00000100
00000000
,
00020000
00000000
00001000
00000000
00031000
00000000
00001000
00010000
00000000
00010000
00001000
00000000
00011000
00000000
00000000
00000000
,
00010100
00000100
00001000
00000010
00010010
00000010
00010000
00001000
,
00101000
00100000
00010000
01000000
01001000
01000000
00001000
00010000
,
00000100
00000000
00000100
00000000
00000010
00000000
00000010
00000000
00000001
00000100
00000001
00000100
00000010
00001000
00000010
00001000
,
00000100
00000010
00000001
00001000
00000010
00010000
00001000
00100000
00010000
01000000
00100000
20000000
00020000
00000000
30030000
00000000
,
10010000
00000000
00000000
00000000
;

//---------------dance-single - ----------------
#NOTEDATA:;
#CHARTNAME:;
#STEPSTYPE:dance-single;
#DESCRIPTION:;
#CHARTSTYLE:;
#DIFFICULTY:Challenge;
#METER:18;
#RADARVALUES:0.912656,1.107946,0.804609,1.142545,0.893116,794.000000,694.000000,100.000000,142.000000,0.000000,0.000000,0.000000,0.000000,0.000000,0.912656,1.107946,0.804609,1.142545,0.893116,794.000000,694.000000,100.000000,142.000000,0.000000,0.000000,0.000000,0.000000,0.000000;
#CREDIT:MILEN;
#NOTES:
0000
0000
0000
0000
,
0000
0000
0000
0000
,
0000
0000
0000
0000
,
0000
0000
0000
0000
,
0000
0000
0000
0000
,
2002
3003
0000
0000
1000
0000
0010
0100
0000
0010
1000
0000
0100
0000
1000
0000
,
2020
3030
0000
0000
0001
0000
0010
0100
0000
0010
0001
0000
0100
0000
0001
0000
,
0022
0033
0000
0000
1000
0000
0010
0100
0000
1000
0100
0000
0001
0000
0100
0000
,
0202
0303
0000
0000
0001
0000
0010
0100
0000
0001
0100
0000
1000
0000
0100
0000
,
2100
0000
3001
0000
0100
0000
0201
0000
1000
0000
0300
0000
0001
0010
0100
0010
,
0002
0003
0000
1000
0001
0000
0010
0100
2000
3000
0000
0001
1000
0000
0010
0100
,
0102
1003
0100
1200
0001
0300
1000
0010
,
0210
0000
0301
0000
0001
0010
0100
1000
0010
0000
0120
0000
1000
0000
0030
0000
,
0210
0000
0301
0000
1000
0000
1002
0000
0010
0000
0003
0000
1000
0010
0100
0010
,
1000
0000
0100
0000
0001
0000
0100
0000
1000
0000
0010
0100
0001
0100
0001
0100
,
0002
0000
0003
0000
0010
0000
0100
0000
1100
0000
0000
1010
0000
0000
0011
0000
,
1010
0000
0000
1100
0000
0000
0202
0000
0300
0000
0000
0000
1003
0000
0000
0000
,
1001
0000
1000
0010
0000
0001
0010
0000
0100
0000
0001
0100
0000
1000
0100
0000
,
0010
0000
0100
0001
0000
0010
1000
0000
0001
0000
0100
1000
0000
0010
0001
0000
,
1000
0100
1000
0100
0010
0100
0010
0100
0001
0010
0001
0010
0100
0010
0100
0010
,
1000
0010
0001
0100
0010
1000
0100
0001
0100
1000
0100
0010
0001
0000
0000
0000
,
2002
0000
3003
0000
1001
0000
0001
0100
0010
0000
2200
3300
0001
0000
2200
3300
,
0010
0000
2200
3300
0002
0000
0000
0000
0013
0000
1000
0000
0010
0000
0001
0000
,
2002
0000
3003
0000
1001
0000
1000
0100
0010
0000
0202
0303
1000
0000
0202
0303
,
0010
0000
0202
0303
2000
0000
0000
0000
3010
0000
0001
0000
0010
0000
1000
0000
,
2002
0000
3003
0000
0101
0000
0100
0010
1000
0000
0022
0033
0100
0000
0022
0033
,
1000
0000
0022
0033
0200
0000
0000
0000
0310
0000
0010
0000
1000
0000
0001
0000
,
2020
3030
0100
0000
2020
3030
0001
0000
2020
3030
0100
0000
1000
0010
0100
0001
,
0020
0000
0100
0000
0031
0000
0001
0010
0100
1000
0100
0010
0002
0000
0000
0000
,
1003
0000
0000
0000
2000
0000
3010
0100
0020
0000
0100
0001
0000
0000
0100
1000
,
0000
0000
0130
0001
0020
0000
0000
0000
0130
0000
0001
0000
0100
0000
1000
0000
,
0020
0000
0000
0000
0230
0000
0010
1000
0000
0000
0010
0001
0000
0000
0010
1000
,
0000
0000
0310
0001
0200
0000
0000
0000
1300
0000
0100
0001
0010
0000
0100
0000
,
1100
0000
0000
0000
0021
0000
0001
1000
0000
0000
1000
0001
0000
0000
0001
1030
,
0010
0100
0001
0010
0100
1000
0010
0100
0002
0000
2003
0000
3200
0000
0320
0000
,
0031
0000
0000
0000
1200
0000
1000
0001
0000
0000
0001
1000
0000
0000
1000
0001
,
0000
0001
1300
0100
0010
0000
0110
0000
0001
0100
0010
1000
1001
0000
0000
0000
,
0220
0000
0000
0000
0000
0000
0000
0000
0000
0000
0000
0000
0000
0000
0000
0000
0030
0000
0000
0000
0000
0000
0000
0000
0000
0000
0000
0000
0000
0000
0000
0300
0201
0000
0000
0000
0000
0000
0000
0000
0000
0000
0000
0000
0000
0000
0000
0300
0210
0000
0000
0000
0000
0000
0000
0300
1200
0000
0000
0000
0000
0000
0000
0000
,
0000
0000
0000
0000
0000
0000
0000
0300
0210
0000
0000
0000
0000
0000
0000
0300
1200
0000
0000
0000
0000
0000
0000
0300
0201
0000
0000
0000
0000
0000
0000
0000
0000
0000
0000
0000
0000
0000
0000
0300
0210
0000
0000
0000
0000
0000
0000
0300
0201
0000
0000
0000
0000
0000
0000
0300
1200
0000
0000
0000
0000
0000
0000
0300
,
0202
0300
0020
0003
0200
0030
0001
0001
,
0300
0000
1100
0000
1010
0000
0000
0011
0000
0000
1100
0000
0000
0101
0000
0000
,
0220
0000
0000
0000
0000
0000
0000
0000
0000
0000
0000
0000
0000
0000
0000
0000
0030
0000
0000
0000
0000
0000
0000
0000
0000
0000
0000
0000
0000
0000
0000
0300
1200
0000
0000
0000
0000
0000
0000
0000
0000
0000
0000
0000
0000
0000
0000
0300
0210
0000
0000
0000
0000
0000
0000
0300
0201
0000
0000
0000
0000
0000
0000
0000
,
0000
0000
0000
0000
0000
0000
0000
0300
0210
0000
0000
0000
0000
0000
0000
0300
0201
0000
0000
0000
0000
0000
0000
0300
1200
0000
0000
0000
0000
0000
0000
0000
0000
0000
0000
0000
0000
0000
0000
0000
0001
0000
0000
0000
0000
0000
0000
0000
1300
0000
0000
0000
0100
0000
0000
0000
0001
0000
0000
0000
0010
0000
0000
0000
,
1000
0000
0010
0000
0001
0000
0100
0000
0110
0000
0010
1000
0100
0001
1000
0010
,
0002
0000
0000
0000
0000
0000
2000
3003
,
1001
0000
0000
0000
,
0000
0000
0000
0000
,
0000
0000
0000
0000
,
0000
0000
0000
0000
,
0001
0000
0010
0000
0100
0000
0010
0000
0001
0000
0010
0000
1000
0010
0001
0100
,
1000
0000
0100
0000
0010
0000
0100
0000
1000
0000
0100
0000
0001
0010
1000
0010
,
0001
0100
0001
0100
0010
1000
0010
1000
0100
0010
0100
0010
0001
1000
0001
1000
,
0002
0000
0100
0000
0103
0000
0100
0010
1000
0000
1010
0000
0101
0000
0000
0000
,
2020
0000
0030
0000
0001
0000
0010
0010
0000
0001
3001
0000
1000
0010
0100
0001
,
0022
0000
0030
0000
1000
0000
0010
0010
0000
1000
1003
0000
1000
0001
0010
0100
,
0220
0000
0300
0000
0001
0000
1000
1000
0000
0001
0031
0000
0001
1000
0010
0100
,
0220
0000
0300
0000
1000
0000
0001
0001
0000
1000
1030
0000
1001
0000
1000
0001
,
0100
0010
0100
0010
0001
0000
0011
0000
0010
0100
0010
0100
1000
0000
1100
0000
,
0120
0000
1030
0000
0210
0000
0301
0000
0001
0010
1000
0001
0100
1000
0010
0100
,
0002
2003
3200
0320
0032
2003
3020
0230
,
0010
0000
0000
0000
1000
0000
0000
0000
0001
0000
0300
0000
1000
0100
0001
0010
,
1000
0000
1010
0000
0011
0000
0001
0100
0000
1000
0100
0000
0001
0010
0100
0001
,
0101
0000
0100
0000
1000
0000
0010
0001
0000
1000
0100
0001
0010
0100
1000
0010
,
0001
0000
0011
0000
1010
0000
1000
0100
0000
0001
0100
0000
1000
0010
0100
1000
,
1200
0000
0000
0000
0301
0000
0010
1000
0000
0001
0200
0000
1300
0010
0100
0001
,
1001
0000
1010
0000
0011
0000
0001
0010
0000
1000
0100
0000
0010
0100
0001
0100
,
1100
0000
1000
0000
0010
0000
0100
0001
0000
0010
1000
0001
0100
1000
0010
0100
,
0102
0000
0000
0000
1003
0000
1000
0100
0000
0001
1000
0000
0010
0001
0100
0010
,
2010
0000
0000
0000
3200
0000
0000
0000
0320
0000
0000
0000
0031
0100
0010
1000
,
0002
0103
0010
1000
0200
0310
0200
0310
0100
1000
0002
0100
0013
2000
0100
3010
,
0001
0000
0011
0000
1010
0000
0010
0001
0000
0100
1000
0000
0001
0010
0100
0010
,
2000
3100
0010
0001
0200
0310
0200
0310
0100
0001
2000
0100
3010
0002
0100
0013
,
2000
0000
0000
0000
3100
0000
0100
0001
0000
1000
0010
0000
0001
0100
0010
1000
,
0200
0310
0001
0100
0020
0031
0020
0031
0010
1000
0200
0010
0301
0200
0010
1300
,
0200
0310
0001
0010
0200
1000
0310
0200
0001
0310
0200
1000
0301
0100
0010
1000
,
1100
0000
0100
0000
0011
0000
0010
0000
1001
1000
0010
0100
1000
0001
0010
0100
,
0002
0000
1000
0000
1003
0000
1000
0100
0001
1000
0010
0001
0200
0000
0300
0000
,
0101
0000
0001
0010
1000
0010
0001
0000
0011
0000
1000
0010
0001
0010
1000
0000
,
1010
0000
1000
0100
0001
0100
1000
0000
1100
0000
0001
0100
1000
0100
0001
0000
,
0010
0100
0010
0001
0010
0100
0010
0001
0010
1000
0010
0001
0010
0010
0100
0100
,
1000
0010
0001
1000
0100
0001
0010
1000
0001
0100
1000
0020
0200
0000
0000
0330
,
1001
0000
0000
0000
;

//---------------dance-double - ----------------
#NOTEDATA:;
#CHARTNAME:;
#STEPSTYPE:dance-double;
#DESCRIPTION:;
#CHARTSTYLE:;
#DIFFICULTY:Challenge;
#METER:18;
#RADARVALUES:0.865529,1.075360,0.418397,0.933346,0.881047,753.000000,701.000000,52.000000,116.000000,0.000000,0.000000,0.000000,0.000000,0.000000,0.865529,1.075360,0.418397,0.933346,0.881047,753.000000,701.000000,52.000000,116.000000,0.000000,0.000000,0.000000,0.000000,0.000000;
#CREDIT:MILEN;
#NOTES:
// measure 0
00000000
00000000
00000000
00000000
,  // measure 1
00000000
00000000
00000000
00000000
,  // measure 2
00000000
00000000
00000000
00000000
,  // measure 3
00000000
00000000
00000000
00000000
,  // measure 4
00000000
00000000
00000000
00000000
,  // measure 5
00022000
00033000
00000000
00000000
00001000
00000000
00010000
01000000
00000000
01000000
10000000
00000000
00100000
00000000
00010000
00000000
,  // measure 6
00020020
00030030
00000000
00000000
00010000
00000000
00001000
00000100
00000000
00000100
00000001
00000000
00000010
00000000
00001000
00000000
,  // measure 7
00202000
00303000
00000000
00000000
00001000
00000000
00010000
00100000
00000000
00100000
10000000
00000000
01000000
00000000
00010000
00000000
,  // measure 8
00020200
00030300
00000000
00000000
00010000
00000000
00001000
00000010
00000000
00000010
00000001
00000000
00000100
00000000
00001000
00000000
,  // measure 9
00021000
00000000
00030010
00000000
00010000
00000000
00012000
00000000
01000000
00000000
00003000
00000000
00100000
00010000
00100000
01000000
,  // measure 10
20000000
30000000
00000000
10000000
00100000
00000000
01000000
00010000
00200000
00300000
00000000
01000000
00010000
00000000
00001000
00010000
,  // measure 11
00012000
00103000
00001000
00021000
00000100
00030000
00000010
00001000
,  // measure 12
00001200
00000000
00000310
00000000
00000010
00000001
00000010
00000100
00001000
00000000
00001020
00000000
00000100
00000000
00000030
00000000
,  // measure 13
00020010
00000000
00031000
00000000
00100000
00000000
00102000
00000000
00010000
00000000
00003000
00000000
01000000
00010000
01000000
00100000
,  // measure 14
10000000
00000000
01000000
00000000
00010000
00000000
00001000
00000000
00000010
00000000
00000001
00001000
00000100
00001000
00000100
00001000
,  // measure 15
00000200
00000000
00000300
00000000
00010000
00000000
00001000
00000000
01001000
00000000
00000000
00011000
00000000
00000000
00010100
00000000
,  // measure 16
00011000
00000000
00000000
00101000
00000000
00000000
00022000
00000000
00003000
00000000
00000000
00000000
00030010
00000000
00000000
00000000
,  // measure 17
00001010
00000000
00001000
00000100
00000000
00001000
00000001
00000000
00000100
00000000
00001000
00010000
00000000
00000010
00010000
00000000
,  // measure 18
00100000
00000000
00010000
00001000
00000000
01000000
00001000
00000000
00000100
00000000
00010000
00100000
00000000
00010000
10000000
00000000
,  // measure 19
01000000
00100000
01000000
00100000
00010000
00100000
00001000
00010000
00000010
00001000
00000010
00000100
00000010
00000100
00000001
00000010
,  // measure 20
00000100
00001000
00000100
00010000
00001000
01000000
00010000
01000000
00100000
10000000
01000000
00100000
00010000
00000000
00000000
00000000
,  // measure 21
00022000
00000000
00033000
00000000
00011000
00000000
00001000
00010000
01000000
00000000
20000000
30000000
00010000
00000000
00020000
00030000
,  // measure 22
00001000
00000000
00002000
00003000
00020000
00000000
00000000
00000000
10030000
00000000
00100000
00000000
00010000
00000000
00001000
00000000
,  // measure 23
00022000
00000000
00033000
00000000
00011000
00000000
00010000
00001000
00000100
00000000
00000002
00000003
00001000
00000000
00002000
00003000
,  // measure 24
00010000
00000000
00020000
00030000
00002000
00000000
00000000
00000000
00003001
00000000
00000010
00000000
00001000
00000000
00010000
00000000
,  // measure 25
00022000
00000000
00033000
00000000
00011000
00000000
00001000
00010000
00100000
00000000
20000000
30000000
00010000
00000000
00020000
00030000
,  // measure 26
00001000
00000000
00002000
00003000
00000002
00000000
00000000
00000000
00000103
00000000
00000100
00000000
00000010
00000000
00001000
00000000
,  // measure 27
00000002
00000003
00001000
00000000
00002000
00003000
00010000
00000000
00020000
00030000
10000000
00000000
00100000
01000000
00010000
10000000
,  // measure 28
02000000
00000000
00100000
00000000
03010000
00000000
00010000
00001000
00000010
00000100
00001000
00000001
00000020
00000000
00000000
00000000
,  // measure 29
00000130
00000000
00000000
00000000
00000020
00000000
00000031
00000100
00002000
00000000
00013000
01000000
00020000
00000000
00031000
00000100
,  // measure 30
00002000
00000000
00013000
01000000
00020000
00000000
00000000
00000000
00031000
00000000
00010000
00000000
01000000
00000000
10000000
00000000
,  // measure 31
00200000
00000000
00000000
00000000
00320000
00000000
00031000
00000010
00002000
00000000
00013000
00100000
00020000
00000000
00031000
00000010
,  // measure 32
00002000
00000000
00013000
00100000
00020000
00000000
00000000
00000000
00031000
00000000
00001000
00000010
00000001
00000000
00000100
00000000
,  // measure 33
00000110
00000000
00000000
00000000
00001001
00000000
00000001
00000100
00002000
00000000
00013000
00100000
20000000
00000000
31000000
00010000
,  // measure 34
00001000
00010000
01000000
10000000
00100000
10000000
01000000
00010000
00002000
00000000
00203000
00000000
02300000
00000000
23000000
00000000
,  // measure 35
30010000
00000000
00000000
00000000
10010000
00000000
10000000
01000000
00020000
00000000
00031000
00000010
00000002
00000000
00000103
00001000
,  // measure 36
00010000
00001000
00000100
00000001
00000010
00000000
00000110
00000000
00000100
00010000
00001000
00000000
00011000
00000000
00000000
00000000
,  // measure 37
00022000
00000000
00003000
00000000
00000020
00000030
00000010
00200000
,  // measure 38
00300000
00100000
00000010
00000200
00000300
00000100
01000000
00000100
,  // measure 39
00032000
00000000
00200000
00003000
02000000
00300000
00010000
00010000
,  // measure 40
03000000
00000000
00010000
00000000
00010100
00000000
00000000
01001000
00000000
00000000
00010010
00000000
00000000
00101000
00000000
00000000
,  // measure 41
00022000
00000000
00030000
00000000
00200000
00300000
00100000
00000020
,  // measure 42
00000030
00000000
00000010
00000000
00100000
00000000
02000000
00000000
03000000
00000000
01003000
00000000
00001000
00010000
00100000
00001000
,  // measure 43
00000010
00000000
00000100
00000000
00000001
00000000
00001000
00000000
00001010
00000000
00000010
00010000
00001000
00000100
00010000
01000000
,  // measure 44
00200000
00000000
00000000
00000000
00000000
00000000
20000000
30300000
,  // measure 45
10010000
00000000
00000000
00000000
,  // measure 46
00000000
00000000
00000000
00000000
,  // measure 47
00000000
00000000
00000000
00000000
,  // measure 48
00000000
00000000
00000000
00000000
,  // measure 49
00000001
00000000
00000100
00000000
00001000
00000000
01000000
00000000
00001000
00000000
00000100
00000000
00001000
00010000
01000000
00000000
,  // measure 50
10000000
00000000
01000000
00000000
00010000
00000000
00000100
00000000
00010000
00000000
01000000
00000000
00010000
00001000
00000100
00000000
,  // measure 51
00000001
00000010
00000001
00000010
00000100
00010000
00000100
00010000
00001000
01000000
00001000
01000000
00100000
10000000
00100000
10000000
,  // measure 52
02000000
00000000
00100000
00000000
03010000
00000000
00010000
00001000
00000010
00000000
00000011
00000000
00001100
00000000
00000000
00000000
,  // measure 53
00022000
00000000
00003000
00000000
00001000
00000000
00000010
00000010
00000000
00000100
00030100
00000000
00000100
00000010
00001000
00010000
,  // measure 54
00022000
00000000
00030000
00000000
00010000
00000000
00100000
00100000
00000000
01000000
01003000
00000000
01000000
00100000
00010000
00001000
,  // measure 55
02002000
00000000
00003000
00000000
00010000
00000000
10000000
10000000
00000000
00010000
03010000
00000000
00010000
00100000
00001000
00010000
,  // measure 56
00020200
00000000
00030000
00000000
00001000
00000000
00000001
00000001
00000000
00001000
00001300
00000000
00001001
00000000
00000001
00000100
,  // measure 57
00001000
00010000
00001000
00010000
01000000
00000000
11000000
00000000
00010000
00001000
00010000
00001000
00000100
00000000
00000101
00000000
,  // measure 58
00000002
00000000
00000023
00000000
00000230
00000000
00002300
00000000
00003010
00010000
00001000
01000000
00100000
10000000
00010000
00100000
,  // measure 59
02000000
03020000
00032000
00003200
00000302
00000023
00002030
00023000
,  // measure 60
00001000
00000000
00000000
00000000
00001000
00000000
00000000
00000000
00031000
00000000
00000000
00000000
00001000
00010000
01000000
10000000
,  // measure 61
00200000
00000000
01000000
00000000
00310000
00000000
00010000
00100000
00000000
10000000
01000000
00000000
00010000
00001000
00000010
00000001
,  // measure 62
00000100
00000000
00001000
00000000
01000000
00000000
00010000
00100000
00000000
01000000
00010000
00001000
00000010
00000001
00001000
00000100
,  // measure 63
00000020
00000000
00000001
00000000
00000130
00000000
00000100
00001000
00000000
00000010
00000001
00000000
00001000
00000100
00000010
00010000
,  // measure 64
00200000
00000000
00000000
00000000
10300000
00000000
10000000
01000000
00000000
00010000
00002000
00000000
00103000
01000000
00010000
00001000
,  // measure 65
00000200
00000000
00000001
00000000
00000310
00000000
00000010
00001000
00000000
00000001
00000100
00000000
00001000
00010000
00100000
00001000
,  // measure 66
00000010
00000000
00010000
00000000
01000000
00000000
10000000
00100000
00000000
00010000
00001000
00000010
00000100
00001000
00000001
00000100
,  // measure 67
00000020
00000000
00000000
00000000
00010030
00000000
00010000
00000100
00000000
00000010
00001000
00000000
00010000
01000000
10000000
00100000
,  // measure 68
00020000
00000000
00000000
00000000
00032000
00000000
00000000
00000000
00003200
00000000
00000000
00000000
00000301
00000010
00000100
00001000
,  // measure 69
00000010
00010000
00000010
00001000
00000100
00000010
00000100
00000010
00000100
00001000
00000010
00000001
00000010
00001000
00000100
00000010
,  // measure 70
00002000
00000000
00010000
00000000
00103000
00000000
00100000
00010000
00000000
01000000
10000000
00000000
01000000
00100000
10000000
01000000
,  // measure 71
00100000
00001000
00100000
00010000
01000000
00100000
01000000
00100000
01000000
00010000
00100000
10000000
00100000
00010000
01000000
00100000
,  // measure 72
20000000
00000000
00000000
00000000
31000000
00000000
01000000
00010000
00000000
10000000
00100000
00000000
00010000
01000000
00001000
00010000
,  // measure 73
00000010
00001000
00100000
00010000
00001000
00010000
00001000
00010000
00100000
10000000
01000000
00010000
00001000
00010000
01000000
10000000
,  // measure 74
00100000
00010000
00001000
00000010
00000001
00000100
00001000
00010000
00001000
00000100
00000001
00000100
00001000
00010000
00100000
10000000
,  // measure 75
02000000
00000000
03010000
00000000
00002000
00000000
00003100
00000000
00000001
00000010
00000100
00010000
00001000
00100000
01000000
10000000
,  // measure 76
00200000
00000000
01000000
00000000
00310000
00000000
00010000
00001000
00000010
00010000
00100000
00001000
00000200
00000000
00000300
00000000
,  // measure 77
00000101
00000000
00000001
00000010
00001000
00010000
01000000
00000000
11000000
00000000
10000000
01000000
00010000
00001000
00000010
00000000
,  // measure 78
00000011
00000000
00000001
00000100
00001000
00010000
00100000
00000000
10100000
00000000
10000000
01000000
00010000
00001000
00000010
00000000
,  // measure 79
00000001
00000100
00000010
00000100
00001000
00010000
00100000
01000000
00100000
10000000
01000000
00010000
00001000
00001000
00010000
00010000
,  // measure 80
00001000
00000010
00000001
00000100
00000010
00001000
00010000
00100000
01000000
10000000
00100000
00020000
00002000
00000000
00000000
00033000
,  // measure 81
00011000
00000000
00000000
00000000
;
