#TITLE:De-a lungul vieţii;
#SUBTITLE:;
#ARTIST:倉持武志;
#TITLETRANSLIT:De-a lungul vietii;
#SUBTITLETRANSLIT:;
#ARTISTTRANSLIT:Takeshi Kuramochi;
#GENRE:CASTLEVANIA SLOT 3;
#CREDIT:;
#BANNER:De-a lungul vietii.png;
#BACKGROUND:De-a lungul vietii-bg.png;
#LYRICSPATH:;
#CDTITLE:;
#MUSIC:De-a lungul vietii.ogg;
#OFFSET:-0.003000;
#SAMPLESTART:59.293003;
#SAMPLELENGTH:15.620000;
#SELECTABLE:YES;
#BPMS:0.000000=174.000000
;
#STOPS:
;
#BGCHANGES:;
#KEYSOUNDS:;
#ATTACKS:;

//---------------dance-single - ----------------
#NOTES:
     dance-single:
     :
     Hard:
     17:
     0.838086,1.146547,0.212615,0.480353,0.818962,745.000000,718.000000,27.000000,61.000000,0.000000,0.000000,0.838086,1.146547,0.212615,0.480353,0.818962,745.000000,718.000000,27.000000,61.000000,0.000000,0.000000:
// measure 0
0000
0000
0000
0000
,  // measure 1
0000
0000
0000
0000
,  // measure 2
0000
0000
0000
0000
,  // measure 3
0000
0000
0000
0000
,  // measure 4
0000
0000
0000
0000
,  // measure 5
0000
1001
0000
1001
,  // measure 6
0000
0000
0000
0000
0000
0000
0001
1000
0001
0000
0000
0100
0000
0000
0010
0000
,  // measure 7
1000
0000
0000
0000
0001
0000
0100
0010
0100
0000
0001
0000
0010
0100
0010
0000
,  // measure 8
0001
0100
0001
0000
1000
0100
1000
0000
0001
0010
0100
1000
0001
0100
0010
1000
,  // measure 9
0001
0000
0010
0000
0100
1000
0001
0000
1000
0000
0100
0010
0000
0001
1000
0000
,  // measure 10
0001
0000
0100
0000
0010
1000
0001
0000
0010
0000
0100
0000
1000
0000
0001
0000
,  // measure 11
1000
0000
0100
0000
0010
0001
1000
0000
0001
0000
0010
0100
0000
1000
0001
0000
,  // measure 12
1000
0000
0010
0000
0100
0001
1000
0000
0001
0000
0100
0000
1000
0000
0100
0000
,  // measure 13
0001
0000
0010
0000
0100
1000
0010
0000
1000
0000
0100
0010
0000
0001
1000
0000
,  // measure 14
0001
0000
0100
0000
0010
1000
0100
0000
0010
0000
0100
0000
1000
0000
0001
0000
,  // measure 15
1000
0000
0100
0000
0010
0001
0100
0000
0001
0000
0010
0100
0000
1000
0001
0000
,  // measure 16
1000
0010
0100
0010
0001
0010
0100
0010
,  // measure 17
1002
0000
0000
0000
0013
0100
0010
0100
1000
0100
1000
0001
1000
0000
0001
0100
,  // measure 18
0001
0100
0010
1000
0010
1000
0001
1000
0001
0000
0000
1001
0000
0000
1001
0000
,  // measure 19
0001
0000
1000
0000
0100
1000
0001
0000
1000
0000
0100
0010
0001
1000
0001
0000
,  // measure 20
1000
0000
0001
0000
0100
0001
1000
0000
0001
0000
0100
0010
1000
0001
1000
0000
,  // measure 21
0002
0010
2003
3020
,  // measure 22
0032
0000
0000
0000
0013
0000
0100
0000
0001
0000
1000
0100
0010
0100
1000
0000
,  // measure 23
0001
0000
1000
0000
0010
1000
0001
0000
1000
0000
0010
0100
0001
1000
0001
0000
,  // measure 24
1000
0100
0010
0100
0001
0000
1000
0010
,  // measure 25
0002
0000
0010
0000
0103
0001
0010
0100
,  // measure 26
1000
0000
0001
0000
0100
0010
0100
0000
0001
0010
0100
1000
0001
0100
0010
1000
,  // measure 27
0001
0000
1000
0000
0010
1000
0100
0000
1000
0000
0010
0100
0001
1000
0001
0000
,  // measure 28
1000
0000
0001
0000
0010
0001
0100
0000
0001
0000
0010
0100
1000
0001
1000
0000
,  // measure 29
0002
0100
2003
3200
,  // measure 30
0302
0000
0000
0000
0103
0000
0010
0000
0001
0000
1000
0010
0100
0010
1000
0000
,  // measure 31
0001
0000
1000
0000
0100
1000
0010
0000
1000
0000
0100
0010
0001
1000
0001
0000
,  // measure 32
1000
0010
0100
0010
0001
0000
1000
0100
,  // measure 33
0002
0000
0100
0000
0013
0001
0100
0010
,  // measure 34
1000
0000
0100
0010
0100
0010
0001
0010
0001
0100
0010
1000
0001
0010
0100
1000
,  // measure 35
0002
0000
0000
0000
0003
0000
0000
0000
1000
0000
0000
0100
0000
0000
0010
0000
,  // measure 36
0200
0000
0000
0000
0310
0000
0000
0000
0011
0000
0000
0001
0000
0000
0102
0000
,  // measure 37
0000
0000
1003
0000
2010
0000
0000
0000
3001
0000
0000
0010
0000
0000
1000
0000
,  // measure 38
0010
0100
1000
0001
0100
0010
1000
0001
1000
0100
0010
0001
1000
0010
0100
0001
,  // measure 39
2000
0000
0000
0000
3000
0000
0000
0000
0001
0000
0000
0100
0000
0000
0010
0000
,  // measure 40
0200
0000
0000
0000
0310
0000
0000
0000
1010
0000
0000
1000
0000
0000
2100
0000
,  // measure 41
0000
0000
3001
0000
0012
0000
0000
0000
1003
0000
0000
0010
0000
0000
0001
0000
,  // measure 42
0011
0000
0000
0110
0000
0000
0102
0000
0000
0000
1003
0001
1000
0000
0000
0000
,  // measure 43
0001
0000
0010
0000
0100
1000
0001
0000
0100
0000
0010
1000
0100
1000
0001
0000
,  // measure 44
1000
0010
0100
0010
0001
0010
0100
0001
,  // measure 45
0100
0000
0001
0000
0010
0100
1000
0000
0001
0000
0010
0001
0100
0001
1000
0000
,  // measure 46
0001
0000
0010
0000
0100
0000
0010
0000
1000
0000
0010
0100
1000
0000
0001
0000
,  // measure 47
1000
0000
0010
0000
0100
0001
1000
0000
0100
0000
0010
0001
0100
0001
1000
0000
,  // measure 48
0001
0010
0100
0010
1000
0010
0100
1000
,  // measure 49
0001
0000
0100
0000
0010
0100
0001
0000
1000
0000
0010
1000
0100
1000
0001
0000
,  // measure 50
1000
0000
0010
0000
0100
0000
0010
0000
1000
0100
0010
0001
1000
0010
0100
0001
,  // measure 51
2000
3200
0302
0103
,  // measure 52
0020
0000
0000
0000
0031
1000
0001
0000
0200
0000
0000
0000
2300
0000
0000
0000
,  // measure 53
3200
0000
0000
0000
0310
0100
0010
0100
0001
0100
0001
0100
0001
1000
0001
1000
,  // measure 54
0200
0000
0310
0000
1001
0000
0001
1000
,  // measure 55
0001
0100
0010
0100
0001
1000
0100
0000
1000
0010
0100
0010
1000
0001
0100
0000
,  // measure 56
0001
0010
0100
0010
0001
1000
0100
0000
1000
0010
0100
0010
1000
0001
0100
0000
,  // measure 57
0001
0010
0100
1000
0001
0010
0100
0000
1000
0010
0100
0001
1000
0010
0100
0000
,  // measure 58
0001
1000
0100
0010
0001
1000
0010
0100
0001
0010
0100
1000
0001
0100
0010
1000
,  // measure 59
0002
0000
0000
0203
,  // measure 60
1300
0000
0100
0000
0010
0000
1000
0000
0100
0000
0010
0000
,  // measure 61
0002
0000
0000
0000
,  // measure 62
2000
0000
0000
0000
3003
0000
0000
0000
0001
0000
0000
0100
0000
0000
1000
0000
,  // measure 63
0200
0300
0000
0000
,  // measure 64
0000
0000
0010
0000
1000
0001
1000
0000
0012
0000
0000
1003
0000
0000
2100
0000
,  // measure 65
0000
0000
3010
0000
1000
0000
0000
0000
0001
0000
0000
0010
0000
0000
1000
0000
,  // measure 66
1010
0000
0000
0000
0000
0000
0000
0000
0000
0110
0000
0000
0000
0000
0000
0000
0000
0000
1100
0000
0000
0000
0000
0000
0000
0000
0000
0000
0000
0000
0000
0000
1000
0000
0001
0000
2000
0000
0000
0000
0000
0000
0000
0000
0000
0000
0000
0000
,  // measure 67
3001
0000
0010
0001
0100
0001
1000
0000
0010
0000
1000
0100
1000
0001
1000
0000
,  // measure 68
0001
0000
0100
0001
0010
0001
1000
0000
0100
0000
1000
0010
1000
0001
1000
0000
,  // measure 69
0001
0000
1000
0001
0010
0001
0100
0000
0010
0000
1000
0100
1000
0001
1000
0000
,  // measure 70
0001
0000
0000
0100
0000
0000
0010
0000
0000
0100
0000
0000
1000
0000
0000
0100
0000
0000
0010
0000
1000
0000
0001
0000
,  // measure 71
1000
0000
0001
0010
0100
1000
0010
0000
1000
0000
0001
0010
0100
1000
0010
0000
,  // measure 72
1000
0000
0001
0100
0010
1000
0100
0000
1000
0000
0001
0100
0010
1000
0100
0000
,  // measure 73
1000
0001
0010
0100
1000
0010
1000
0000
0001
1000
0010
0100
0001
0010
0001
0000
,  // measure 74
1000
0001
0001
0010
0100
0100
1000
0000
,  // measure 75
1001
2000
3200
0302
,  // measure 76
2003
3020
0032
1003
,  // measure 77
1001
0002
0203
2300
,  // measure 78
3002
0023
2030
3001
,  // measure 79
1001
2000
3200
0302
,  // measure 80
0023
2030
3002
2003
,  // measure 81
3001
0100
0010
1000
0100
0010
0001
0100
0010
1000
0001
0010
0100
1000
0001
0000
,  // measure 82
1000
0100
0010
0001
0100
0010
1000
0100
0010
0001
1000
0010
0100
0001
1000
0000
,  // measure 83
0001
0100
0001
0100
1000
0100
1000
0100
0010
0100
0010
0100
0001
1000
0001
1000
,  // measure 84
0010
0000
0000
0010
0000
0000
0020
0000
0000
0000
0000
0000
0030
0000
0000
0000
,  // measure 85
2001
0000
0000
0000
3100
0000
0000
0000
1000
0000
0000
0010
0000
0000
0100
0000
,  // measure 86
0020
0000
0000
0000
0130
0000
0000
0000
0101
0000
0000
0001
0000
0000
0012
0000
,  // measure 87
0000
0000
1003
0000
2100
0000
0000
0000
3001
0000
0000
0100
0000
0000
1000
0000
,  // measure 88
0100
0010
1000
0001
0010
0100
1000
0001
1000
0010
0100
0001
1000
0001
1000
0100
,  // measure 89
0002
0000
0000
0000
,  // measure 90
0000
0000
0000
0000
,  // measure 91
0003
0000
0000
0000
;

//---------------dance-single - ----------------
#NOTES:
     dance-single:
     :
     Medium:
     13:
     0.557974,0.609103,0.157493,0.496102,0.098433,496.000000,476.000000,20.000000,63.000000,0.000000,0.000000,0.557974,0.609103,0.157493,0.496102,0.098433,496.000000,476.000000,20.000000,63.000000,0.000000,0.000000:
0000
0000
0000
0000
,
0000
0000
0000
0000
,
0000
0000
0000
0000
,
0000
0000
0000
0000
,
0000
0000
0000
0000
,
0000
1001
0000
1001
,
0000
0000
0000
0000
0000
0000
0000
0000
0001
0000
0000
0100
0000
0000
0010
0000
,
2000
0100
3002
0010
,
1003
0010
0100
0001
0010
0100
1000
0001
,
1000
0010
1000
0010
0100
0001
0100
0001
,
1000
0100
0010
0001
1000
0000
1001
0000
,
0001
0100
0001
0100
0010
1000
0010
1000
,
0001
0010
0100
1000
0001
0000
1001
0000
,
1000
0100
1000
0100
0001
0100
0001
0100
,
0010
0001
1000
0010
0100
0000
1001
0000
,
0001
0100
0001
0100
1000
0100
1000
0100
,
0001
0010
0100
0010
1000
0010
0100
0010
,
0002
0000
0103
0100
0010
0010
1000
0000
,
0001
0000
0010
0000
0100
0000
1000
0000
0001
0000
0000
0001
0000
0000
0001
0000
,
2000
0000
0010
0000
3001
1000
0010
0100
,
0002
0000
0010
0000
1003
0001
0010
0100
,
0002
0103
0020
0230
,
2300
0000
3001
0100
0010
0000
1001
0000
,
0002
0000
0010
0000
0103
0001
0010
0100
,
1000
0000
0100
0000
0001
0000
0100
0010
,
0002
0000
0010
0000
0103
0001
0010
0100
,
2000
0010
3001
1001
,
0002
0000
0010
0000
1003
0001
0010
0100
,
2000
0000
0010
0000
3001
1000
0010
0100
,
2000
3100
0020
0230
,
0302
0000
1003
0100
0010
0000
1001
0000
,
2000
0000
0010
0000
3100
1000
0010
0100
,
0001
0000
0100
0000
1000
0000
0100
0010
,
2000
0000
0010
0000
3100
1000
0010
0100
,
0002
0010
2003
3010
,
2002
0000
0000
0000
3003
0000
0000
0000
0001
0000
0000
0100
0000
0000
0010
0000
,
0100
0000
0000
0000
0001
0000
0000
0000
0010
0000
0000
0100
0000
0000
1000
0000
,
0000
0000
0010
0000
0001
0000
0000
0000
0010
0000
0000
0100
0000
0000
0001
0000
,
1000
0100
0001
0100
0010
0100
1000
0001
,
2002
0000
0000
0000
3003
0000
0000
0000
1000
0000
0000
0100
0000
0000
0010
0000
,
0100
0000
0000
0000
1000
0000
0000
0000
0010
0000
0000
0100
0000
0000
0001
0000
,
0000
0000
0010
0000
1000
0000
0000
0000
0010
0000
0000
0100
0000
0000
1000
0000
,
0001
0000
0000
1000
0000
0000
2002
0000
0000
0000
0000
0000
3003
0000
0000
0000
,
0001
0100
0001
0100
0010
0100
0001
1000
,
0100
0010
1000
0010
,
0001
0010
0001
0010
0100
1000
0010
1000
,
0001
0100
0110
1001
,
1000
0100
1000
0100
0010
0100
1000
0001
,
0100
0010
0001
0010
,
1000
0010
1000
0010
0100
0001
0010
0001
,
1000
0100
0100
0000
1000
0010
0100
0001
,
2000
0100
3001
1000
,
0002
0203
2300
3200
,
0302
0010
0103
0001
,
2000
0000
0010
0000
3100
0000
1000
0001
,
1000
0100
0010
0001
0001
0010
0100
1000
,
1000
0010
0100
0001
0001
0100
0010
1000
,
1000
0100
0010
0001
0001
0100
0010
1000
,
0001
0010
0100
1000
0001
0100
0010
1000
,
0002
0000
0000
1003
,
0010
0000
0100
0000
0001
0000
1000
0000
0100
0000
0010
0000
,
0002
0000
0000
0000
,
1003
0000
0000
0000
0000
0000
0000
0000
0001
0000
0000
0100
0000
0000
1000
0000
,
0200
0300
0000
0000
,
0000
0000
0010
0000
1000
0001
1000
0000
0001
0000
0000
0010
0000
0000
2000
0000
,
0000
0000
0000
0000
3000
0000
0000
0000
0010
0000
0000
0100
0000
0000
1000
0000
,
0001
0000
0000
1000
0000
0000
0110
0000
0000
0000
0000
0000
2001
0000
0000
0000
,
3001
0100
0001
0100
1000
0100
1000
0100
,
0010
0100
0010
0100
0001
1000
0001
0000
,
1000
0100
1000
0100
0001
0100
0001
0100
,
0010
0000
0000
0100
0000
0000
1000
0000
0000
0001
0000
0000
0100
0000
0000
0010
0000
0000
1000
0000
0000
0000
0001
0000
,
1000
0010
1000
0010
0001
0010
0001
0010
,
0100
0010
0100
0010
1000
0001
1000
0000
,
0001
0010
0001
0010
1000
0010
1000
0010
,
0001
0100
1000
0100
0001
1000
0001
0000
,
1001
2000
3200
0320
,
2030
3020
0230
1300
,
1001
0002
0203
0320
,
0032
0023
0230
0301
,
1001
2000
3200
0302
,
2003
3020
0032
1003
,
0001
0100
0010
0100
1000
0100
0010
0100
,
0001
0010
0100
0010
1000
0010
0100
0010
,
0001
0100
1000
0100
0001
0010
1000
0010
,
0001
0000
0000
1000
0000
0000
2002
0000
0000
0000
3003
0000
0000
0000
0000
0000
,
2002
0000
0000
0000
3003
0000
0000
0000
0001
0000
0000
0010
0000
0000
0100
0000
,
0010
0000
0000
0000
0001
0000
0000
0000
0100
0000
0000
0010
0000
0000
1000
0000
,
0000
0000
0100
0000
0001
0000
0000
0000
0100
0000
0000
0010
0000
0000
0001
0000
,
1000
0000
0010
0000
0001
0000
0010
0000
0100
0000
0010
0000
1000
0001
1000
0001
,
2000
0000
0000
0000
,
0000
0000
0000
0000
,
3000
0000
0000
0000
;

//---------------dance-single - ----------------
#NOTES:
     dance-single:
     :
     Easy:
     8:
     0.370108,0.429955,0.165367,0.425230,0.015749,329.000000,308.000000,21.000000,54.000000,0.000000,0.000000,0.370108,0.429955,0.165367,0.425230,0.015749,329.000000,308.000000,21.000000,54.000000,0.000000,0.000000:
0000
0000
0000
0000
,
0000
0000
0000
0000
,
0000
0000
0000
0000
,
0000
0000
0000
0000
,
0000
0000
0000
0000
,
0000
1001
0000
1001
,
0000
0000
0001
1000
,
0020
0100
2030
3001
,
1000
0100
0010
1001
,
0002
0100
1000
0100
,
1003
0100
0010
0001
,
2000
0100
0001
0100
,
3001
0100
0010
1000
,
0002
0010
1000
0010
,
1003
0010
0100
0001
,
2000
0010
0001
0010
,
3001
0010
0100
1000
,
2002
3003
0000
0000
,
0000
0000
1001
1001
,
0002
0100
0103
0001
,
2000
0100
3100
1000
,
0002
0010
2003
0010
,
3002
0100
1003
0000
,
0002
0010
0013
0001
,
1000
0010
0001
0010
,
0200
0001
0301
0010
,
0200
1300
0001
1001
,
2000
0100
3100
1000
,
0002
0100
0103
0001
,
2000
0010
3002
0010
,
2003
0100
3001
0000
,
2000
0010
3010
1000
,
0001
0010
1000
0010
,
0200
1000
1300
0010
,
0200
0301
2000
3001
,
2002
3003
0001
0100
,
0010
0100
0001
1000
,
0100
0001
0100
0010
,
0001
0001
1000
1000
,
2002
3003
1000
0100
,
0010
0100
1000
0001
,
0100
1000
0100
0010
,
1000
0000
0000
1000
0000
0000
1000
0000
0000
0000
0000
0000
1001
0000
0000
0000
,
0002
0100
1003
0100
,
0010
0100
0001
0100
,
2000
0010
3001
0010
,
0001
0100
0010
1000
,
0002
0010
1003
0010
,
1000
0010
0100
0001
,
2000
0010
3001
0010
,
0002
0100
2003
0100
,
3002
0010
0103
0001
,
2000
3020
0230
0302
,
2003
0100
3010
1000
,
0002
0100
0013
0001
,
1000
1010
0000
1010
,
0001
0011
0000
0011
,
1000
1100
0000
1100
,
0001
0100
1000
0100
,
0002
0000
0000
1003
,
0001
0010
1000
0010
,
0200
0000
0000
0000
,
0310
0000
0001
1000
,
2002
3003
0000
0000
,
0000
0000
0000
0000
0000
0000
0000
0000
0001
0000
0000
0001
0000
0000
0002
0000
,
0000
0003
0100
0010
,
1000
0000
0000
1000
0000
0000
1000
0000
0000
0000
0000
0000
1002
0000
0000
0000
,
1003
0010
0100
0010
,
0001
0010
0100
0001
,
1000
0100
0010
0100
,
0001
0100
1000
0000
,
0001
0100
0010
0100
,
1000
0100
0001
1000
,
0001
0010
0100
0010
,
1000
0010
0001
1001
,
2000
0010
0010
0001
,
0001
0100
3100
1000
,
0002
0010
0010
1000
,
1000
0100
0103
0001
,
1000
0100
0001
0100
,
1000
0010
0001
0010
,
0100
0100
0100
0010
,
1000
1000
1000
0100
,
0010
0010
0010
0001
,
1000
0000
0000
0001
0000
0000
1000
0000
0000
0000
0000
0000
0000
0000
0000
0000
,
2002
3003
0001
0010
,
0100
0010
0001
1000
,
0010
0001
0010
0100
,
0001
0010
0001
0000
1000
0010
1000
0000
,
2002
0000
0000
0000
,
0000
0000
0000
0000
,
3003
0000
0000
0000
;

//---------------dance-single - ----------------
#NOTES:
     dance-single:
     :
     Beginner:
     4:
     0.253113,0.322466,0.055122,0.023624,0.000000,225.000000,218.000000,7.000000,3.000000,0.000000,0.000000,0.253113,0.322466,0.055122,0.023624,0.000000,225.000000,218.000000,7.000000,3.000000,0.000000,0.000000:
0000
0000
0000
0000
,
0000
0000
0000
0000
,
0000
0000
0000
0000
,
0000
0000
0000
0000
,
0000
0000
0000
0000
,
0000
0010
0000
0010
,
0000
0000
0100
0100
,
0100
0000
0001
0000
,
0010
0010
0010
0010
,
0010
0000
0100
0000
,
1000
0000
0001
0001
,
0001
0000
0100
0000
,
0010
0000
1000
1000
,
1000
0000
0100
0000
,
0001
0000
0100
0100
,
0100
0000
0010
0000
,
0001
0001
0001
0001
,
0001
0000
0000
0000
,
0000
0000
0100
0100
,
0100
0000
0010
0010
,
0010
0000
1000
1000
,
1000
0000
0100
0000
,
0010
0000
0001
0000
,
1000
0000
0010
0010
,
0010
0010
0010
0000
,
0100
0000
0001
0001
,
0001
0000
1000
0000
,
0010
0000
0100
0100
,
0100
0000
1000
1000
,
1000
0000
0010
0000
,
0100
0000
0001
0000
,
1000
0000
0100
0100
,
0100
0100
0100
0000
,
0010
0000
0001
0001
,
0001
0000
1000
0000
,
1001
0000
0001
0000
,
0100
0000
0010
0010
,
0010
0010
0000
0100
,
0100
0000
0001
0000
,
1001
0000
1000
0000
,
0100
0000
0010
0010
,
0010
0010
0000
0100
,
0100
0100
0100
0000
,
1000
0000
0010
0000
,
0100
0100
0100
0000
,
0001
0000
1000
0000
,
0010
0000
1001
0000
,
0001
0000
0010
0000
,
0100
0100
0100
0000
,
1000
0000
0001
0000
,
0010
0000
1001
0000
,
0001
0001
0001
0000
,
1000
1000
1000
1000
,
1000
0000
0010
0000
,
0100
0000
1001
0000
,
0001
0001
0001
0001
,
0001
0001
0001
0000
,
1000
1000
1000
1000
,
1000
1000
1000
1000
,
2000
0000
0000
0000
,
3000
0000
0000
0000
,
0002
0000
0000
0000
,
0003
0000
0000
0000
,
1001
0000
0000
0000
,
0000
0000
0010
0010
,
0010
0000
0100
0100
,
0100
0100
0100
0000
,
0001
0001
0001
0001
,
0001
0001
0001
0000
,
0010
0010
0010
0010
,
0010
0010
0010
0000
,
0100
0100
0100
0100
,
0100
0100
0100
0000
,
1000
1000
1000
1000
,
1000
1000
1000
0000
,
0001
0000
0100
0000
,
1000
1000
1000
0000
,
0001
0000
0010
0000
,
0100
0100
0100
0000
,
0001
0000
0010
0000
,
1000
1000
1000
1000
,
1000
0000
0010
0000
,
0100
0000
1000
0000
,
0001
0000
0100
0000
,
0010
0010
0010
0000
,
1001
0000
0100
0000
,
0010
0000
0001
0001
,
0001
0001
0000
1000
,
1000
1000
1000
1000
,
2000
0000
0000
0000
,
0000
0000
0000
0000
,
3000
0000
0000
0000
;
