#VERSION:0.83;
#TITLE:Daydream Warrior;
#SUBTITLE:;
#ARTIST:Aqours;
#TITLETRANSLIT:;
#SUBTITLETRANSLIT:;
#ARTISTTRANSLIT:;
#GENRE:;
#ORIGIN:;
#CREDIT:;
#BANNER:;
#BACKGROUND:;
#PREVIEWVID:;
#JACKET:;
#CDIMAGE:;
#DISCIMAGE:;
#LYRICSPATH:;
#CDTITLE:;
#MUSIC:Daydream Warrior.ogg;
#OFFSET:0.000000;
#SAMPLESTART:60.439999;
#SAMPLELENGTH:15.600000;
#SELECTABLE:YES;
#BPMS:0.000=135.000;
#STOPS:;
#DELAYS:;
#WARPS:;
#TIMESIGNATURES:0.000=4=4;
#TICKCOUNTS:0.000=4;
#COMBOS:0.000=1;
#SPEEDS:0.000=1.000=0.000=0;
#SCROLLS:0.000=1.000;
#FAKES:;
#LABELS:0.000=Song Start;
#BGCHANGES:;
#KEYSOUNDS:;
#ATTACKS:
;

//---------------dance-single - ----------------
#NOTEDATA:;
#CHARTNAME:;
#STEPSTYPE:dance-single;
#DESCRIPTION:;
#CHARTSTYLE:;
#DIFFICULTY:Hard;
#METER:14;
#RADARVALUES:0.557427,0.691716,0.452276,0.523221,0.345858,440.000000,389.000000,51.000000,59.000000,0.000000,0.000000,0.000000,0.000000,0.000000,0.557427,0.691716,0.452276,0.523221,0.345858,440.000000,389.000000,51.000000,59.000000,0.000000,0.000000,0.000000,0.000000,0.000000;
#CREDIT:Kekkle-TimeCrunch;
#NOTES:
0000
0000
0000
0000
,
0000
0000
0000
0000
,
0000
0000
0000
0000
,
0000
0000
0000
0000
,
0000
0000
0000
0000
,
0001
0000
0000
0001
0000
0000
0001
0000
0100
0000
0010
0000
0001
0000
0010
0000
,
1000
0000
0000
1000
0000
0000
1000
0000
0000
0000
0000
0000
0000
0000
0001
0000
,
1001
0000
1000
0100
1000
0100
0010
0000
0001
1000
0001
0200
0000
0000
0301
0000
,
1001
0000
1000
0001
0010
0001
1000
0000
0001
1000
0010
0100
0002
0000
0000
0000
,
1003
0000
0000
0100
0000
0000
0010
0000
0110
0000
0000
1100
0000
0000
2010
0000
,
0000
0000
3002
0000
0003
0000
0010
0000
0110
0000
0000
0011
0000
0000
0102
0000
,
0000
0000
2003
0000
3000
0000
0010
0000
0110
0000
0000
1010
0000
0000
1200
0000
,
0000
0000
0310
0000
0100
0000
0010
0000
0110
0000
0000
0000
1001
0000
0001
1000
,
0100
0000
0010
0000
0001
0100
0000
0000
0100
0000
0010
0000
1000
0100
0000
0000
,
0100
0000
0010
0000
0001
0100
0000
0000
0100
0000
0010
0000
1000
0100
0000
0000
,
0100
0010
0001
1000
0001
0100
0010
1000
0001
0010
0100
1000
0010
1000
0200
0000
,
0000
0000
0000
0000
0000
0000
0310
0001
1000
0000
0001
0100
0010
0000
0100
0000
,
0110
0000
0001
0000
1000
0100
0000
2000
0000
0000
0001
0000
0010
0000
0010
0000
,
3001
0000
1000
0000
0001
0100
0000
0002
0000
0000
1000
0000
0010
0000
0010
0000
,
1003
0000
0001
0000
1000
0010
0000
2000
0000
0000
0001
0000
0100
0000
0100
0000
,
3001
0000
0000
1000
0000
0000
0001
0000
0000
0000
0000
0000
2002
0000
3003
0000
,
1000
0000
0001
0000
0100
0010
0000
2000
0000
0000
3001
0000
1001
0000
0001
0000
,
1000
0000
0100
0000
0010
0001
0000
2000
0000
0000
3010
0000
0110
0000
0010
0000
,
0100
0000
0001
0000
1000
0100
0000
0020
0000
0000
0031
0000
1001
0000
0001
0000
,
0100
0000
0000
0100
0000
0000
0010
0000
0000
0000
1000
0000
2001
0000
0000
0000
,
3100
0000
0010
0000
0001
0000
1000
0020
0000
0000
0130
0000
0001
0000
0010
0000
,
0002
0000
0000
0000
1000
0000
0000
0000
0010
0000
0000
1000
0000
0000
0013
0000
,
0012
0000
0000
0103
0000
0000
0010
0000
1010
0000
1000
0100
0000
0000
0010
0000
,
0011
0000
0001
0200
0000
0000
0010
0000
0000
0000
0000
0000
0301
0000
0000
0000
,
0100
0000
0010
0000
1000
0000
0001
0020
0000
0000
0130
0000
1000
0000
0010
0000
,
2000
0000
0000
0000
0001
0000
0000
0000
0010
0000
0000
0001
0000
0000
3010
0000
,
2010
0000
0000
3100
0000
0000
0010
0000
0011
0000
0001
0100
0000
0000
0010
0000
,
1010
0000
1000
0200
0000
0000
0010
0000
0000
1300
0001
0000
1001
0000
1000
0000
,
0001
0001
0100
0010
0100
1000
0100
0001
,
1000
0000
1000
0000
0100
0000
0100
0000
0010
0001
1000
0010
0200
0000
0000
0000
,
0310
1000
0001
0020
1000
0130
0020
0031
,
2000
3001
0100
0020
0001
0130
0010
1000
,
0002
0000
2003
3020
0000
0001
0000
0200
,
0000
0000
0330
0010
1000
0100
1000
0010
,
0100
0001
1000
0200
0001
0310
0200
1300
,
0002
1003
0010
0200
1000
0310
0100
0001
,
2000
0000
3002
0203
0000
1000
0000
0020
,
0330
0000
0100
0000
0010
0000
1000
0000
0001
0010
0100
1000
0010
0000
0200
0000
,
0000
0001
0000
1300
0100
0001
1000
0200
,
0000
0301
0100
2000
0000
3001
0010
0001
,
0100
0010
1000
0001
0010
1000
0010
0002
,
0000
0000
0010
0000
1003
0010
0100
0020
,
0000
1030
0100
0010
0001
0100
0001
0020
,
0000
1030
0010
0002
0000
1003
0010
0100
,
0101
0000
0000
0011
0000
0000
1001
0000
1100
0000
0000
1010
0000
0000
1001
0000
,
0101
0000
0000
0011
0000
0000
1001
0000
0110
0000
0110
0000
2002
0000
3003
0000
,
1001
0000
0000
1000
0000
0000
0010
0000
1010
0000
0000
1100
0000
0000
1002
0000
,
0000
0000
0023
0000
0030
0000
0100
0000
1100
0000
0000
1010
0000
0000
1002
0000
,
0000
0000
0023
0000
0030
0000
0001
0000
0011
0000
0000
0101
0000
0000
2001
0000
,
0000
0000
3010
0000
0100
0000
0010
0000
0110
0000
0000
0000
1001
0000
0001
1000
,
0010
0000
0100
0000
0001
0010
0000
0000
0010
0000
0100
0000
1000
0010
0000
0000
,
0010
0000
0100
0000
0001
0010
0000
0000
0010
0000
0100
0000
1000
0010
0000
0000
,
0010
1000
0010
0100
0001
1000
0100
0010
0001
1000
0010
1000
0100
1000
0020
0000
,
0000
0000
0000
0000
0000
0000
0130
0001
1000
0000
0001
0010
0100
0000
0010
0000
,
0220
0000
0000
0000
,
0330
0000
0000
0000
;

//---------------dance-double - ----------------
#NOTEDATA:;
#CHARTNAME:;
#STEPSTYPE:dance-double;
#DESCRIPTION:;
#CHARTSTYLE:;
#DIFFICULTY:Hard;
#METER:14;
#RADARVALUES:0.514353,0.638507,0.195099,0.558694,0.336990,406.000000,384.000000,22.000000,63.000000,0.000000,0.000000,0.000000,0.000000,0.000000,0.514353,0.638507,0.195099,0.558694,0.336990,406.000000,384.000000,22.000000,63.000000,0.000000,0.000000,0.000000,0.000000,0.000000;
#CREDIT:Kekkle-RudePatterns;
#NOTES:
00000000
00000000
00000000
00000000
,
00000000
00000000
00000000
00000000
,
00000000
00000000
00000000
00000000
,
00000000
00000000
00000000
00000000
,
00000000
00000000
00000000
00000000
,
10000000
00000000
00000000
10000000
00000000
00000000
10000000
00000000
01000000
00000000
00010000
00000000
00001000
00000000
00100000
00000000
,
00001000
00000000
00000000
00001000
00000000
00000000
00001000
00000000
00000000
00000000
00000000
00000000
00000000
00000000
00010000
00000000
,
00001000
00000000
00010000
00000100
00000000
00000100
00001000
00000000
00000100
00000000
00000010
00000002
00000000
00000000
00001003
00000000
,
00000001
00000000
00000100
00000000
00000010
00000100
00000010
00000000
00000100
00000000
00000010
00010000
00002000
00000000
00000000
00000000
,
00013000
00000000
00000000
00010000
00000000
00000000
00100000
00000000
20000000
00000000
00000000
32000000
00000000
00000000
03020000
00000000
,
00000000
00000000
00032000
00000000
00003000
00000000
00000010
00000000
00000002
00000000
00000000
00000203
00000000
00000000
00002300
00000000
,
00000000
00000000
00023000
00000000
00030000
00000000
00100000
00000000
20000000
00000000
00000000
32000000
00000000
00000000
03020000
00000000
,
00000000
00000000
00031000
00000000
00010000
00000000
00001000
00000000
01001000
00000000
00000000
00000000
00010100
00000000
00010000
00001000
,
00010000
00000000
00001000
00000000
00000010
00000100
00000000
00000000
00000100
00000000
00010000
00000000
00001000
00010000
00000000
00000000
,
00001000
00000000
00010000
00000000
00100000
01000000
00000000
00000000
01000000
00000000
00001000
00000000
00010000
00001000
00000000
00000000
,
00010000
00000100
00001000
00000100
00000010
00000001
00001000
00000001
00000100
00000010
00001000
00000010
00010000
00001000
00020000
00000000
,
00000000
00000000
00000000
00000000
00000000
00000000
00031000
00100000
00001000
00000000
00010000
00000010
00010000
00000000
00001000
00000000
,
00011000
00000000
00010000
00000000
00001000
01000000
00000000
00200000
00000000
00000000
10300000
00000000
00010000
00000000
00100000
00000000
,
00000000
00000000
00001000
00000000
00010000
00000100
00000000
00000020
00000000
00000000
00000031
00000000
00001000
00000000
00000010
00000000
,
00000000
00000000
00010000
00000000
00001000
00100000
00000000
02000000
00000000
00000000
13000000
00000000
00010000
00000000
01000000
00000000
,
00001000
00000000
00000000
00001000
00000000
00000000
00001000
00000000
00000000
00000000
00000000
00000000
00022000
00000000
00033000
00000000
,
00001000
00000000
00010000
00000000
00000100
00000010
00000000
00002000
00000000
00000000
00003001
00000000
00000100
00000000
00010000
00000000
,
00000000
00000000
00001000
00000000
01000000
00100000
00000000
00020000
00000000
00000000
10030000
00000000
01000000
00000000
00001000
00000000
,
00000000
00000000
00010000
00000000
00000010
00000100
00000000
00002000
00000000
00000000
00003001
00000000
00000010
00000000
00010000
00000000
,
00001000
00000000
00000000
00001000
00000000
00000000
00001000
00000000
00000000
00000000
00010000
00000000
00001000
00020000
00000000
00000000
,
00031000
00000000
01000000
00000000
00100000
00000000
10000000
00020000
00000000
00000000
00130000
00000000
01000000
00000000
10000000
00000000
,
02000000
00000000
00000000
00000000
03020000
00000000
00000000
00000000
00031000
00000000
00000000
00001000
00000000
00000000
00001000
00000000
,
00020000
00000000
00000000
00030010
00000000
00000000
00000100
00000000
00000101
00000000
00000100
00001000
00000000
00000000
00010000
00000000
,
00011000
00000000
00010000
02000000
00000000
00000000
00100000
00000000
00000000
00000000
00000000
00000000
13000000
00000000
00010000
00000000
,
00100000
00000000
00001000
00000000
00010000
00000000
00000010
00000200
00000000
00000000
00000301
00000000
00001000
00000000
00000001
00000000
,
00000200
00000000
00000000
00000000
00002300
00000000
00000000
00000000
00013000
00000000
00000000
00010000
00000000
00000000
00010000
00000000
,
00002000
00000000
00000000
00103000
00000000
00000000
01000000
00000000
11000000
00000000
01000000
00010000
00000000
00000000
00001000
00000000
,
00011000
00000000
00001000
00000200
00000000
00000000
00000010
00000000
00000000
00000301
00001000
00000000
00001001
00000000
00000001
00000000
,
00000010
00000010
00000100
00000100
00001000
00001000
00010000
00010000
,
00100000
00000000
01000000
00000000
10000000
00000000
00010000
00000000
01000000
00100000
01000000
00001000
00020000
00000000
00000000
00000000
,
00031000
00000100
00000002
00000010
00000000
00001003
00000001
00000010
,
00001000
00010000
01000000
00200000
01000000
01000000
00310000
10000000
,
00100000
00010000
00001000
00000100
00000001
00000010
00000001
00000200
,
00000000
00000000
00000000
00000301
00001000
00000001
00000100
00001000
,
00010000
01000000
20000000
00100000
00000000
30010000
01000000
00100000
,
00010000
00001000
00000100
00000020
00000100
00000100
00001030
00000001
,
00000010
00001000
00010000
01000000
10000000
00100000
10000000
02000000
,
00000000
00000000
03010000
00000000
00001000
00000000
00100000
00000000
00001000
00010000
00000010
00000100
00000001
00000000
00000200
00000000
,
00000000
00000001
00000000
00010300
00001000
00010000
01000000
00200000
,
00000000
10300000
00010000
00200000
00000000
01300000
00010000
00001000
,
00000010
00001000
00010000
02000000
00000000
10000000
00000000
03002000
,
00000000
00000000
00013000
00100000
00010000
00001000
00000100
00000020
,
00000000
00000031
00000100
00002000
00000000
01003000
00100000
20000000
,
00000000
31000000
00010000
00002000
00000000
00000000
00013000
00001000
,
01001000
00000000
00000000
00101000
00000000
00000000
00011000
00000000
00010100
00000000
00000000
00010010
00000000
00000000
00011000
00000000
,
00101000
00000000
00000000
01001000
00000000
00000000
00011000
00000000
00001000
00000000
00010000
00000000
00022000
00000000
00033000
00000000
,
00001000
00000000
00000000
00001000
00000000
00000000
00000100
00000000
00000002
00000000
00000000
00000023
00000000
00000000
00002030
00000000
,
00000000
00000000
00013000
00000000
00000000
00000000
01000000
00000000
20000000
00000000
00000000
30200000
00000000
00000000
00320000
00000000
,
00000000
00000000
00031000
00000000
00000000
00000000
00000100
00000000
00000002
00000000
00000000
00000023
00000000
00000000
00002030
00000000
,
00000000
00000000
00013000
00000000
00001000
00000000
00010000
00000000
00010010
00000000
00000000
00000000
00101000
00000000
00001000
00010000
,
00001000
00000000
00010000
00000000
01000000
00100000
00000000
00000000
00100000
00000000
00001000
00000000
00010000
00001000
00000000
00000000
,
00010000
00000000
00001000
00000000
00000100
00000010
00000000
00000000
00000010
00000000
00010000
00000000
00001000
00010000
00000000
00000000
,
00001000
01000000
00010000
01000000
00100000
10000000
00010000
00100000
01000000
10000000
01000000
00100000
00001000
00010000
00002000
00000000
,
00000000
00000000
00000000
00000000
00000000
00000000
00013000
00000100
00010000
00000000
00001000
01000000
00001000
00000000
00010000
00000000
,
00022000
00000000
00000000
00000000
,
00033000
00000000
00000000
00000000
;

//---------------dance-single - ----------------
#NOTEDATA:;
#CHARTNAME:;
#STEPSTYPE:dance-single;
#DESCRIPTION:;
#CHARTSTYLE:;
#DIFFICULTY:Medium;
#METER:11;
#RADARVALUES:0.368662,0.399067,0.212836,0.558694,0.133022,291.000000,267.000000,24.000000,63.000000,0.000000,0.000000,0.000000,0.000000,0.000000,0.368662,0.399067,0.212836,0.558694,0.133022,291.000000,267.000000,24.000000,63.000000,0.000000,0.000000,0.000000,0.000000,0.000000;
#CREDIT:Kekkle-TimeCrunch;
#NOTES:
// measure 0
0000
0000
0000
0000
,  // measure 1
0000
0000
0000
0000
,  // measure 2
0000
0000
0000
0000
,  // measure 3
0000
0000
0000
0000
,  // measure 4
0000
0000
0000
0000
,  // measure 5
0001
0000
0000
0001
0000
0000
0001
0000
0000
0000
0000
0000
0000
0000
0000
0000
,  // measure 6
1000
0000
0000
1000
0000
0000
1000
0000
0000
0000
0000
0000
0000
0000
0000
0000
,  // measure 7
0002
0000
0000
0100
0000
0000
0103
0000
2000
0000
0000
0100
0000
0000
3100
0000
,  // measure 8
0002
0000
0000
0100
0000
0000
0103
0000
0010
0000
0100
0000
0010
0000
0000
0000
,  // measure 9
2002
0000
0000
0000
3003
0000
0000
0000
1000
0000
0000
0100
0000
0000
0220
0000
,  // measure 10
0000
0000
0000
0000
0330
0000
0000
0000
0001
0000
0000
0100
0000
0000
0220
0000
,  // measure 11
0000
0000
0000
0000
0330
0000
0000
0000
1000
0000
0000
0100
0000
0000
0220
0000
,  // measure 12
0000
0330
1001
0110
,  // measure 13
0001
1000
0100
0000
0010
0001
1000
0000
,  // measure 14
0001
0100
0010
0000
1000
0100
0010
0000
,  // measure 15
0001
1000
0010
0100
0001
0010
0100
2000
,  // measure 16
0000
3000
1001
0110
,  // measure 17
1000
0000
0000
1000
0000
0000
2000
0000
0000
0000
3100
0000
0010
0000
0001
0000
,  // measure 18
1000
0000
0000
1000
0000
0000
2000
0000
0000
0000
3010
0000
0100
0000
0001
0000
,  // measure 19
0100
0000
0000
0100
0000
0000
0200
0000
0000
0000
0310
0000
1000
0000
0001
0000
,  // measure 20
0010
0000
0000
0010
0000
0000
0010
0000
0000
0000
0000
0000
0110
0000
0000
0000
,  // measure 21
1000
0000
0000
0100
0000
0000
2000
0000
0000
0000
3100
0000
0110
0000
0000
0000
,  // measure 22
0001
0000
0000
0100
0000
0000
0002
0000
0000
0000
0103
0000
0110
0000
0000
0000
,  // measure 23
1000
0000
0000
0001
0000
0000
2000
0000
0000
0000
3100
0000
0110
0000
0000
0000
,  // measure 24
0010
0000
0000
0010
0000
0000
0010
0000
0000
0000
0000
0000
1001
0000
0000
0000
,  // measure 25
0001
0100
0010
1000
0020
0000
0130
0000
,  // measure 26
0002
0000
0000
0000
2003
0000
0000
0000
3100
0000
0000
0010
0000
0000
0100
0000
,  // measure 27
1000
0000
0000
1000
0000
0000
1000
0000
0001
0000
0000
0001
0000
0000
0001
0000
,  // measure 28
0100
0000
0000
0200
0000
0000
0000
0000
0000
0000
0000
0000
0310
0000
0000
0000
,  // measure 29
1000
0010
0100
0001
0200
0000
0310
0000
,  // measure 30
2000
0000
0000
0000
3002
0000
0000
0000
0013
0000
0000
0100
0000
0000
0010
0000
,  // measure 31
0001
0000
0000
0001
0000
0000
0001
0000
1000
0000
0000
1000
0000
0000
1000
0000
,  // measure 32
0010
0000
0000
0020
0000
0000
0130
0000
0000
0000
0001
0000
1000
0000
0000
0000
,  // measure 33
0001
0010
0100
0000
1000
0010
0100
0000
,  // measure 34
0001
1000
0001
0010
0100
1000
0001
0000
,  // measure 35
2000
0000
3010
0200
0000
0301
1000
0001
,  // measure 36
2000
0000
3100
0020
0000
0031
1000
0001
,  // measure 37
0200
0000
0310
2000
0000
3002
0000
0023
,  // measure 38
0000
0000
0130
0000
1000
0001
1000
0000
,  // measure 39
0002
0000
0013
0200
0000
1300
0001
1000
,  // measure 40
0002
0000
0103
0020
0000
1030
0001
1000
,  // measure 41
0200
0000
0310
0002
0000
2003
0000
3020
,  // measure 42
0000
0000
0000
0000
0130
0010
1001
0000
,  // measure 43
1000
0100
0010
0002
0000
1003
0010
1000
,  // measure 44
0001
0100
0010
2000
0000
0000
3001
0000
,  // measure 45
2000
0000
3100
0020
0000
0032
0000
0203
,  // measure 46
0000
0000
0000
0000
0310
1000
0010
0200
,  // measure 47
0000
0301
0010
0200
0000
1300
0100
0020
,  // measure 48
0000
0031
0100
0020
0000
0000
0130
0000
,  // measure 49
0001
0000
0000
0001
0000
0000
0001
0000
1000
0000
0000
1000
0000
0000
1000
0000
,  // measure 50
0001
0000
0000
0001
0000
0000
0001
0000
0100
0000
0010
0000
0110
0000
0000
0000
,  // measure 51
2002
0000
0000
0000
3003
0000
0000
0000
1000
0000
0000
0010
0000
0000
0202
0000
,  // measure 52
0000
0000
0000
0000
0303
0000
0000
0000
0001
0000
0000
0010
0000
0000
2200
0000
,  // measure 53
0000
0000
0000
0000
3300
0000
0000
0000
1000
0000
0000
0100
0000
0000
0022
0000
,  // measure 54
0000
0033
1001
0110
,  // measure 55
1000
0010
0100
0000
0001
0010
0100
0000
,  // measure 56
1000
0001
0010
0000
0100
1000
0001
0000
,  // measure 57
1000
0010
0100
0001
0010
0100
1000
0200
,  // measure 58
0000
0300
1001
0110
,  // measure 59
2002
0000
0000
0000
,  // measure 60
3003
0000
0000
0000
;
