#TITLE:Dans la nuit de l'eternite;
#SUBTITLE:;
#ARTIST:BEMANI Sound Team "レ・度胸兄弟";
#TITLETRANSLIT:;
#SUBTITLETRANSLIT:;
#ARTISTTRANSLIT:;
#GENRE:;
#CREDIT:;
#BANNER:Dans la nuit de l'eternite-base image bn.png;
#BACKGROUND:Dans la nuit de l'eternite-bg.png;
#LYRICSPATH:;
#CDTITLE:;
#MUSIC:Dans la nuit de l'eternite.ogg;
#OFFSET:0.408000;
#SAMPLESTART:83.075607;
#SAMPLELENGTH:12.000000;
#SELECTABLE:YES;
#BPMS:0.000000=122.000000
;
#STOPS:
;
#BGCHANGES:;
#KEYSOUNDS:;
#ATTACKS:;

//---------------dance-single - ----------------
#NOTES:
     dance-single:
     :
     Challenge:
     18:
     1.033978,1.060623,0.644248,0.397684,1.550967,910.000000,829.000000,81.000000,50.000000,0.000000,0.000000,1.033978,1.060623,0.644248,0.397684,1.550967,910.000000,829.000000,81.000000,50.000000,0.000000,0.000000:
0000
0000
0000
0000
,
0000
0000
0000
0000
,
0000
0000
0000
0000
,
0000
0000
0000
0000
,
1001
0000
0000
0000
0000
0000
1000
0100
0010
1000
0001
0100
0010
0000
0000
0000
,
1100
0000
0000
0000
0101
0000
0000
0000
0110
0000
0000
0000
0001
0010
0100
1000
,
0001
0100
0010
1000
0001
0010
0100
1000
0001
0100
0010
1000
0001
0010
0100
1000
,
1001
0000
0000
0000
0000
0000
0001
0100
0010
0001
1000
0100
0010
0000
0000
0000
,
1010
0000
0000
0000
0101
0000
0000
0000
1100
0000
0000
0000
0000
0000
0001
0010
,
0100
0001
1000
0010
0100
0000
0000
0000
1100
0000
0000
0000
0101
0000
0000
0000
,
0110
0000
0000
0000
1010
1000
0001
1000
0100
0010
0001
1000
0010
0100
0001
1000
,
0100
0010
0001
1000
0010
0100
0001
1000
0100
0100
0010
0010
0001
0001
1000
1000
,
0001
0000
0001
0000
0100
0000
0100
0000
0001
0000
0010
0000
1000
0000
0010
0000
0001
0000
0010
0000
1000
0000
0010
0000
0001
1000
0001
1000
0010
0100
0010
0100
,
0000
0000
0000
0000
0000
0000
0000
0000
0000
0000
0000
0000
0000
0000
0000
0000
0001
0000
0001
0000
1000
0100
1000
0100
2000
0000
0000
0000
3001
0000
0100
0000
,
0200
0000
0000
0000
0310
0000
1000
0000
0001
0000
1000
0000
0100
0000
1000
0000
0001
0000
0010
0100
0010
0000
0001
0000
2000
0000
0000
0000
3010
0000
0100
0000
,
0001
0000
0000
0000
1000
0001
1000
0001
0010
0000
0100
0010
0100
0000
1000
0000
0001
0000
0100
0010
0100
0000
0010
0000
1000
0000
0000
0000
0101
0000
0001
0000
,
0011
0000
1100
0000
1002
0000
0103
0010
1000
0001
0010
0100
2100
0000
3001
0100
,
0201
0000
0000
0000
0310
0000
1000
0000
0001
0000
1000
0000
0100
0000
0010
0000
0001
0000
1000
0010
1000
0000
0001
0000
0200
0000
0000
0000
0310
0000
0000
0000
,
1000
0000
0000
0000
0000
0000
0000
0000
0000
0000
0000
0000
1000
0000
0000
0000
0000
0000
0000
0000
0000
0000
0000
0000
0001
0000
0000
0000
0000
0000
0000
0000
0000
0000
0000
0000
0010
0000
0000
0000
0000
0000
0100
0000
0000
0000
0000
0000
1000
0000
0000
0000
0000
0000
0000
0000
0000
0000
0000
0000
0001
0000
0000
0000
0000
0000
0000
0000
0000
0000
0000
0000
0100
0000
0000
0000
0000
0000
0000
0000
0000
0000
0000
0000
0010
0000
0000
0000
0000
0000
1000
0000
0000
0000
0000
0000
0001
0000
0000
0000
0000
0000
0000
0000
0000
0000
0000
0000
0010
0000
0000
0000
0000
0000
0000
0000
0000
0000
0000
0000
0100
0000
0000
0000
0000
0000
0000
0000
0010
0000
0000
0000
0000
0000
0000
0000
0001
0000
0000
0000
0000
0000
0000
0000
1000
0000
0000
0000
0000
0000
0000
0000
0000
0000
0000
0000
0010
0000
0000
0000
0000
0000
0000
0000
0000
0000
0000
0000
0100
0000
0000
0000
0000
0000
0000
0000
0000
0000
0000
0000
0010
0000
0000
0000
0000
0000
1000
0000
0000
0000
0000
0000
,
0001
0000
0010
0000
0100
0010
0100
0010
0001
0000
1000
0000
0001
0000
0100
0010
1000
0000
0001
0000
0010
0100
0010
0100
1000
0000
0000
0000
0000
0000
0000
0000
,
0001
0000
0000
0000
0000
0000
0000
0000
0100
0000
0000
0000
0000
0000
0000
0000
0010
0000
0000
0000
0000
0000
0000
0000
1000
0000
0000
0000
0000
0000
0000
0000
0000
0000
0000
0000
0001
0000
0000
0000
0000
0000
0000
0000
0000
0000
0000
0000
0010
0000
0000
0000
0000
0000
0000
0000
0000
0000
0000
0000
0100
0000
0000
0000
0000
0000
0010
0000
0000
0000
0000
0000
0001
0000
0000
0000
0000
0000
0000
0000
0000
0000
0000
0000
1000
0000
0000
0000
0000
0000
0000
0000
0000
0000
0000
0000
0001
0000
0000
0000
0000
0000
0000
0000
0000
0000
0000
0000
0100
0000
0000
0000
0000
0000
0000
0000
0000
0000
0000
0000
1000
0000
0000
0000
0000
0000
0000
0000
0000
0000
0000
0000
0100
0000
0000
0000
0000
0000
0000
0000
0000
0000
0000
0000
0010
0000
0000
0000
0000
0000
0000
0000
0000
0000
0000
0000
0000
0000
0000
0000
0000
0000
0000
0000
0000
0000
0000
0000
0100
0000
0000
0000
0000
0000
0000
0000
0001
0000
0000
0000
0000
0000
0000
0000
0100
0000
0000
0000
0000
0000
0000
0000
,
0010
0000
0000
0000
0000
0000
0000
0000
0000
0000
0000
0000
0000
0000
0000
0000
0000
0000
0000
0000
0000
0000
0000
0000
1010
0000
0000
0000
0000
0000
0000
0000
0000
0000
0000
0000
0000
0000
0000
0000
0001
0000
0000
0000
0000
0000
0000
0000
0010
0000
0000
0000
0000
0000
0000
0000
0000
0000
0000
0000
0000
0000
0000
0000
0000
0000
0000
0000
0000
0000
0000
0000
0000
0000
0000
0000
0000
0000
0000
0000
0000
0000
0000
0000
0000
0000
0000
0000
0000
0000
0000
0000
0000
0000
0000
0000
0100
0000
0000
0000
0000
0000
0000
0000
0000
0000
0000
0000
1000
0000
0000
0000
0000
0000
0001
0000
0000
0000
0000
0000
1000
0000
0000
0000
0000
0000
0000
0000
0000
0000
0000
0000
0010
0000
0000
0000
0000
0000
0000
0000
0000
0000
0000
0000
0100
0000
0000
0000
0000
0000
0000
0000
0000
0000
0000
0000
0001
0000
0000
0000
0000
0000
0010
0000
0000
0000
0000
0000
0100
0000
0000
0000
0000
0000
0000
0000
0000
0000
0000
0000
0010
0000
0000
0000
0000
0000
0000
0000
0000
0000
0000
0000
,
0001
0000
0100
0000
0010
0000
1000
0001
1000
0000
0000
0000
0001
0010
0001
0010
0100
0000
0000
0000
1000
0000
0000
0001
0100
0000
0000
0000
0010
0000
0000
1000
,
0001
0000
0000
0000
0000
0000
0000
0000
0000
0000
0000
0000
0000
0000
0000
0000
0000
0000
0010
0000
0000
0000
0000
0000
0100
0000
0000
0000
0000
0000
0000
0000
0000
0000
0000
0000
0000
0000
0000
0000
0000
0000
1000
0000
0000
0000
0000
0000
0001
0000
0000
0000
0000
0000
0000
0000
0000
0000
0000
0000
0000
0000
0000
0000
0000
0000
0000
0000
0000
0000
0000
0000
0100
0000
0000
0000
0000
0000
0010
0000
0000
0000
0000
0000
1000
0000
0000
0000
0000
0000
0001
0000
0000
0000
0000
0000
1000
0000
0000
0000
0000
0000
0000
0000
0000
0000
0000
0000
0000
0000
0000
0000
0000
0000
0000
0000
0000
0000
0000
0000
0001
0000
0000
0000
0000
0000
0000
0000
0100
0000
0000
0000
0000
0000
0000
0000
0001
0000
0000
0000
0000
0000
0000
0000
1000
0000
0000
0000
0000
0000
0000
0000
0100
0000
0000
0000
0000
0000
0000
0000
1000
0000
0000
0000
0000
0000
0000
0000
0001
0000
0000
0000
0000
0000
0000
0000
0100
0000
0000
0000
0000
0000
0000
0000
0001
0000
0000
0000
0000
0000
0000
0000
,
2000
0000
0000
0000
3002
0000
0000
0000
1003
0100
1000
0100
0010
0001
0010
0001
1000
0000
0000
0001
0100
0000
0010
0000
1000
0000
0000
0000
0101
0000
0000
0000
,
0011
0000
0000
0000
0000
0000
0000
0000
0000
0000
0000
0000
0000
0000
0000
0000
0000
0000
0000
0000
0000
0000
0000
0000
1100
0000
0000
0000
0000
0000
0000
0000
0000
0000
0000
0000
0000
0000
0000
0000
0000
0000
0010
0000
0000
0000
0000
0000
0001
0000
0000
0000
0000
0000
0000
0000
0000
0000
0000
0000
0000
0000
0000
0000
0000
0000
0000
0000
0000
0000
0000
0000
0101
0000
0000
0000
0000
0000
0000
0000
0000
0000
0000
0000
0000
0000
0000
0000
0000
0000
0000
0000
0000
0000
0000
0000
1010
0000
0000
0000
0000
0000
0000
0000
0000
0000
0000
0000
0000
0000
0000
0000
0000
0000
0000
0000
0000
0000
0000
0000
0101
0000
0000
0000
0000
0000
0000
0000
0000
0000
0000
0000
0000
0000
0000
0000
0000
0000
0000
0000
0000
0000
0000
0000
1100
0000
0000
0000
0000
0000
0000
0000
0000
0000
0000
0000
0000
0000
0000
0000
0000
0000
0000
0000
0000
0000
0000
0000
0001
0000
0000
0000
0000
0000
0000
0000
0100
0000
0000
0000
0000
0000
0000
0000
0010
0000
0000
0000
0000
0000
0000
0000
,
1000
0000
0000
0000
1001
0000
0000
0000
1000
0100
1000
0100
1000
0000
0000
0001
0010
0000
0000
0000
0000
0000
0000
0000
0110
0000
0000
0000
1000
0000
0000
0000
,
0110
0001
0110
1000
0110
0001
0110
1000
,
0110
0000
0001
0000
0100
0010
1000
0001
0010
0010
0100
1000
0001
0100
0010
0010
,
1000
0001
0010
0100
1000
0001
0100
0100
0010
1000
0001
1000
2100
0000
3001
0010
,
1000
0010
0001
0001
2000
0000
3010
0100
0102
0000
1003
0010
0002
0000
0013
0100
,
0001
0001
1000
0100
0120
0000
0031
0100
2000
0000
3100
0100
0010
1000
0001
0001
,
0010
0100
1000
1000
0001
0100
1000
0100
0002
0000
0013
0100
0110
0000
1000
1000
,
0001
1000
0010
0100
0010
0010
1000
0001
1002
0000
1003
0010
0120
0000
1030
0001
,
0010
0000
0100
0100
0110
0000
1000
0100
1100
0000
1010
0000
0001
0100
0010
1000
,
0002
0000
0000
0000
0000
0000
0013
0000
0100
0000
1000
0000
0001
0000
0000
0000
0000
0000
0101
0000
0000
0001
0000
0000
1001
0000
0000
0000
0000
0000
1001
0000
0000
0000
0000
0000
2010
0000
0000
0000
0000
0000
3001
0000
0000
0010
0000
0000
,
0100
1000
0001
0001
1000
0010
0100
0100
0002
0000
0013
0100
0100
1000
0001
0100
,
0010
0010
1000
0000
2010
0000
3001
0010
0020
0000
0130
0100
1000
0001
1000
0010
,
2000
0000
0000
0000
3010
0000
0010
0000
1000
0000
0100
0000
0010
0000
0001
0000
2000
0000
0000
0000
3001
0000
0100
0010
2000
0000
0000
0000
3001
0000
0001
0000
,
0010
0000
0100
0010
0001
1000
0010
0010
0200
0000
0301
0010
0020
0100
0130
1000
,
0002
0000
0103
0000
0120
0000
1030
0000
0001
0001
1000
1000
0100
1000
0001
0010
,
0110
0000
0000
0000
0000
0000
0000
0000
0000
0000
0000
0000
0000
0000
0000
0000
0000
0000
0000
0000
0000
0000
0000
0000
1000
0000
0000
0000
0000
0000
0000
0000
0000
0000
0000
0000
0100
0000
0000
0000
0000
0000
0000
0000
0000
0000
0000
0000
1100
0000
0000
0000
0000
0000
0000
0000
0000
0000
0000
0000
0000
0000
0000
0000
0000
0000
0000
0000
0000
0000
0000
0000
0010
0000
0000
0000
0000
0000
0000
0000
0001
0000
0000
0000
0000
0000
0000
0000
0010
0000
0000
0000
0000
0000
0000
0000
0001
0000
0000
0000
0000
0000
0000
0000
0000
0000
0000
0000
0000
0000
0000
0000
0000
0000
0000
0000
0000
0000
0000
0000
1000
0000
0000
0000
0000
0000
0010
0000
0000
0000
0000
0000
1000
0000
0000
0000
0000
0000
0010
0000
0000
0000
0000
0000
0100
0000
0000
0000
0000
0000
0001
0000
0000
0000
0000
0000
0100
0000
0000
0000
0000
0000
0001
0000
0000
0000
0000
0000
1000
0000
0000
0000
0000
0000
0000
0000
0000
0000
0000
0000
0001
0000
0000
0000
0000
0000
0000
0000
0000
0000
0000
0000
,
0010
0100
0010
0100
1000
0000
0001
0000
0100
0000
0100
0000
0000
0000
0000
0000
0102
0000
0000
0000
0013
0000
0100
0000
0210
0000
0000
0000
1300
0000
1000
0000
,
0001
0000
0000
0000
1000
0000
0010
0000
0001
0000
0000
0010
1000
0000
0100
0000
0020
0000
0000
0000
0031
0000
0100
0000
0010
0000
0000
0000
1000
0001
1000
0001
,
0010
0000
0100
0010
0100
0000
1000
0000
0001
0000
0100
0010
0100
0000
0010
0000
1000
0000
0000
0000
0101
0000
0001
0000
0011
0000
0000
0000
1100
0000
1000
0000
,
2010
0000
3001
0001
0100
0010
1000
0001
0012
0000
1003
0010
0210
0000
0301
0001
,
1000
0000
0000
0000
0001
0000
0010
0000
1000
0000
0000
0010
0001
0000
0100
0000
0020
0000
0000
0000
1030
0000
0001
0000
1000
0000
1000
0000
0100
0000
0010
0001
,
1000
0000
0001
0000
0100
0000
0010
1000
0001
0000
0010
0000
0100
0010
0100
0010
0001
0000
1000
0000
0010
0000
0100
0001
1000
0000
0001
0000
0010
0000
0100
1000
,
0001
0000
0000
0000
0000
0000
0000
0000
0000
0000
0000
0000
0100
0000
0000
0000
0000
0000
0010
0000
0000
0000
0000
0000
1000
0000
0000
0000
0000
0000
0000
0000
0000
0000
0000
0000
0001
0000
0000
0000
0000
0000
0010
0000
0000
0000
0000
0000
0100
0000
0000
0000
0000
0000
0000
0000
0000
0000
0000
0000
0000
0000
0000
0000
0000
0000
0000
0000
0000
0000
0000
0000
1000
0000
0000
0000
0000
0000
0001
0000
0000
0000
0000
0000
1000
0000
0000
0000
0000
0000
0001
0000
0000
0000
0000
0000
0100
0000
0000
0000
0000
0000
0000
0000
0000
0000
0000
0000
0000
0000
0000
0000
0000
0000
0000
0000
0000
0000
0000
0000
0000
0000
0000
0000
0000
0000
0000
0000
0000
0000
0000
0000
0000
0000
0000
0000
0000
0000
0000
0000
0000
0000
0000
0000
0010
0000
0000
0000
0000
0000
0000
0000
0100
0000
0000
0000
0000
0000
0000
0000
0001
0000
0000
0000
0000
0000
0000
0000
1000
0000
0000
0000
0000
0000
0000
0000
0000
0000
0000
0000
0100
0000
0000
0000
0000
0000
0000
0000
0000
0000
0000
0000
,
0010
0000
0000
0000
0000
0000
0000
0000
0100
0000
0000
0000
0000
0000
0000
0000
1000
0000
0000
0000
0000
0000
0000
0000
0001
0000
0000
0000
0000
0000
0000
0000
0000
0000
0000
0000
0100
0000
0000
0000
0000
0000
0000
0000
0000
0000
0000
0000
1000
0000
0000
0000
0000
0000
0000
0000
0000
0000
0000
0000
0100
0000
0000
0000
0000
0000
0000
0000
0000
0000
0000
0000
0001
0000
0000
0000
0000
0000
0000
0000
0000
0000
0000
0000
1000
0000
0000
0000
0000
0000
0000
0000
0000
0000
0000
0000
1100
0000
0000
0000
0000
0000
0000
0000
0000
0000
0000
0000
0000
0000
0000
0000
0000
0000
0000
0000
0000
0000
0000
0000
0011
0000
0000
0000
0000
0000
0000
0000
0000
0000
0000
0000
0000
0000
0000
0000
0000
0000
0001
0000
0000
0000
0000
0000
0100
0000
0000
0000
0000
0000
0000
0000
0000
0000
0000
0000
0000
0000
0000
0000
0000
0000
0000
0000
0000
0000
0000
0000
1010
0000
0000
0000
0000
0000
0000
0000
0000
0000
0000
0000
0000
0000
0000
0000
0000
0000
1000
0000
0000
0000
0000
0000
,
0100
0000
0000
0000
0000
0000
0000
0000
0010
0000
0001
1000
0010
0000
0100
0000
0010
0000
1000
0001
0010
0000
0100
0000
1000
0000
0010
0000
0001
0000
0010
0000
,
1010
0000
0000
0000
0101
0000
0000
0001
0010
0000
0000
0000
1100
0000
0000
1000
0002
0000
0000
0000
0103
0000
0000
0010
0001
0000
0000
0010
1000
0000
0000
0001
,
0100
0000
0000
0000
0000
0000
0000
0000
0000
0000
0000
0000
0000
0000
0000
0000
0000
0000
0000
0000
0000
0000
0000
0000
0010
0000
0000
0000
0000
0000
1000
0000
0000
0000
0000
0000
0010
0000
0000
0000
0000
0000
1000
0000
0000
0000
0000
0000
0001
0000
0000
0000
0000
0000
0000
0000
0000
0000
0000
0000
0000
0000
0000
0000
0000
0000
0000
0000
0000
0000
0000
0000
1000
0000
0000
0000
0000
0000
0000
0000
0000
0000
0000
0000
0001
0000
0000
0000
0000
0000
0000
0000
0000
0000
0000
0000
0010
0000
0000
0000
0000
0000
0000
0000
0000
0000
0000
0000
0000
0000
0000
0000
0000
0000
0000
0000
0000
0000
0000
0000
0100
0000
0000
0000
0000
0000
0000
0000
1000
0000
0000
0000
0000
0000
0000
0000
0001
0000
0000
0000
0000
0000
0000
0000
1000
0000
0000
0000
0000
0000
0010
0000
0000
0000
0000
0000
1000
0000
0000
0000
0000
0000
0010
0000
0000
0000
0000
0000
0100
0000
0000
0000
0000
0000
0001
0000
0000
0000
0000
0000
0100
0000
0000
0000
0000
0000
0001
0000
0000
0000
0000
0000
,
1000
0000
0000
0000
0000
0000
0000
0000
0000
0000
0000
0000
0000
0000
0000
0000
0000
0000
0001
0000
0000
0000
0000
0000
0010
0000
0000
0000
0000
0000
0000
0000
0000
0000
0000
0000
1000
0000
0000
0000
0000
0000
0000
0000
0000
0000
0000
0000
0010
0000
0000
0000
0000
0000
0000
0000
0000
0000
0000
0000
0000
0000
0000
0000
0000
0000
0000
0000
0000
0000
0000
0000
0011
0000
0000
0000
0000
0000
0000
0000
0000
0000
0000
0000
0000
0000
0000
0000
0000
0000
0000
0000
0000
0000
0000
0000
0101
0000
0000
0000
0000
0000
0000
0000
0000
0000
0000
0000
0000
0000
0000
0000
0000
0000
0000
0000
0000
0000
0000
0000
1010
0000
0000
0000
0000
0000
0000
0000
0000
0000
0000
0000
0000
0000
0000
0000
1000
0000
0000
0000
0000
0000
0000
0000
0001
0000
0000
0000
0000
0000
0000
0000
0000
0000
0000
0000
0000
0000
0000
0000
0000
0000
0000
0000
0000
0000
0000
0000
0011
0000
0000
0000
0000
0000
0000
0000
0000
0000
0000
0000
0000
0000
0000
0000
0000
0000
0000
0000
0000
0000
0000
0000
,
0110
0000
0001
1000
0000
0000
1010
0000
0000
0110
0000
0001
1000
0000
0000
1100
0000
0100
0010
0000
0000
0001
0100
0010
,
1000
0000
0100
0000
0010
0000
0001
0000
1000
0000
0001
0000
1000
0000
0000
0000
0000
0000
0001
0000
0000
0010
0000
0000
1000
0000
0000
0010
0000
0000
0100
0000
0000
1000
0000
0000
0001
0000
0000
0000
0000
0000
1100
0000
0000
0000
0000
0000
,
0101
0000
0000
0000
0000
0000
0000
0000
0000
0000
0000
0000
0000
0000
0000
0000
0000
0000
0000
0000
0000
0000
0000
0000
0100
0000
0000
0000
0000
0000
0000
0000
0010
0000
0000
0000
0000
0000
0000
0000
1000
0000
0000
0000
0000
0000
0000
0000
0001
0000
0000
0000
0000
0000
0000
0000
0000
0000
0000
0000
0000
0000
0000
0000
0000
0000
0000
0000
0000
0000
0000
0000
0010
0000
0000
0000
0000
0000
0000
0000
0100
0000
0000
0000
0000
0000
0000
0000
1000
0000
0000
0000
0000
0000
0000
0000
0001
0000
0000
0000
0000
0000
0100
0000
0000
0000
0000
0000
0001
0000
0000
0000
0000
0000
0100
0000
0000
0000
0000
0000
0010
0000
0000
0000
0000
0000
1000
0000
0000
0000
0000
0000
0010
0000
0000
0000
0000
0000
1000
0000
0000
0000
0000
0000
0001
0000
0000
0000
0000
0000
0000
0000
0000
0000
0000
0000
0000
0000
0000
0000
0000
0000
0000
0000
0000
0000
0000
0000
1000
0000
0000
0000
0000
0000
0000
0000
0000
0000
0000
0000
0100
0000
0000
0000
0000
0000
0000
0000
0000
0000
0000
0000
,
0001
0000
0100
0010
0001
0000
1000
0000
0010
0000
0010
0000
0100
0000
0000
0000
0102
0000
0000
0000
0013
0000
0100
0000
0210
0000
0000
0000
1300
0000
0000
0000
,
0001
0000
1000
0100
0002
0000
0103
1000
2100
0000
3001
0100
0010
1000
0100
0010
,
0002
0000
0100
0000
0103
0000
0010
1000
0002
0000
0010
0000
0013
0000
0100
1000
0002
0000
0100
0000
0103
0000
0010
1000
0200
0000
0010
0000
0310
0000
0001
1000
,
0002
0000
0100
0000
0103
0000
0001
0000
1000
0100
1000
0100
0010
0000
0001
0000
1000
0000
0000
0000
0001
0000
0100
0000
0010
1000
0010
1000
0001
0000
0000
0000
,
1000
0000
0000
0000
0000
0000
0100
0000
0000
0000
0000
0000
0010
0000
0000
0000
0000
0000
0001
0000
0000
0000
0000
0000
1000
0000
0000
0000
0000
0000
0100
0000
0000
0000
0000
0000
0010
0000
0000
0000
0000
0000
0001
0000
0000
0000
0000
0000
2000
0000
0000
0000
0000
0000
0000
0000
0000
0000
0000
0000
0000
0000
0000
0000
0000
0000
0000
0000
0000
0000
0000
0000
0000
0000
0000
0000
0000
0000
0000
0000
0000
0000
0000
0000
0000
0000
0000
0000
0000
0000
0000
0000
0000
0000
0000
0000
0000
0000
0000
0000
0000
0000
0000
0000
0000
0000
0000
0000
0000
0000
0000
0000
0000
0000
0000
0000
0000
0000
0000
0000
3001
0000
0000
0000
0000
0000
0000
0000
0000
0000
0000
0000
0100
0000
0000
0000
0000
0000
0000
0000
0000
0000
0000
0000
0001
0000
0000
0000
0000
0000
0000
0000
0010
0000
0000
0000
0000
0000
0000
0000
0100
0000
0000
0000
0000
0000
0000
0000
1000
0000
0000
0000
0000
0000
0000
0000
0000
0000
0000
0000
0001
0000
0000
0000
0000
0000
0000
0000
0000
0000
0000
0000
,
0011
0101
0110
2002
,
0000
0000
3003
0000
;

//---------------dance-single - ----------------
#NOTES:
     dance-single:
     :
     Hard:
     15:
     0.728330,0.754605,0.564711,0.620387,0.576642,641.000000,570.000000,71.000000,78.000000,0.000000,0.000000,0.728330,0.754605,0.564711,0.620387,0.576642,641.000000,570.000000,71.000000,78.000000,0.000000,0.000000:
// measure 0
0000
0000
0000
0000
,  // measure 1
0000
0000
0000
0000
,  // measure 2
0000
0000
0000
0000
,  // measure 3
0000
0000
0000
0000
,  // measure 4
1001
0000
0000
0000
0000
0000
0001
0100
0010
0000
1000
0000
0001
0000
0000
0000
,  // measure 5
1100
0000
0101
0000
0110
0000
1000
0010
,  // measure 6
0001
0010
1000
0010
0001
0010
1000
0010
,  // measure 7
0110
0000
0000
0000
0000
0000
1000
0100
0010
0000
0001
0000
1000
0000
0000
0000
,  // measure 8
1010
0000
0000
0000
0101
0000
0000
0000
0011
0000
0000
0000
0000
0000
0001
0010
,  // measure 9
0100
1000
0010
0000
1100
0000
0011
0000
,  // measure 10
0110
0000
0000
0000
0002
0000
0003
0010
0002
0000
0003
1000
0020
0000
0030
1000
,  // measure 11
0002
0000
0003
0010
0200
0000
0300
1000
0002
0000
1003
0010
0200
0000
0301
1000
,  // measure 12
0200
0000
0310
0001
1000
0100
1000
0000
0001
0100
0001
0000
2000
0000
0002
0000
,  // measure 13
3003
0000
0000
0000
0000
0000
0000
0000
1000
0001
1000
0000
0002
0000
0003
0100
,  // measure 14
0020
0000
1000
0000
1030
0000
0001
1000
0001
0010
0100
1000
0200
0000
0010
0000
,  // measure 15
0310
0000
0001
1000
0010
0100
0001
0000
0010
0100
1000
0001
0100
0000
0020
0000
,  // measure 16
2030
0000
3002
0000
0023
0000
0130
0000
1000
0001
1000
0001
0200
0000
0000
0310
,  // measure 17
1000
0000
0001
0100
0001
0000
1000
0001
0010
0100
0010
0100
2000
0000
0001
0000
,  // measure 18
3001
0100
0001
0100
0010
0000
1000
0001
0010
0000
0001
1000
0100
0000
1000
0001
,  // measure 19
0100
0000
0010
1000
0001
0000
0010
0100
1000
0000
0001
0100
0010
0000
0000
0000
,  // measure 20
1000
0001
1000
0100
0010
0000
0001
0100
0010
0000
1000
0001
0010
0000
0110
0000
,  // measure 21
1000
0000
1100
0000
1001
0000
0000
0000
0001
1000
0001
0100
0010
1000
0001
1000
,  // measure 22
0100
0000
1000
0001
0010
0000
0011
0000
0001
0000
1001
0000
2000
0000
3010
0000
,  // measure 23
1010
0110
0101
2000
3100
0020
0032
0203
,  // measure 24
0320
2030
3200
0310
0011
1100
0101
0100
,  // measure 25
1010
0101
1100
0100
0011
1100
1001
0002
,  // measure 26
0103
0010
2010
3001
2100
0000
0001
0000
,  // measure 27
0001
0001
0001
0001
,  // measure 28
3001
0000
0000
0000
1000
0000
0100
0000
1000
0010
1000
0000
0001
0000
0100
0001
,  // measure 29
0100
0000
0001
0000
0010
0000
0001
0100
0001
0100
0010
0000
2000
0000
0010
0000
,  // measure 30
0010
0000
3001
0010
0100
0000
1000
0000
1100
0000
0000
1000
0002
0000
0010
0000
,  // measure 31
0103
0010
0100
0000
0002
0000
0103
0001
0010
0000
0100
0010
0100
0000
1000
0001
,  // measure 32
0200
0000
0310
1000
0002
0000
0013
0000
0120
0000
0031
0000
1002
0000
1003
0010
,  // measure 33
1000
0000
0010
0100
0010
1000
0010
0000
2010
0000
3001
0010
0002
0000
1000
0000
,  // measure 34
2003
0000
0010
0000
3001
0000
0100
0010
0100
0000
0110
0000
0001
0010
0100
0010
,  // measure 35
0002
2003
3100
0100
0110
0110
2000
0001
,  // measure 36
3001
0000
0100
0010
1000
0000
0100
0010
0001
0000
1000
0010
0200
0000
0001
0000
,  // measure 37
0310
1000
0010
0000
0120
0000
1030
0001
0010
0000
0100
1000
0200
0000
0320
0000
,  // measure 38
0032
0000
0100
0000
1003
0100
0010
0001
0200
0000
0310
1000
0002
0000
0103
0010
,  // measure 39
0100
0000
1000
0000
0100
0000
0001
0010
0200
0000
0310
0100
0010
0001
1000
0001
,  // measure 40
0100
0000
0010
0000
0110
0000
0010
0100
0010
0000
1000
0001
0010
0000
0100
1000
,  // measure 41
0100
0000
1000
0010
1000
0000
0010
0100
0001
0000
1000
0001
0010
0100
1000
0001
,  // measure 42
0100
0010
1000
0001
0010
0010
0000
0000
0002
0000
0013
0100
0020
0000
0031
1000
,  // measure 43
0001
0000
1000
0010
0100
0001
0010
0100
2000
0000
0001
0000
3001
0000
1000
0100
,  // measure 44
0010
0001
0100
0001
0010
0100
1000
0100
0010
0000
0011
0000
0101
0000
1010
0000
,  // measure 45
1001
0000
0001
0100
0010
0000
0010
0000
2010
0000
3001
0010
0200
0000
0310
0100
,  // measure 46
0010
0000
0100
1000
0001
0000
0100
0010
2000
0000
0010
0000
3001
1000
0100
0010
,  // measure 47
0001
0100
0001
0000
0101
0000
1000
0000
1100
0000
0001
0000
0011
0000
1000
0000
,  // measure 48
1010
0000
0001
0000
0101
0000
1000
0000
1001
0000
0000
0000
1000
0001
0010
0000
,  // measure 49
0001
1000
0010
0000
0100
0001
0010
0100
1000
0000
1001
0000
0001
0000
0101
0000
,  // measure 50
0110
0000
0000
0000
0010
1000
0001
0000
0010
0001
1000
0000
0001
0100
0010
1000
,  // measure 51
0100
0110
1000
1100
0002
0103
0110
1010
,  // measure 52
1002
0023
0130
0100
1000
0002
0203
2300
,  // measure 53
3100
0000
0001
0010
0100
0000
1100
0000
0110
0000
0001
0000
0101
0000
0110
0000
,  // measure 54
1010
0000
1001
0000
1100
0000
0110
0000
0011
0000
1000
0001
0100
0000
0020
0000
,  // measure 55
2030
0000
3200
0000
0310
0000
0001
1000
0001
0000
1000
0010
0001
0000
0010
0000
,  // measure 56
1000
0000
0001
0100
0001
0000
1000
0000
0200
0000
0310
0000
0001
0000
0010
0100
,  // measure 57
0010
0001
1000
0100
0001
0100
0010
0000
0002
0000
0103
0010
0200
0000
0001
0000
,  // measure 58
0301
0000
1000
0100
0002
0000
0103
0010
0200
0000
1300
0000
1001
0000
1000
0010
,  // measure 59
0100
0001
0010
0100
0010
0001
0100
0010
1000
0100
0010
0100
1000
0010
0100
0010
,  // measure 60
2000
0000
3002
0000
1003
0100
0010
0100
0002
0000
1003
0010
0100
0010
0002
0000
,  // measure 61
1003
0010
0100
0010
0002
0000
0000
0000
0000
0000
1003
0100
0001
1000
0001
0010
,  // measure 62
0100
1100
1010
2002
,  // measure 63
0000
3003
0000
0000
;

//---------------dance-single - ----------------
#NOTES:
     dance-single:
     :
     Medium:
     11:
     0.478357,0.578531,0.174981,0.477221,0.023861,421.000000,399.000000,22.000000,60.000000,0.000000,0.000000,0.478357,0.578531,0.174981,0.477221,0.023861,421.000000,399.000000,22.000000,60.000000,0.000000,0.000000:
0000
0000
0000
0000
,
0000
0000
0000
0000
,
0000
0000
0000
0000
,
0000
0000
0000
0000
,
1001
0000
0000
1000
0100
0010
0001
0000
,
1100
1001
1010
0002
,
0203
0320
2030
3001
,
1001
0000
0000
0001
0100
0010
1000
0000
,
0101
0000
1001
0000
0011
0000
0000
0001
,
0010
0100
1000
0000
0011
0000
1001
0000
,
0101
2000
3200
0320
,
0032
0000
0203
0000
0310
1000
0010
1000
,
0001
1000
0001
0010
0100
1000
0002
1003
,
0000
0000
0000
0002
,
0103
0010
0100
0010
2000
0000
3001
1000
,
0001
1000
0100
0010
0100
1000
0100
0010
,
0001
1000
0020
0100
0130
0001
2000
0000
,
3010
0100
0010
0100
0002
1000
1003
0100
,
1000
0100
0010
0010
0001
0001
1000
1000
,
0010
0010
0100
0100
0001
1000
1001
0000
,
0001
0010
1000
0010
0001
1000
0010
0100
,
0100
0001
1001
0000
1000
0100
0001
0100
,
1000
0001
0100
0010
0010
1000
1001
0001
,
0010
0100
1000
0002
1003
0002
0203
0320
,
2030
3002
2003
3200
0310
0001
1000
0001
,
0100
0100
0010
0010
1000
0001
1000
0001
,
0010
0100
2000
0000
3001
0000
0100
0000
,
0010
0100
0010
0100
,
0010
0000
1000
0100
0010
0100
1000
1000
,
0001
0100
0010
0100
0001
0001
2000
0010
,
3010
0100
0001
1000
0001
0000
0010
0010
,
0100
1000
0001
0000
1000
0000
0010
0100
,
0001
1000
0001
0010
0100
0000
2000
0000
,
3001
0100
0100
0100
0020
0000
2030
0000
,
3002
0000
1003
0100
0100
0010
0001
1000
,
0001
0100
0100
0100
0010
0010
2000
0000
,
3100
0010
0010
0010
0002
0000
2003
0000
,
3010
0000
0200
0000
0302
0000
1003
0100
,
0020
0000
0031
0100
0020
0000
2030
0000
,
3001
1000
0100
0010
0001
0000
2000
0000
,
3001
0100
0020
0000
1030
0001
1000
0001
,
0010
0100
0100
1000
1000
0001
0100
0010
,
1000
0001
1001
0000
0002
0100
0103
0010
,
1000
0100
0001
0100
2000
0001
3001
0100
,
0001
0010
1000
0010
0001
0010
0100
1000
,
0001
1000
0010
0100
0002
0000
2003
0100
,
3100
0010
0001
0100
1000
0100
0001
1000
,
0001
0001
0010
0010
0100
0100
1000
1000
,
0001
0001
0100
0010
0110
0000
1000
0010
,
0001
0010
1000
0001
0010
0100
0100
1000
,
1001
0000
0001
0010
1000
0010
0001
0100
,
0010
1000
1000
0001
0001
0010
0100
0010
,
0001
1000
0010
0100
0001
2000
3200
0320
,
0031
1000
0010
0001
0010
1000
0001
0010
,
1000
0010
0100
1000
0001
1000
0010
0200
,
0302
0023
0130
1000
0001
0010
1000
0010
,
0001
1000
0010
0001
0020
1030
0001
1000
,
0100
0020
0031
1000
0020
0000
0130
0100
,
0001
1000
0002
0000
0013
0010
0100
1000
,
0002
0103
2000
3100
0002
0103
2000
3100
,
0110
0000
0000
0000
1000
0100
1000
0100
1000
0000
0001
0100
0001
0100
0001
0000
,
1000
0010
1000
0010
2000
0000
0000
0000
3000
0000
0001
0000
1000
0000
0001
0000
,
1001
0011
1100
2002
,
0000
3003
0000
0000
;

//---------------dance-single - ----------------
#NOTES:
     dance-single:
     :
     Easy:
     8:
     0.313602,0.352149,0.127259,0.413591,0.000000,276.000000,260.000000,16.000000,52.000000,0.000000,0.000000,0.313602,0.352149,0.127259,0.413591,0.000000,276.000000,260.000000,16.000000,52.000000,0.000000,0.000000:
0000
0000
0000
0000
,
0000
0000
0000
0000
,
0000
0000
0000
0000
,
0000
0000
0000
0000
,
1001
0000
0001
0100
,
0010
1000
1001
1000
,
0001
1000
0001
1000
,
1001
0000
1000
0100
,
0010
0001
1001
0000
,
0001
0100
0010
1000
,
1001
0001
0100
0001
,
0100
0001
1000
0100
,
0010
0001
1000
0002
,
0003
0000
0000
2000
,
3010
0010
0200
0301
,
0001
0000
2000
0000
3200
0000
1300
0001
,
1000
0010
0100
0002
,
0013
0010
0200
1300
,
1000
0001
0010
1000
,
0010
0001
1000
1001
,
0100
1001
1000
0001
,
0100
0110
1000
0110
,
0001
0000
1000
0001
1000
0000
1001
0000
,
1000
0001
1000
0000
0100
0000
0020
0000
,
0032
0000
2003
0000
3001
0100
0001
0000
,
1000
0100
0010
0000
0001
1000
0001
0000
,
0100
0020
1030
0001
,
1000
0001
1000
0001
,
1000
0001
0010
0010
,
0001
1000
1000
0020
,
0000
0130
0001
1000
,
0100
0000
0020
0000
0031
0000
1000
0001
,
1000
0001
0200
0320
,
1000
0000
1030
0001
2000
0000
3200
0000
,
0320
0000
0031
0000
1000
0000
0001
0100
,
0010
1000
1000
0002
,
1000
1003
0200
0320
,
0031
1000
0002
0203
,
0320
0000
1030
0001
2000
0000
3200
0000
,
0310
0000
0010
0001
1000
0000
0002
0000
,
0103
0010
0200
0000
0310
0100
0010
0000
,
1000
0100
0010
0001
,
1000
1001
0002
0203
,
0310
2000
3200
0310
,
0002
0000
2003
0000
3010
0100
0010
0100
,
0001
1000
0200
2300
,
3001
0200
0302
1003
,
0001
0010
1000
0010
,
0001
1000
1001
0100
,
1001
0000
0100
0001
1000
0000
0100
0000
,
0110
1000
0110
0001
,
0010
0001
1000
0000
0010
0000
0100
0001
,
0200
0010
0310
2000
,
3001
0010
0001
0000
1000
1000
1000
0000
,
0001
0100
0001
0000
1000
0000
0100
0000
,
0020
0000
0031
0000
1000
0001
1000
0000
,
0010
0100
0010
0100
0020
0000
1030
0001
,
1000
0000
0100
1000
0200
0000
0310
0000
,
0010
0002
1000
1003
,
0002
0023
2030
3020
,
0032
0000
1003
0100
1000
0001
0100
0001
,
1000
0100
2000
0000
3000
0001
1000
0001
,
1000
0010
0100
2002
,
0000
3003
0000
0000
;
